osu file format v14

[General]
AudioFilename: audio.mp3
AudioLeadIn: 0
PreviewTime: 69755
Countdown: 1
SampleSet: None
StackLeniency: 0.7
Mode: 1
LetterboxInBreaks: 0
WidescreenStoryboard: 0

[Editor]
Bookmarks: 17433,69797,104707,139616,174525
DistanceSpacing: 1
BeatDivisor: 6
GridSize: 32
TimelineZoom: 1

[Metadata]
Title:Revavavavava Ideoloololololololo
TitleUnicode:Revavavavava Ideoloololololololo
Artist:Kyou1110
ArtistUnicode:Kyou1110
Creator:applerss
Version:Innererererer Oniinininininini
Source:
Tags:Reverse Ideology breakcore
BeatmapID:1416106
BeatmapSetID:669463

[Difficulty]
HPDrainRate:5
CircleSize:5
OverallDifficulty:6
ApproachRate:6
SliderMultiplier:1.4
SliderTickRate:1

[Events]
//Background and Video events
0,0,"seija.jpg",0,0
//Break Periods
//Storyboard Layer 0 (Background)
//Storyboard Layer 1 (Fail)
//Storyboard Layer 2 (Pass)
//Storyboard Layer 3 (Foreground)
//Storyboard Sound Samples

[TimingPoints]
-17,272.727272727273,4,1,0,70,1,0
69801,-86.9565217391304,4,1,0,70,0,1
103619,-100,4,1,0,70,0,0
139619,-86.9565217391304,4,1,0,70,0,1
174460,-86.9565217391304,4,1,0,70,0,0
208892,-76.9230769230769,4,1,0,70,0,0

[HitObjects]
256,192,0,5,4,0:0:0:0:
256,192,255,5,8,0:0:0:0:
256,192,392,1,0,0:0:0:0:
256,192,528,1,8,0:0:0:0:
256,192,596,1,8,0:0:0:0:
256,192,664,1,0,0:0:0:0:
256,192,801,1,0,0:0:0:0:
256,192,869,1,0,0:0:0:0:
256,192,937,1,8,0:0:0:0:
256,192,983,1,8,0:0:0:0:
256,192,1028,1,8,0:0:0:0:
256,192,1073,1,0,0:0:0:0:
256,192,1346,1,8,0:0:0:0:
256,192,1483,1,0,0:0:0:0:
256,192,1619,1,8,0:0:0:0:
224,192,1687,1,8,0:0:0:0:
256,192,1755,1,0,0:0:0:0:
256,192,1892,1,4,0:0:0:0:
256,192,2028,1,0,0:0:0:0:
256,192,2073,1,8,0:0:0:0:
256,192,2119,1,8,0:0:0:0:
256,192,2164,1,0,0:0:0:0:
256,192,2437,1,8,0:0:0:0:
256,192,2573,1,0,0:0:0:0:
256,192,2710,1,8,0:0:0:0:
256,192,2778,1,8,0:0:0:0:
256,192,2846,1,0,0:0:0:0:
256,192,2983,1,0,0:0:0:0:
256,192,3051,1,0,0:0:0:0:
256,192,3119,1,8,0:0:0:0:
256,192,3164,1,8,0:0:0:0:
256,192,3210,1,8,0:0:0:0:
256,192,3255,1,0,0:0:0:0:
256,192,3323,1,0,0:0:0:0:
256,192,3392,1,8,0:0:0:0:
256,192,3460,1,8,0:0:0:0:
256,192,3528,1,0,0:0:0:0:
256,192,3664,1,0,0:0:0:0:
256,192,3801,1,8,0:0:0:0:
256,192,3869,1,8,0:0:0:0:
256,192,3937,1,0,0:0:0:0:
256,192,4073,1,4,0:0:0:0:
256,192,4210,1,0,0:0:0:0:
256,192,4255,1,8,0:0:0:0:
256,192,4301,1,8,0:0:0:0:
256,192,4346,1,0,0:0:0:0:
256,192,4619,1,8,0:0:0:0:
256,192,4755,1,0,0:0:0:0:
256,192,4892,1,8,0:0:0:0:
256,192,4960,1,8,0:0:0:0:
256,192,5028,1,0,0:0:0:0:
256,192,5164,1,0,0:0:0:0:
256,192,5233,1,0,0:0:0:0:
256,192,5301,1,8,0:0:0:0:
256,192,5346,1,8,0:0:0:0:
256,192,5392,1,8,0:0:0:0:
256,192,5437,1,0,0:0:0:0:
256,192,5710,1,8,0:0:0:0:
256,192,5846,1,0,0:0:0:0:
256,192,5983,1,8,0:0:0:0:
256,192,6051,1,8,0:0:0:0:
256,192,6119,1,0,0:0:0:0:
256,192,6255,1,4,0:0:0:0:
256,192,6392,1,0,0:0:0:0:
256,192,6437,1,8,0:0:0:0:
256,192,6483,1,8,0:0:0:0:
256,192,6528,1,0,0:0:0:0:
256,192,6801,1,8,0:0:0:0:
256,192,6937,1,0,0:0:0:0:
256,192,7073,1,8,0:0:0:0:
256,192,7142,1,8,0:0:0:0:
256,192,7210,1,0,0:0:0:0:
256,192,7346,1,0,0:0:0:0:
256,192,7414,1,0,0:0:0:0:
256,192,7483,1,8,0:0:0:0:
256,192,7528,1,8,0:0:0:0:
256,192,7573,1,8,0:0:0:0:
256,192,7619,1,0,0:0:0:0:
256,192,7687,1,8,0:0:0:0:
256,192,7755,1,8,0:0:0:0:
256,192,7823,1,8,0:0:0:0:
256,192,7892,1,0,0:0:0:0:
256,192,8028,1,0,0:0:0:0:
256,192,8164,1,8,0:0:0:0:
256,192,8233,1,8,0:0:0:0:
256,192,8301,1,0,0:0:0:0:
256,192,8437,1,4,0:0:0:0:
256,192,8573,1,0,0:0:0:0:
256,160,8619,1,8,0:0:0:0:
256,192,8664,1,8,0:0:0:0:
256,192,8710,1,0,0:0:0:0:
256,192,8983,1,8,0:0:0:0:
256,192,9119,1,0,0:0:0:0:
256,192,9256,1,8,0:0:0:0:
256,192,9324,1,8,0:0:0:0:
256,192,9392,1,0,0:0:0:0:
256,192,9528,1,0,0:0:0:0:
256,192,9597,1,0,0:0:0:0:
256,192,9665,1,8,0:0:0:0:
256,192,9710,1,8,0:0:0:0:
256,192,9756,1,8,0:0:0:0:
256,192,9801,1,0,0:0:0:0:
256,192,10074,1,8,0:0:0:0:
256,192,10210,1,0,0:0:0:0:
256,192,10347,1,8,0:0:0:0:
256,192,10415,1,8,0:0:0:0:
256,192,10483,1,0,0:0:0:0:
256,192,10619,1,4,0:0:0:0:
256,192,10756,1,0,0:0:0:0:
256,192,10801,1,8,0:0:0:0:
256,192,10847,1,8,0:0:0:0:
256,192,10892,1,0,0:0:0:0:
256,192,11165,1,8,0:0:0:0:
256,192,11301,1,0,0:0:0:0:
256,192,11437,1,8,0:0:0:0:
256,192,11506,1,8,0:0:0:0:
256,192,11574,1,0,0:0:0:0:
256,192,11710,1,0,0:0:0:0:
256,192,11778,1,0,0:0:0:0:
256,192,11847,1,8,0:0:0:0:
256,192,11892,1,8,0:0:0:0:
256,192,11937,1,8,0:0:0:0:
256,192,11983,1,0,0:0:0:0:
256,192,12051,1,0,0:0:0:0:
256,192,12119,1,8,0:0:0:0:
256,192,12187,1,8,0:0:0:0:
256,192,12256,1,0,0:0:0:0:
256,192,12392,1,0,0:0:0:0:
256,192,12528,1,8,0:0:0:0:
256,192,12597,1,8,0:0:0:0:
256,192,12665,1,0,0:0:0:0:
256,192,12801,1,4,0:0:0:0:
256,192,12937,1,0,0:0:0:0:
256,160,12983,1,8,0:0:0:0:
256,192,13028,1,8,0:0:0:0:
256,192,13074,1,0,0:0:0:0:
256,192,13346,1,8,0:0:0:0:
256,192,13482,1,0,0:0:0:0:
256,192,13619,1,8,0:0:0:0:
256,192,13687,1,8,0:0:0:0:
256,192,13755,1,0,0:0:0:0:
256,192,13891,1,0,0:0:0:0:
256,192,13960,1,0,0:0:0:0:
256,192,14028,1,8,0:0:0:0:
256,192,14073,1,8,0:0:0:0:
256,192,14119,1,8,0:0:0:0:
256,192,14164,1,0,0:0:0:0:
256,192,14437,1,8,0:0:0:0:
256,192,14573,1,0,0:0:0:0:
256,192,14710,1,8,0:0:0:0:
256,192,14778,1,8,0:0:0:0:
256,192,14846,1,0,0:0:0:0:
256,192,14982,1,4,0:0:0:0:
256,192,15119,1,0,0:0:0:0:
256,192,15164,1,8,0:0:0:0:
256,192,15210,1,8,0:0:0:0:
256,192,15255,1,0,0:0:0:0:
256,192,15528,1,8,0:0:0:0:
256,192,15664,1,0,0:0:0:0:
256,192,15800,1,8,0:0:0:0:
256,192,15869,1,8,0:0:0:0:
256,192,15937,1,0,0:0:0:0:
256,192,16073,1,0,0:0:0:0:
256,192,16141,1,0,0:0:0:0:
256,192,16210,1,8,0:0:0:0:
256,192,16255,1,8,0:0:0:0:
256,192,16300,1,8,0:0:0:0:
256,192,16346,1,0,0:0:0:0:
256,192,16414,1,8,0:0:0:0:
256,192,16482,1,8,0:0:0:0:
256,192,16550,1,8,0:0:0:0:
256,192,16619,1,0,0:0:0:0:
256,192,16755,1,0,0:0:0:0:
256,192,16891,1,8,0:0:0:0:
256,192,16960,1,8,0:0:0:0:
256,192,17028,1,0,0:0:0:0:
256,192,17164,1,4,0:0:0:0:
256,192,17437,1,8,0:0:0:0:
256,192,17710,1,8,0:0:0:0:
256,192,17846,1,0,0:0:0:0:
256,192,17983,1,8,0:0:0:0:
288,192,18017,1,8,0:0:0:0:
256,192,18255,1,0,0:0:0:0:
256,192,18392,1,0,0:0:0:0:
256,192,18437,1,8,0:0:0:0:
256,192,18483,1,8,0:0:0:0:
256,192,18528,1,0,0:0:0:0:
256,192,18664,1,0,0:0:0:0:
256,192,18937,1,8,0:0:0:0:
256,192,19073,1,8,0:0:0:0:
256,192,19119,1,8,0:0:0:0:
256,192,19164,1,0,0:0:0:0:
256,192,19210,1,0,0:0:0:0:
256,192,19346,1,12,0:0:0:0:
256,192,19619,1,8,0:0:0:0:
256,192,19892,1,0,0:0:0:0:
256,192,20028,1,0,0:0:0:0:
256,192,20164,1,8,0:0:0:0:
256,192,20198,1,8,0:0:0:0:
256,192,20437,1,8,0:0:0:0:
256,192,20710,1,8,0:0:0:0:
256,192,20846,1,0,0:0:0:0:
256,192,20914,1,0,0:0:0:0:
256,192,20983,1,0,0:0:0:0:
256,192,21119,1,0,0:0:0:0:
256,192,21255,1,12,0:0:0:0:
256,192,21392,1,12,0:0:0:0:
256,192,21528,1,4,0:0:0:0:
256,192,21801,1,8,0:0:0:0:
256,192,22073,1,0,0:0:0:0:
256,192,22210,1,0,0:0:0:0:
256,160,22346,1,8,0:0:0:0:
256,160,22380,1,8,0:0:0:0:
256,192,22619,1,8,0:0:0:0:
256,192,22755,1,0,0:0:0:0:
256,192,22801,1,8,0:0:0:0:
256,192,22846,1,8,0:0:0:0:
256,192,22892,1,0,0:0:0:0:
256,192,23164,1,8,0:0:0:0:
256,192,23301,1,0,0:0:0:0:
256,192,23437,1,8,0:0:0:0:
256,192,23483,1,8,0:0:0:0:
256,192,23528,1,0,0:0:0:0:
256,192,23573,1,0,0:0:0:0:
256,192,23710,1,12,0:0:0:0:
256,192,23983,1,8,0:0:0:0:
256,192,24119,1,0,0:0:0:0:
256,192,24255,1,0,0:0:0:0:
256,192,24323,1,0,0:0:0:0:
256,192,24392,1,8,0:0:0:0:
256,192,24528,1,8,0:0:0:0:
256,192,24562,1,8,0:0:0:0:
256,192,24801,1,8,0:0:0:0:
256,192,25073,1,8,0:0:0:0:
256,192,25142,1,8,0:0:0:0:
256,192,25210,1,0,0:0:0:0:
256,192,25346,1,0,0:0:0:0:
256,192,25483,1,8,0:0:0:0:
256,192,25619,1,12,0:0:0:0:
256,192,25755,1,12,0:0:0:0:
256,192,25892,1,12,0:0:0:0:
256,192,26164,1,8,0:0:0:0:
256,192,26437,1,8,0:0:0:0:
256,192,26573,1,0,0:0:0:0:
256,192,26710,1,8,0:0:0:0:
256,160,26744,1,8,0:0:0:0:
256,192,26983,1,0,0:0:0:0:
256,160,27119,1,0,0:0:0:0:
256,160,27164,1,8,0:0:0:0:
256,160,27210,1,8,0:0:0:0:
256,160,27255,1,0,0:0:0:0:
256,160,27392,1,8,0:0:0:0:
256,160,27664,1,0,0:0:0:0:
256,160,27801,1,8,0:0:0:0:
256,160,27846,1,8,0:0:0:0:
256,160,27892,1,0,0:0:0:0:
256,160,27937,1,0,0:0:0:0:
256,160,28073,1,12,0:0:0:0:
256,160,28346,1,8,0:0:0:0:
256,160,28619,1,0,0:0:0:0:
256,160,28755,1,8,0:0:0:0:
256,160,28892,1,8,0:0:0:0:
256,160,28926,1,8,0:0:0:0:
256,160,29164,1,8,0:0:0:0:
256,160,29301,1,0,0:0:0:0:
256,160,29346,1,8,0:0:0:0:
256,160,29392,1,8,0:0:0:0:
256,160,29437,1,0,0:0:0:0:
288,160,29505,1,8,0:0:0:0:
288,160,29573,1,8,0:0:0:0:
288,160,29642,1,0,0:0:0:0:
288,160,29710,1,8,0:0:0:0:
288,160,29846,1,0,0:0:0:0:
288,160,29983,1,12,0:0:0:0:
288,160,30119,1,12,0:0:0:0:
288,160,30255,1,4,0:0:0:0:
288,160,30528,1,8,0:0:0:0:
288,160,30937,1,8,0:0:0:0:
256,160,31073,1,8,0:0:0:0:
288,160,31119,1,8,0:0:0:0:
288,160,31164,1,8,0:0:0:0:
288,160,31210,1,8,0:0:0:0:
288,160,31346,1,12,0:0:0:0:
288,160,31619,1,8,0:0:0:0:
288,160,32028,1,8,0:0:0:0:
288,160,32164,1,0,0:0:0:0:
288,160,32210,1,0,0:0:0:0:
288,160,32255,1,0,0:0:0:0:
288,160,32301,1,0,0:0:0:0:
288,160,32437,1,8,0:0:0:0:
288,160,33801,1,0,0:0:0:0:
288,160,33937,1,8,0:0:0:0:
288,160,34073,1,0,0:0:0:0:
288,128,34142,1,8,0:0:0:0:
288,160,34210,1,8,0:0:0:0:
288,128,34346,1,0,0:0:0:0:
288,128,34483,1,8,0:0:0:0:
288,128,34551,1,0,0:0:0:0:
288,128,34619,1,8,0:0:0:0:
288,160,34687,1,8,0:0:0:0:
288,160,34755,1,0,0:0:0:0:
288,160,34892,1,12,0:0:0:0:
288,160,35164,1,0,0:0:0:0:
288,160,35301,1,12,0:0:0:0:
288,160,35573,1,0,0:0:0:0:
288,160,35710,1,12,0:0:0:0:
288,160,35846,1,12,0:0:0:0:
288,160,35983,1,0,0:0:0:0:
288,160,36119,1,0,0:0:0:0:
288,160,36187,1,0,0:0:0:0:
288,160,36255,1,8,0:0:0:0:
288,160,36392,1,0,0:0:0:0:
288,160,36528,1,0,0:0:0:0:
288,160,36596,1,0,0:0:0:0:
288,160,36664,1,8,0:0:0:0:
256,192,36710,1,0,0:0:0:0:
256,192,36755,1,0,0:0:0:0:
256,192,36801,1,8,0:0:0:0:
288,160,36937,1,0,0:0:0:0:
288,160,36983,1,0,0:0:0:0:
288,160,37028,1,0,0:0:0:0:
288,160,37073,1,8,0:0:0:0:
288,192,37346,1,0,0:0:0:0:
288,192,37483,1,12,0:0:0:0:
288,192,37755,1,0,0:0:0:0:
288,192,37892,1,12,0:0:0:0:
288,192,38028,1,12,0:0:0:0:
288,192,38164,1,0,0:0:0:0:
288,192,38233,1,0,0:0:0:0:
288,192,38301,1,8,0:0:0:0:
288,192,38369,1,8,0:0:0:0:
288,192,38437,1,8,0:0:0:0:
288,192,38573,1,0,0:0:0:0:
288,160,38642,1,0,0:0:0:0:
288,192,38710,1,8,0:0:0:0:
288,192,38778,1,0,0:0:0:0:
288,192,38846,1,8,0:0:0:0:
288,192,38983,1,8,0:0:0:0:
288,160,39028,1,0,0:0:0:0:
288,160,39073,1,0,0:0:0:0:
288,192,39119,1,8,0:0:0:0:
288,160,39187,1,8,0:0:0:0:
288,160,39255,1,8,0:0:0:0:
288,192,39528,1,0,0:0:0:0:
288,160,39664,1,12,0:0:0:0:
288,160,39937,1,0,0:0:0:0:
288,160,40073,1,12,0:0:0:0:
288,160,40210,1,12,0:0:0:0:
288,160,40346,1,8,0:0:0:0:
288,160,40414,1,0,0:0:0:0:
288,160,40483,1,0,0:0:0:0:
288,160,40551,1,8,0:0:0:0:
288,160,40619,1,8,0:0:0:0:
288,160,40755,1,0,0:0:0:0:
288,160,40823,1,0,0:0:0:0:
288,160,40892,1,8,0:0:0:0:
288,160,40960,1,8,0:0:0:0:
288,160,41028,1,8,0:0:0:0:
288,160,41164,1,8,0:0:0:0:
288,160,41210,1,8,0:0:0:0:
256,160,41255,1,8,0:0:0:0:
288,160,41301,1,0,0:0:0:0:
256,160,41437,1,12,0:0:0:0:
256,160,41710,1,0,0:0:0:0:
256,160,41846,1,12,0:0:0:0:
256,160,42119,1,0,0:0:0:0:
256,160,42255,1,4,0:0:0:0:
256,160,42392,1,4,0:0:0:0:
256,160,42528,1,8,0:0:0:0:
256,160,42801,1,8,0:0:0:0:
256,160,42937,1,0,0:0:0:0:
256,160,42983,1,0,0:0:0:0:
256,160,43028,1,0,0:0:0:0:
256,160,43073,1,8,0:0:0:0:
256,160,43142,1,8,0:0:0:0:
256,160,43210,1,8,0:0:0:0:
256,160,43278,1,0,0:0:0:0:
256,160,43346,1,8,0:0:0:0:
256,160,43619,1,12,0:0:0:0:
256,160,43892,1,0,0:0:0:0:
256,160,44028,1,12,0:0:0:0:
256,160,44301,1,0,0:0:0:0:
256,160,44437,1,12,0:0:0:0:
256,160,44573,1,12,0:0:0:0:
256,160,44710,1,0,0:0:0:0:
256,160,44778,1,0,0:0:0:0:
256,160,44846,1,8,0:0:0:0:
256,160,44892,1,0,0:0:0:0:
256,160,44937,1,0,0:0:0:0:
256,160,44983,1,8,0:0:0:0:
256,160,45119,1,0,0:0:0:0:
256,160,45187,1,0,0:0:0:0:
256,160,45255,1,8,0:0:0:0:
256,160,45323,1,0,0:0:0:0:
256,160,45392,1,8,0:0:0:0:
256,160,45528,1,0,0:0:0:0:
256,160,45573,1,0,0:0:0:0:
256,160,45619,1,0,0:0:0:0:
256,160,45664,1,8,0:0:0:0:
256,160,45733,1,0,0:0:0:0:
256,160,45801,1,8,0:0:0:0:
256,160,46073,1,0,0:0:0:0:
256,160,46210,1,12,0:0:0:0:
256,160,46483,1,0,0:0:0:0:
256,160,46619,1,12,0:0:0:0:
256,160,46755,1,12,0:0:0:0:
256,160,46892,1,8,0:0:0:0:
256,160,46960,1,0,0:0:0:0:
256,160,47028,1,0,0:0:0:0:
256,160,47096,1,8,0:0:0:0:
256,160,47164,1,8,0:0:0:0:
256,160,47301,1,0,0:0:0:0:
256,160,47369,1,0,0:0:0:0:
256,160,47437,1,8,0:0:0:0:
256,160,47505,1,0,0:0:0:0:
256,160,47573,1,8,0:0:0:0:
256,160,47710,1,8,0:0:0:0:
256,160,47755,1,8,0:0:0:0:
256,160,47801,1,8,0:0:0:0:
256,160,47846,1,0,0:0:0:0:
256,160,47914,1,0,0:0:0:0:
256,160,47983,1,8,0:0:0:0:
256,160,48255,1,0,0:0:0:0:
256,160,48392,1,12,0:0:0:0:
256,160,48664,1,0,0:0:0:0:
256,160,48801,1,12,0:0:0:0:
256,160,48937,1,12,0:0:0:0:
256,160,49073,1,8,0:0:0:0:
256,160,49142,1,0,0:0:0:0:
256,160,49210,1,0,0:0:0:0:
256,160,49278,1,8,0:0:0:0:
256,160,49346,1,8,0:0:0:0:
256,160,49483,1,0,0:0:0:0:
256,160,49551,1,0,0:0:0:0:
256,160,49619,1,0,0:0:0:0:
256,160,49687,1,8,0:0:0:0:
256,160,49755,1,8,0:0:0:0:
256,160,49892,1,8,0:0:0:0:
256,160,50164,1,12,0:0:0:0:
256,160,50437,1,0,0:0:0:0:
256,160,50573,1,12,0:0:0:0:
256,160,50846,1,0,0:0:0:0:
256,160,50983,1,4,0:0:0:0:
256,160,51119,1,4,0:0:0:0:
256,160,51255,1,0,0:0:0:0:
256,160,51392,1,8,0:0:0:0:
256,160,51528,1,8,0:0:0:0:
256,160,51596,1,0,0:0:0:0:
256,160,51664,1,8,0:0:0:0:
256,160,51801,1,0,0:0:0:0:
256,160,51937,1,12,0:0:0:0:
256,160,52073,1,12,0:0:0:0:
256,160,52210,1,12,0:0:0:0:
256,160,52346,1,12,0:0:0:0:
256,160,52619,1,0,0:0:0:0:
256,160,52755,1,12,0:0:0:0:
256,160,53028,1,0,0:0:0:0:
256,160,53164,1,12,0:0:0:0:
256,160,53301,1,12,0:0:0:0:
256,160,53437,1,0,0:0:0:0:
256,160,53505,1,0,0:0:0:0:
256,160,53573,1,0,0:0:0:0:
256,160,53642,1,8,0:0:0:0:
256,160,53710,1,8,0:0:0:0:
256,160,53846,1,0,0:0:0:0:
256,160,53914,1,0,0:0:0:0:
256,160,53983,1,8,0:0:0:0:
256,160,54051,1,0,0:0:0:0:
256,160,54119,1,8,0:0:0:0:
256,160,54164,1,0,0:0:0:0:
256,160,54210,1,8,0:0:0:0:
256,160,54255,1,8,0:0:0:0:
256,128,54392,1,8,0:0:0:0:
256,128,54437,1,0,0:0:0:0:
256,128,54483,1,0,0:0:0:0:
256,128,54528,1,8,0:0:0:0:
256,160,54801,1,0,0:0:0:0:
256,160,54937,1,12,0:0:0:0:
256,160,55210,1,0,0:0:0:0:
256,160,55346,1,12,0:0:0:0:
256,160,55483,1,12,0:0:0:0:
256,160,55619,1,8,0:0:0:0:
256,160,55687,1,0,0:0:0:0:
256,160,55755,1,0,0:0:0:0:
256,160,55823,1,8,0:0:0:0:
256,160,55892,1,8,0:0:0:0:
288,160,56028,1,0,0:0:0:0:
288,160,56096,1,0,0:0:0:0:
288,160,56164,1,0,0:0:0:0:
288,160,56233,1,8,0:0:0:0:
288,160,56301,1,8,0:0:0:0:
288,160,56437,1,8,0:0:0:0:
288,160,56483,1,0,0:0:0:0:
288,160,56528,1,0,0:0:0:0:
288,160,56573,1,8,0:0:0:0:
288,160,56642,1,8,0:0:0:0:
288,160,56710,1,8,0:0:0:0:
288,160,56983,1,0,0:0:0:0:
288,160,57119,1,12,0:0:0:0:
288,160,57392,1,0,0:0:0:0:
288,160,57528,1,12,0:0:0:0:
288,160,57664,1,12,0:0:0:0:
288,160,57801,1,8,0:0:0:0:
288,160,57869,1,0,0:0:0:0:
288,160,57937,1,0,0:0:0:0:
288,160,58005,1,0,0:0:0:0:
288,160,58073,1,8,0:0:0:0:
288,160,58210,1,8,0:0:0:0:
288,160,58278,1,0,0:0:0:0:
288,160,58346,1,0,0:0:0:0:
288,160,58414,1,8,0:0:0:0:
288,160,58483,1,8,0:0:0:0:
288,160,58619,1,8,0:0:0:0:
288,160,58687,1,8,0:0:0:0:
288,160,58755,1,0,0:0:0:0:
288,160,58801,1,0,0:0:0:0:
288,160,58846,1,0,0:0:0:0:
288,160,58892,1,8,0:0:0:0:
288,160,59164,1,0,0:0:0:0:
288,160,59301,1,12,0:0:0:0:
288,160,59573,1,0,0:0:0:0:
288,160,59710,1,4,0:0:0:0:
288,160,59846,1,4,0:0:0:0:
288,160,59983,1,8,0:0:0:0:
288,160,60017,1,8,0:0:0:0:
288,160,60119,1,0,0:0:0:0:
288,160,60153,1,0,0:0:0:0:
288,160,60255,1,8,0:0:0:0:
288,160,60323,1,0,0:0:0:0:
288,160,60392,1,8,0:0:0:0:
288,160,60460,1,8,0:0:0:0:
288,160,60528,1,0,0:0:0:0:
288,160,60664,1,8,0:0:0:0:
288,160,60733,1,0,0:0:0:0:
288,160,60801,1,8,0:0:0:0:
288,160,60846,1,8,0:0:0:0:
288,160,60892,1,8,0:0:0:0:
288,160,60937,1,8,0:0:0:0:
256,160,61073,1,12,0:0:0:0:
256,160,61346,1,0,0:0:0:0:
256,160,61483,1,12,0:0:0:0:
256,160,61755,1,0,0:0:0:0:
256,160,61892,1,12,0:0:0:0:
256,160,62028,1,12,0:0:0:0:
256,160,62164,1,0,0:0:0:0:
288,128,62301,1,8,0:0:0:0:
256,160,62346,1,0,0:0:0:0:
256,160,62392,1,0,0:0:0:0:
256,160,62437,1,8,0:0:0:0:
256,160,62505,1,8,0:0:0:0:
256,160,62573,1,8,0:0:0:0:
256,160,62710,1,0,0:0:0:0:
256,160,62778,1,0,0:0:0:0:
256,160,62846,1,8,0:0:0:0:
256,160,62914,1,0,0:0:0:0:
256,160,62983,1,8,0:0:0:0:
256,160,63051,1,8,0:0:0:0:
256,160,63119,1,8,0:0:0:0:
256,160,63187,1,0,0:0:0:0:
256,160,63255,1,8,0:0:0:0:
256,160,63528,1,0,0:0:0:0:
256,160,63664,1,12,0:0:0:0:
256,160,63937,1,0,0:0:0:0:
256,160,64073,1,12,0:0:0:0:
256,160,64210,1,12,0:0:0:0:
256,160,64346,1,8,0:0:0:0:
256,160,64414,1,0,0:0:0:0:
256,160,64483,1,0,0:0:0:0:
256,160,64551,1,8,0:0:0:0:
256,160,64619,1,8,0:0:0:0:
256,160,64755,1,0,0:0:0:0:
256,160,64823,1,0,0:0:0:0:
256,160,64892,1,8,0:0:0:0:
256,160,64960,1,0,0:0:0:0:
256,160,65028,1,8,0:0:0:0:
256,160,65164,1,8,0:0:0:0:
256,160,65210,1,8,0:0:0:0:
256,160,65255,1,8,0:0:0:0:
256,160,65301,1,0,0:0:0:0:
256,160,65369,1,0,0:0:0:0:
256,160,65437,1,8,0:0:0:0:
256,160,65710,1,0,0:0:0:0:
256,160,65846,1,12,0:0:0:0:
256,160,66119,1,0,0:0:0:0:
256,160,66255,1,12,0:0:0:0:
256,160,66392,1,12,0:0:0:0:
256,160,66528,1,8,0:0:0:0:
256,160,66596,1,0,0:0:0:0:
256,160,66664,1,0,0:0:0:0:
256,160,66733,1,8,0:0:0:0:
256,160,66801,1,8,0:0:0:0:
256,160,66937,1,8,0:0:0:0:
256,160,67005,1,0,0:0:0:0:
256,160,67073,1,0,0:0:0:0:
256,160,67210,1,8,0:0:0:0:
256,160,67346,1,0,0:0:0:0:
256,160,67483,1,8,0:0:0:0:
256,160,67619,1,12,0:0:0:0:
256,160,67892,1,0,0:0:0:0:
256,160,68028,1,12,0:0:0:0:
256,160,68301,1,0,0:0:0:0:
256,160,68437,1,4,0:0:0:0:
256,160,68573,1,4,0:0:0:0:
256,160,68710,1,8,0:0:0:0:
256,160,68755,1,0,0:0:0:0:
256,160,68983,1,8,0:0:0:0:
256,160,69028,1,8,0:0:0:0:
256,160,69119,1,0,0:0:0:0:
256,160,69255,1,8,0:0:0:0:
256,160,69392,1,0,0:0:0:0:
256,160,69437,1,0,0:0:0:0:
256,160,69483,1,0,0:0:0:0:
256,160,69528,1,8,0:0:0:0:
256,160,69596,1,0,0:0:0:0:
256,160,69664,1,8,0:0:0:0:
256,160,69801,1,12,0:0:0:0:
256,160,70073,1,8,0:0:0:0:
256,160,70210,1,0,0:0:0:0:
256,160,70346,1,0,0:0:0:0:
256,160,70414,1,0,0:0:0:0:
256,160,70483,1,0,0:0:0:0:
256,160,70619,1,8,0:0:0:0:
256,160,70664,1,8,0:0:0:0:
256,160,70710,1,8,0:0:0:0:
256,160,70755,1,8,0:0:0:0:
256,160,70892,1,4,0:0:0:0:
224,160,71028,1,8,0:0:0:0:
256,160,71301,1,0,0:0:0:0:
224,160,71437,1,8,0:0:0:0:
256,160,71471,1,8,0:0:0:0:
256,160,71573,1,0,0:0:0:0:
224,160,71710,1,0,0:0:0:0:
256,160,71755,1,0,0:0:0:0:
256,160,71801,1,0,0:0:0:0:
256,160,71846,1,8,0:0:0:0:
256,160,71983,1,12,0:0:0:0:
256,160,72255,1,8,0:0:0:0:
256,160,72392,1,0,0:0:0:0:
256,160,72528,1,0,0:0:0:0:
256,160,72596,1,0,0:0:0:0:
256,160,72664,1,0,0:0:0:0:
256,160,72801,1,0,0:0:0:0:
256,160,72846,1,0,0:0:0:0:
256,160,72892,1,8,0:0:0:0:
256,160,72937,1,8,0:0:0:0:
256,160,73073,1,4,0:0:0:0:
256,160,73210,1,8,0:0:0:0:
256,128,73483,1,0,0:0:0:0:
256,128,73619,1,8,0:0:0:0:
256,160,73755,1,0,0:0:0:0:
256,160,73823,1,0,0:0:0:0:
256,160,73892,1,8,0:0:0:0:
256,160,73937,1,8,0:0:0:0:
256,160,73983,1,8,0:0:0:0:
256,160,74028,1,0,0:0:0:0:
288,160,74096,1,0,0:0:0:0:
288,160,74164,1,8,0:0:0:0:
256,160,74437,1,8,0:0:0:0:
256,160,74573,1,8,0:0:0:0:
256,160,74642,1,0,0:0:0:0:
256,160,74710,1,8,0:0:0:0:
256,160,74778,1,8,0:0:0:0:
256,160,74846,1,0,0:0:0:0:
256,160,74983,1,8,0:0:0:0:
256,160,75028,1,0,0:0:0:0:
256,160,75073,1,0,0:0:0:0:
256,160,75119,1,8,0:0:0:0:
256,160,75187,1,8,0:0:0:0:
256,160,75255,1,0,0:0:0:0:
256,128,75392,1,8,0:0:0:0:
256,160,75528,1,8,0:0:0:0:
256,160,75596,1,8,0:0:0:0:
256,160,75664,1,0,0:0:0:0:
256,160,75801,1,8,0:0:0:0:
256,160,75835,1,8,0:0:0:0:
256,160,75937,1,0,0:0:0:0:
256,160,76073,1,0,0:0:0:0:
256,160,76119,1,0,0:0:0:0:
256,160,76164,1,0,0:0:0:0:
256,160,76210,1,8,0:0:0:0:
256,160,76346,1,12,0:0:0:0:
256,160,76619,1,8,0:0:0:0:
256,160,76687,1,0,0:0:0:0:
256,160,76755,1,8,0:0:0:0:
256,160,76892,1,8,0:0:0:0:
256,160,77028,1,0,0:0:0:0:
256,160,77164,1,8,0:0:0:0:
256,160,77233,1,0,0:0:0:0:
256,160,77301,1,0,0:0:0:0:
256,160,77437,1,4,0:0:0:0:
256,160,77573,1,8,0:0:0:0:
256,160,77846,1,8,0:0:0:0:
256,160,77983,1,12,0:0:0:0:
256,160,78119,1,0,0:0:0:0:
256,160,78164,1,0,0:0:0:0:
256,160,78210,1,0,0:0:0:0:
256,160,78255,1,8,0:0:0:0:
256,160,78392,1,8,0:0:0:0:
256,160,78437,1,0,0:0:0:0:
256,160,78483,1,0,0:0:0:0:
256,160,78528,1,8,0:0:0:0:
256,160,78801,1,8,0:0:0:0:
256,160,78937,1,0,0:0:0:0:
256,160,79005,1,0,0:0:0:0:
256,160,79073,1,8,0:0:0:0:
256,160,79210,1,0,0:0:0:0:
288,192,79278,1,0,0:0:0:0:
192,32,79346,1,8,0:0:0:0:
256,160,79392,1,8,0:0:0:0:
256,160,79437,1,8,0:0:0:0:
267,173,79483,1,8,0:0:0:0:
256,160,79619,1,4,0:0:0:0:
256,160,79755,1,8,0:0:0:0:
288,192,79892,1,8,0:0:0:0:
288,192,79960,1,0,0:0:0:0:
288,192,80028,1,0,0:0:0:0:
288,192,80164,1,8,0:0:0:0:
288,192,80198,1,8,0:0:0:0:
288,192,80301,1,0,0:0:0:0:
256,192,80437,1,0,0:0:0:0:
288,192,80483,1,0,0:0:0:0:
288,192,80528,1,0,0:0:0:0:
288,192,80573,1,8,0:0:0:0:
288,192,80642,1,0,0:0:0:0:
288,192,80710,1,8,0:0:0:0:
288,192,80983,1,8,0:0:0:0:
288,192,81051,1,0,0:0:0:0:
288,192,81119,1,8,0:0:0:0:
288,192,81187,1,8,0:0:0:0:
288,192,81255,1,0,0:0:0:0:
288,192,81392,1,0,0:0:0:0:
288,192,81528,1,8,0:0:0:0:
288,192,81573,1,8,0:0:0:0:
288,192,81619,1,8,0:0:0:0:
288,160,81664,1,0,0:0:0:0:
288,160,81733,1,0,0:0:0:0:
288,160,81801,1,8,0:0:0:0:
256,192,82073,1,8,0:0:0:0:
256,192,82210,1,0,0:0:0:0:
256,192,82346,1,8,0:0:0:0:
256,192,82483,1,0,0:0:0:0:
256,192,82528,1,0,0:0:0:0:
256,192,82573,1,0,0:0:0:0:
256,192,82619,1,8,0:0:0:0:
256,192,82687,1,8,0:0:0:0:
256,192,82755,1,0,0:0:0:0:
256,192,82823,1,0,0:0:0:0:
256,192,82892,1,8,0:0:0:0:
256,192,83028,1,8,0:0:0:0:
256,192,83164,1,0,0:0:0:0:
256,192,83210,1,0,0:0:0:0:
256,192,83255,1,0,0:0:0:0:
256,192,83301,1,0,0:0:0:0:
256,192,83437,1,8,0:0:0:0:
256,192,83573,1,0,0:0:0:0:
256,192,83642,1,0,0:0:0:0:
256,192,83710,1,8,0:0:0:0:
256,192,83778,1,0,0:0:0:0:
256,192,83846,1,8,0:0:0:0:
256,192,83892,1,8,0:0:0:0:
256,192,83937,1,8,0:0:0:0:
256,192,83983,1,0,0:0:0:0:
256,192,84255,1,8,0:0:0:0:
256,192,84323,1,8,0:0:0:0:
256,192,84392,1,0,0:0:0:0:
256,192,84528,1,4,0:0:0:0:
256,192,84664,1,4,0:0:0:0:
256,192,84801,1,4,0:0:0:0:
256,192,84937,1,4,0:0:0:0:
256,192,85073,1,12,0:0:0:0:
256,192,85483,1,8,0:0:0:0:
256,192,85619,1,0,0:0:0:0:
256,192,85755,1,0,0:0:0:0:
256,192,85801,1,0,0:0:0:0:
256,192,85846,1,0,0:0:0:0:
256,192,85892,1,8,0:0:0:0:
256,192,85960,1,8,0:0:0:0:
256,192,86028,1,0,0:0:0:0:
256,192,86164,1,4,0:0:0:0:
256,192,86301,1,8,0:0:0:0:
256,192,86573,1,0,0:0:0:0:
256,192,86710,1,12,0:0:0:0:
256,192,86846,1,0,0:0:0:0:
256,192,86892,1,0,0:0:0:0:
256,192,86937,1,0,0:0:0:0:
256,192,86983,1,8,0:0:0:0:
256,192,87051,1,8,0:0:0:0:
256,192,87119,1,8,0:0:0:0:
256,192,87187,1,0,0:0:0:0:
256,192,87255,1,8,0:0:0:0:
256,192,87528,1,8,0:0:0:0:
256,192,87664,1,0,0:0:0:0:
256,192,87733,1,0,0:0:0:0:
256,192,87801,1,8,0:0:0:0:
256,192,87937,1,0,0:0:0:0:
256,192,88073,1,8,0:0:0:0:
256,192,88119,1,0,0:0:0:0:
256,192,88164,1,0,0:0:0:0:
256,192,88210,1,8,0:0:0:0:
256,192,88346,1,4,0:0:0:0:
256,192,88483,1,8,0:0:0:0:
256,192,88755,1,0,0:0:0:0:
256,192,88892,1,8,0:0:0:0:
256,192,88926,1,8,0:0:0:0:
256,192,89028,1,0,0:0:0:0:
256,192,89164,1,8,0:0:0:0:
256,192,89233,1,8,0:0:0:0:
256,192,89301,1,0,0:0:0:0:
256,192,89369,1,0,0:0:0:0:
256,192,89437,1,8,0:0:0:0:
256,192,89573,1,0,0:0:0:0:
256,192,89642,1,0,0:0:0:0:
256,192,89710,1,8,0:0:0:0:
256,192,89778,1,0,0:0:0:0:
256,192,89846,1,0,0:0:0:0:
256,192,89914,1,0,0:0:0:0:
256,192,89983,1,8,0:0:0:0:
256,192,90119,1,0,0:0:0:0:
256,192,90255,1,8,0:0:0:0:
256,192,90301,1,8,0:0:0:0:
256,192,90346,1,8,0:0:0:0:
256,192,90392,1,8,0:0:0:0:
256,192,90528,1,4,0:0:0:0:
256,160,90664,1,8,0:0:0:0:
256,192,90937,1,0,0:0:0:0:
256,192,91073,1,8,0:0:0:0:
256,192,91210,1,0,0:0:0:0:
256,160,91255,1,0,0:0:0:0:
256,160,91301,1,0,0:0:0:0:
256,192,91346,1,8,0:0:0:0:
256,192,91414,1,0,0:0:0:0:
256,192,91483,1,8,0:0:0:0:
256,160,91551,1,0,0:0:0:0:
256,160,91619,1,8,0:0:0:0:
256,192,91892,1,8,0:0:0:0:
256,192,92028,1,0,0:0:0:0:
256,192,92096,1,0,0:0:0:0:
256,192,92164,1,8,0:0:0:0:
256,192,92301,1,0,0:0:0:0:
256,192,92437,1,0,0:0:0:0:
256,192,92483,1,0,0:0:0:0:
256,192,92528,1,8,0:0:0:0:
256,192,92573,1,8,0:0:0:0:
256,192,92710,1,4,0:0:0:0:
256,192,92846,1,8,0:0:0:0:
256,192,93119,1,0,0:0:0:0:
256,192,93187,1,0,0:0:0:0:
256,192,93255,1,8,0:0:0:0:
256,192,93289,1,8,0:0:0:0:
256,192,93392,1,0,0:0:0:0:
256,192,93528,1,0,0:0:0:0:
256,192,93573,1,0,0:0:0:0:
256,192,93619,1,0,0:0:0:0:
256,192,93664,1,8,0:0:0:0:
256,192,93801,1,12,0:0:0:0:
256,192,94073,1,0,0:0:0:0:
256,192,94119,1,0,0:0:0:0:
256,192,94164,1,0,0:0:0:0:
256,192,94210,1,8,0:0:0:0:
256,192,94346,1,8,0:0:0:0:
256,192,94483,1,0,0:0:0:0:
256,192,94619,1,8,0:0:0:0:
256,192,94687,1,8,0:0:0:0:
256,192,94755,1,0,0:0:0:0:
256,192,94892,1,4,0:0:0:0:
256,160,95028,1,8,0:0:0:0:
256,192,95301,1,8,0:0:0:0:
256,192,95437,1,0,0:0:0:0:
256,192,95573,1,8,0:0:0:0:
256,192,95619,1,0,0:0:0:0:
256,192,95664,1,0,0:0:0:0:
256,192,95710,1,8,0:0:0:0:
256,192,95778,1,8,0:0:0:0:
256,192,95846,1,0,0:0:0:0:
256,192,95914,1,0,0:0:0:0:
256,192,95983,1,8,0:0:0:0:
256,192,96255,1,8,0:0:0:0:
256,192,96392,1,0,0:0:0:0:
256,192,96460,1,0,0:0:0:0:
256,192,96528,1,8,0:0:0:0:
256,192,96664,1,0,0:0:0:0:
256,160,96733,1,0,0:0:0:0:
256,192,96801,1,8,0:0:0:0:
256,160,96846,1,8,0:0:0:0:
256,160,96892,1,8,0:0:0:0:
256,160,96937,1,8,0:0:0:0:
256,160,97073,1,4,0:0:0:0:
256,160,97210,1,8,0:0:0:0:
256,160,97346,1,0,0:0:0:0:
256,160,97414,1,0,0:0:0:0:
256,160,97483,1,0,0:0:0:0:
256,160,97619,1,8,0:0:0:0:
288,160,97653,1,8,0:0:0:0:
288,160,97755,1,0,0:0:0:0:
256,160,97892,1,0,0:0:0:0:
256,160,97937,1,0,0:0:0:0:
256,160,97983,1,0,0:0:0:0:
256,160,98028,1,8,0:0:0:0:
256,160,98164,1,12,0:0:0:0:
256,160,98437,1,8,0:0:0:0:
256,160,98573,1,0,0:0:0:0:
256,160,98642,1,0,0:0:0:0:
256,160,98710,1,8,0:0:0:0:
256,160,98846,1,0,0:0:0:0:
256,160,98983,1,8,0:0:0:0:
256,160,99028,1,0,0:0:0:0:
256,160,99073,1,0,0:0:0:0:
256,160,99119,1,8,0:0:0:0:
256,160,99255,1,4,0:0:0:0:
256,160,99392,1,8,0:0:0:0:
256,160,99664,1,8,0:0:0:0:
256,160,99801,1,8,0:0:0:0:
256,160,99937,1,0,0:0:0:0:
256,160,99983,1,0,0:0:0:0:
256,160,100028,1,0,0:0:0:0:
256,160,100073,1,8,0:0:0:0:
288,160,100142,1,8,0:0:0:0:
256,160,100210,1,0,0:0:0:0:
256,160,100278,1,0,0:0:0:0:
256,160,100346,1,8,0:0:0:0:
256,160,100483,1,8,0:0:0:0:
256,160,100619,1,0,0:0:0:0:
256,160,100664,1,0,0:0:0:0:
256,160,100710,1,0,0:0:0:0:
256,160,100755,1,0,0:0:0:0:
256,160,100892,1,0,0:0:0:0:
256,160,101028,1,0,0:0:0:0:
256,160,101164,1,8,0:0:0:0:
256,160,101210,1,0,0:0:0:0:
256,160,101255,1,0,0:0:0:0:
256,160,101301,1,8,0:0:0:0:
256,160,101369,1,8,0:0:0:0:
256,160,101437,1,0,0:0:0:0:
256,160,101710,1,0,0:0:0:0:
256,160,101846,1,8,0:0:0:0:
256,160,101880,1,8,0:0:0:0:
256,160,101983,1,8,0:0:0:0:
256,160,102119,1,0,0:0:0:0:
256,160,102164,1,0,0:0:0:0:
256,160,102210,1,0,0:0:0:0:
256,160,102255,1,8,0:0:0:0:
256,160,102392,1,0,0:0:0:0:
256,160,102528,1,12,0:0:0:0:
256,160,102937,1,8,0:0:0:0:
256,160,103073,1,0,0:0:0:0:
256,160,103210,1,0,0:0:0:0:
256,160,103346,1,8,0:0:0:0:
256,160,103414,1,8,0:0:0:0:
256,160,103483,1,0,0:0:0:0:
256,192,103619,12,12,104573,0:0:0:0:
256,192,104710,5,12,0:0:0:0:
288,160,104983,1,0,0:0:0:0:
288,160,105120,1,12,0:0:0:0:
288,160,105392,1,0,0:0:0:0:
288,160,105529,1,12,0:0:0:0:
288,160,105665,1,12,0:0:0:0:
288,160,105802,1,0,0:0:0:0:
288,160,105938,1,0,0:0:0:0:
288,160,106006,1,0,0:0:0:0:
288,160,106074,1,8,0:0:0:0:
288,160,106211,1,0,0:0:0:0:
288,160,106347,1,0,0:0:0:0:
288,160,106415,1,0,0:0:0:0:
288,160,106483,1,8,0:0:0:0:
256,192,106529,1,0,0:0:0:0:
256,192,106574,1,0,0:0:0:0:
256,192,106620,1,8,0:0:0:0:
288,160,106756,1,0,0:0:0:0:
288,160,106802,1,0,0:0:0:0:
288,160,106847,1,0,0:0:0:0:
288,160,106892,1,8,0:0:0:0:
288,192,107165,1,0,0:0:0:0:
288,192,107302,1,12,0:0:0:0:
288,192,107574,1,0,0:0:0:0:
288,192,107711,1,12,0:0:0:0:
288,192,107847,1,12,0:0:0:0:
288,192,107983,1,0,0:0:0:0:
288,192,108052,1,0,0:0:0:0:
288,192,108119,1,8,0:0:0:0:
288,192,108187,1,8,0:0:0:0:
288,192,108256,1,8,0:0:0:0:
288,192,108392,1,0,0:0:0:0:
288,160,108461,1,0,0:0:0:0:
288,192,108529,1,8,0:0:0:0:
288,192,108597,1,0,0:0:0:0:
288,192,108665,1,8,0:0:0:0:
288,192,108802,1,8,0:0:0:0:
288,160,108847,1,0,0:0:0:0:
288,160,108892,1,0,0:0:0:0:
288,192,108938,1,8,0:0:0:0:
288,160,109006,1,8,0:0:0:0:
288,160,109074,1,8,0:0:0:0:
288,192,109347,1,0,0:0:0:0:
288,160,109483,1,12,0:0:0:0:
288,160,109756,1,0,0:0:0:0:
288,160,109892,1,12,0:0:0:0:
288,160,110029,1,12,0:0:0:0:
288,160,110165,1,8,0:0:0:0:
288,160,110233,1,0,0:0:0:0:
288,160,110302,1,0,0:0:0:0:
288,160,110370,1,8,0:0:0:0:
288,160,110438,1,8,0:0:0:0:
288,160,110574,1,0,0:0:0:0:
288,160,110642,1,0,0:0:0:0:
288,160,110711,1,8,0:0:0:0:
256,160,110778,1,0,0:0:0:0:
288,160,110847,1,8,0:0:0:0:
288,160,110983,1,8,0:0:0:0:
288,160,111029,1,8,0:0:0:0:
256,160,111074,1,8,0:0:0:0:
288,160,111120,1,0,0:0:0:0:
256,160,111256,1,12,0:0:0:0:
256,160,111529,1,0,0:0:0:0:
256,160,111665,1,12,0:0:0:0:
256,160,111938,1,0,0:0:0:0:
256,160,112074,1,4,0:0:0:0:
256,160,112211,1,4,0:0:0:0:
256,160,112347,1,8,0:0:0:0:
256,160,112620,1,8,0:0:0:0:
256,160,112756,1,0,0:0:0:0:
256,160,112802,1,0,0:0:0:0:
256,160,112847,1,0,0:0:0:0:
256,160,112892,1,8,0:0:0:0:
256,160,112960,1,0,0:0:0:0:
256,160,113028,1,0,0:0:0:0:
256,160,113097,1,0,0:0:0:0:
256,160,113165,1,8,0:0:0:0:
256,160,113437,1,12,0:0:0:0:
256,160,113710,1,0,0:0:0:0:
256,160,113846,1,12,0:0:0:0:
256,160,114119,1,0,0:0:0:0:
256,160,114255,1,12,0:0:0:0:
256,160,114392,1,12,0:0:0:0:
256,160,114529,1,0,0:0:0:0:
256,160,114597,1,0,0:0:0:0:
256,160,114665,1,8,0:0:0:0:
256,160,114711,1,0,0:0:0:0:
256,160,114756,1,0,0:0:0:0:
256,160,114802,1,8,0:0:0:0:
256,160,114938,1,0,0:0:0:0:
256,160,115006,1,0,0:0:0:0:
256,160,115074,1,8,0:0:0:0:
256,160,115142,1,0,0:0:0:0:
256,160,115211,1,8,0:0:0:0:
256,192,115346,1,8,0:0:0:0:
256,160,115392,1,0,0:0:0:0:
256,160,115438,1,0,0:0:0:0:
256,160,115483,1,8,0:0:0:0:
256,160,115619,1,12,0:0:0:0:
256,160,115891,1,0,0:0:0:0:
256,160,116028,1,12,0:0:0:0:
256,160,116301,1,0,0:0:0:0:
256,160,116437,1,12,0:0:0:0:
256,160,116573,1,12,0:0:0:0:
256,160,116710,1,8,0:0:0:0:
256,160,116778,1,0,0:0:0:0:
256,160,116846,1,0,0:0:0:0:
256,160,116914,1,8,0:0:0:0:
256,160,116982,1,8,0:0:0:0:
256,160,117119,1,0,0:0:0:0:
256,160,117187,1,0,0:0:0:0:
256,160,117255,1,8,0:0:0:0:
256,160,117323,1,0,0:0:0:0:
256,160,117391,1,8,0:0:0:0:
256,160,117528,1,8,0:0:0:0:
256,160,117573,1,8,0:0:0:0:
256,160,117619,1,8,0:0:0:0:
256,160,117664,1,0,0:0:0:0:
256,160,117732,1,0,0:0:0:0:
256,160,117801,1,8,0:0:0:0:
256,160,118073,1,0,0:0:0:0:
256,160,118210,1,12,0:0:0:0:
256,160,118482,1,0,0:0:0:0:
256,160,118619,1,12,0:0:0:0:
256,160,118755,1,12,0:0:0:0:
256,160,118891,1,8,0:0:0:0:
256,160,118960,1,0,0:0:0:0:
256,160,119028,1,0,0:0:0:0:
256,160,119096,1,8,0:0:0:0:
256,160,119164,1,8,0:0:0:0:
256,160,119301,1,0,0:0:0:0:
256,160,119369,1,0,0:0:0:0:
256,160,119437,1,0,0:0:0:0:
256,160,119505,1,8,0:0:0:0:
256,160,119573,1,8,0:0:0:0:
256,160,119710,1,8,0:0:0:0:
256,160,119846,1,8,0:0:0:0:
256,160,119982,1,12,0:0:0:0:
256,160,120255,1,0,0:0:0:0:
256,160,120391,1,12,0:0:0:0:
256,160,120664,1,0,0:0:0:0:
256,160,120801,1,4,0:0:0:0:
256,160,120937,1,4,0:0:0:0:
256,160,121073,1,0,0:0:0:0:
256,160,121210,1,8,0:0:0:0:
256,160,121346,1,8,0:0:0:0:
256,160,121414,1,0,0:0:0:0:
256,160,121482,1,8,0:0:0:0:
256,160,121619,1,0,0:0:0:0:
256,160,121755,1,12,0:0:0:0:
256,160,121891,1,12,0:0:0:0:
256,160,122028,1,12,0:0:0:0:
256,160,122164,1,12,0:0:0:0:
256,160,122437,1,0,0:0:0:0:
256,160,122573,1,12,0:0:0:0:
256,160,122846,1,0,0:0:0:0:
256,160,122982,1,12,0:0:0:0:
256,160,123119,1,12,0:0:0:0:
256,160,123255,1,0,0:0:0:0:
256,160,123323,1,0,0:0:0:0:
256,160,123391,1,0,0:0:0:0:
256,160,123460,1,8,0:0:0:0:
256,160,123528,1,8,0:0:0:0:
256,160,123664,1,0,0:0:0:0:
256,160,123732,1,0,0:0:0:0:
256,160,123801,1,8,0:0:0:0:
256,160,123869,1,0,0:0:0:0:
256,160,123937,1,8,0:0:0:0:
256,160,123982,1,0,0:0:0:0:
256,160,124028,1,0,0:0:0:0:
256,160,124073,1,8,0:0:0:0:
256,128,124210,1,8,0:0:0:0:
256,128,124255,1,0,0:0:0:0:
256,128,124301,1,0,0:0:0:0:
256,128,124346,1,8,0:0:0:0:
256,160,124619,1,0,0:0:0:0:
256,160,124755,1,12,0:0:0:0:
256,160,125028,1,0,0:0:0:0:
256,160,125164,1,12,0:0:0:0:
256,160,125301,1,12,0:0:0:0:
256,160,125437,1,8,0:0:0:0:
256,160,125505,1,0,0:0:0:0:
256,160,125573,1,0,0:0:0:0:
256,160,125641,1,8,0:0:0:0:
256,160,125710,1,8,0:0:0:0:
288,160,125846,1,0,0:0:0:0:
288,160,125914,1,0,0:0:0:0:
288,160,125982,1,0,0:0:0:0:
288,160,126051,1,8,0:0:0:0:
288,160,126119,1,8,0:0:0:0:
288,160,126255,1,8,0:0:0:0:
288,160,126301,1,0,0:0:0:0:
288,160,126346,1,0,0:0:0:0:
288,160,126391,1,8,0:0:0:0:
288,160,126460,1,8,0:0:0:0:
288,160,126528,1,8,0:0:0:0:
288,160,126801,1,0,0:0:0:0:
288,160,126937,1,12,0:0:0:0:
288,160,127210,1,0,0:0:0:0:
288,160,127346,1,12,0:0:0:0:
288,160,127482,1,12,0:0:0:0:
288,160,127619,1,8,0:0:0:0:
288,160,127687,1,0,0:0:0:0:
288,160,127755,1,0,0:0:0:0:
288,160,127823,1,0,0:0:0:0:
288,160,127891,1,8,0:0:0:0:
288,160,128028,1,8,0:0:0:0:
288,160,128096,1,0,0:0:0:0:
288,160,128164,1,0,0:0:0:0:
288,160,128232,1,8,0:0:0:0:
288,160,128301,1,8,0:0:0:0:
288,160,128437,1,8,0:0:0:0:
288,160,128505,1,8,0:0:0:0:
288,160,128573,1,0,0:0:0:0:
288,160,128619,1,0,0:0:0:0:
288,160,128664,1,0,0:0:0:0:
288,160,128710,1,8,0:0:0:0:
288,160,128982,1,0,0:0:0:0:
288,160,129119,1,12,0:0:0:0:
288,160,129391,1,0,0:0:0:0:
288,160,129528,1,4,0:0:0:0:
288,160,129664,1,4,0:0:0:0:
288,160,129801,1,8,0:0:0:0:
288,160,129835,1,8,0:0:0:0:
288,160,129937,1,0,0:0:0:0:
288,160,129971,1,0,0:0:0:0:
288,160,130073,1,8,0:0:0:0:
288,160,130141,1,0,0:0:0:0:
288,160,130210,1,8,0:0:0:0:
288,160,130278,1,8,0:0:0:0:
288,160,130346,1,0,0:0:0:0:
288,160,130482,1,8,0:0:0:0:
288,160,130551,1,0,0:0:0:0:
288,160,130619,1,8,0:0:0:0:
288,160,130664,1,8,0:0:0:0:
288,160,130710,1,8,0:0:0:0:
256,160,130755,1,0,0:0:0:0:
256,160,130801,1,0,0:0:0:0:
256,160,130846,1,0,0:0:0:0:
256,160,130892,1,8,0:0:0:0:
256,160,131164,1,0,0:0:0:0:
256,160,131301,1,12,0:0:0:0:
256,160,131573,1,0,0:0:0:0:
256,160,131710,1,12,0:0:0:0:
256,160,131846,1,12,0:0:0:0:
256,160,131982,1,0,0:0:0:0:
288,128,132119,1,8,0:0:0:0:
256,160,132164,1,0,0:0:0:0:
256,160,132210,1,0,0:0:0:0:
256,160,132255,1,8,0:0:0:0:
256,160,132323,1,8,0:0:0:0:
256,160,132391,1,8,0:0:0:0:
256,160,132528,1,0,0:0:0:0:
256,160,132596,1,0,0:0:0:0:
256,160,132664,1,8,0:0:0:0:
256,160,132732,1,0,0:0:0:0:
256,160,132801,1,8,0:0:0:0:
256,160,132937,1,8,0:0:0:0:
256,160,133005,1,0,0:0:0:0:
256,160,133073,1,8,0:0:0:0:
256,160,133346,1,0,0:0:0:0:
256,160,133482,1,12,0:0:0:0:
256,160,133755,1,0,0:0:0:0:
256,160,133891,1,12,0:0:0:0:
256,160,134028,1,12,0:0:0:0:
256,160,134164,1,8,0:0:0:0:
256,160,134232,1,0,0:0:0:0:
256,160,134301,1,0,0:0:0:0:
256,160,134369,1,8,0:0:0:0:
256,160,134437,1,8,0:0:0:0:
256,160,134573,1,0,0:0:0:0:
256,160,134641,1,0,0:0:0:0:
256,160,134710,1,8,0:0:0:0:
256,160,134778,1,0,0:0:0:0:
256,160,134846,1,8,0:0:0:0:
256,160,134982,1,8,0:0:0:0:
256,160,135028,1,8,0:0:0:0:
256,160,135073,1,8,0:0:0:0:
256,160,135119,1,0,0:0:0:0:
256,160,135187,1,0,0:0:0:0:
256,160,135255,1,8,0:0:0:0:
256,160,135528,1,0,0:0:0:0:
256,160,135664,1,12,0:0:0:0:
256,160,135937,1,0,0:0:0:0:
256,160,136073,1,12,0:0:0:0:
256,160,136210,1,12,0:0:0:0:
256,160,136346,1,8,0:0:0:0:
256,160,136414,1,0,0:0:0:0:
256,160,136482,1,0,0:0:0:0:
256,160,136551,1,8,0:0:0:0:
256,160,136619,1,8,0:0:0:0:
256,160,136755,1,8,0:0:0:0:
256,160,136823,1,0,0:0:0:0:
256,160,136891,1,0,0:0:0:0:
256,160,136960,1,0,0:0:0:0:
256,160,137028,1,8,0:0:0:0:
256,160,137164,1,0,0:0:0:0:
256,160,137301,1,8,0:0:0:0:
256,160,137437,1,12,0:0:0:0:
256,160,137710,1,0,0:0:0:0:
256,160,137846,1,12,0:0:0:0:
256,160,138119,1,0,0:0:0:0:
256,160,138255,1,12,0:0:0:0:
256,128,138392,1,12,0:0:0:0:
256,128,138528,1,8,0:0:0:0:
256,128,138596,1,0,0:0:0:0:
256,128,138664,1,0,0:0:0:0:
256,128,138801,1,8,0:0:0:0:
256,128,138869,1,0,0:0:0:0:
256,128,138937,1,8,0:0:0:0:
256,128,139073,1,12,0:0:0:0:
256,128,139346,1,12,0:0:0:0:
256,128,139619,1,4,0:0:0:0:
256,128,139755,1,8,0:0:0:0:
256,128,139823,1,8,0:0:0:0:
256,128,139960,1,0,0:0:0:0:
256,128,140028,1,8,0:0:0:0:
256,128,140096,1,8,0:0:0:0:
256,128,140164,1,0,0:0:0:0:
256,128,140233,1,0,0:0:0:0:
256,128,140301,1,8,0:0:0:0:
256,128,140437,1,8,0:0:0:0:
224,128,140483,1,0,0:0:0:0:
256,128,140528,1,0,0:0:0:0:
256,128,140573,1,8,0:0:0:0:
224,128,140710,1,0,0:0:0:0:
224,128,140846,1,0,0:0:0:0:
224,128,140914,1,8,0:0:0:0:
224,128,141051,1,0,0:0:0:0:
224,128,141119,1,8,0:0:0:0:
224,128,141187,1,8,0:0:0:0:
224,128,141255,1,0,0:0:0:0:
224,128,141323,1,0,0:0:0:0:
224,128,141392,1,8,0:0:0:0:
224,128,141528,1,8,0:0:0:0:
224,128,141596,1,0,0:0:0:0:
224,128,141664,1,0,0:0:0:0:
224,128,141733,1,8,0:0:0:0:
224,128,141801,1,0,0:0:0:0:
224,128,141869,1,8,0:0:0:0:
224,128,141937,1,0,0:0:0:0:
224,128,142005,1,0,0:0:0:0:
224,128,142073,1,8,0:0:0:0:
224,128,142210,1,8,0:0:0:0:
224,128,142278,1,8,0:0:0:0:
224,128,142346,1,0,0:0:0:0:
224,128,142414,1,0,0:0:0:0:
224,128,142483,1,8,0:0:0:0:
224,128,142619,1,8,0:0:0:0:
192,128,142664,1,0,0:0:0:0:
192,128,142710,1,0,0:0:0:0:
224,128,142755,1,8,0:0:0:0:
224,128,142892,1,4,0:0:0:0:
224,128,143028,1,0,0:0:0:0:
224,128,143096,1,8,0:0:0:0:
224,128,143233,1,0,0:0:0:0:
224,128,143301,1,8,0:0:0:0:
224,128,143369,1,8,0:0:0:0:
224,128,143437,1,0,0:0:0:0:
224,128,143505,1,0,0:0:0:0:
224,128,143573,1,8,0:0:0:0:
224,128,143710,1,8,0:0:0:0:
224,128,143755,1,8,0:0:0:0:
224,128,143801,1,8,0:0:0:0:
224,128,143846,1,0,0:0:0:0:
224,128,143892,1,0,0:0:0:0:
224,128,143937,1,0,0:0:0:0:
224,128,143983,1,8,0:0:0:0:
224,128,144255,1,8,0:0:0:0:
224,160,144323,1,0,0:0:0:0:
224,160,144392,1,8,0:0:0:0:
224,160,144460,1,8,0:0:0:0:
224,160,144528,1,0,0:0:0:0:
224,160,144596,1,0,0:0:0:0:
224,160,144664,1,8,0:0:0:0:
224,160,144801,1,0,0:0:0:0:
224,160,144869,1,0,0:0:0:0:
224,192,144937,1,8,0:0:0:0:
224,160,144983,1,8,0:0:0:0:
224,160,145028,1,8,0:0:0:0:
224,128,145073,1,0,0:0:0:0:
224,160,145210,1,0,0:0:0:0:
224,160,145278,1,8,0:0:0:0:
256,160,145414,1,0,0:0:0:0:
224,128,145483,1,8,0:0:0:0:
224,128,145551,1,8,0:0:0:0:
224,160,145619,1,0,0:0:0:0:
224,160,145687,1,0,0:0:0:0:
224,160,145755,1,8,0:0:0:0:
224,160,145892,1,8,0:0:0:0:
224,160,145960,1,8,0:0:0:0:
224,160,146028,1,0,0:0:0:0:
224,160,146073,1,8,0:0:0:0:
224,160,146119,1,8,0:0:0:0:
224,160,146164,1,0,0:0:0:0:
224,160,146233,1,8,0:0:0:0:
224,160,146301,1,0,0:0:0:0:
224,160,146369,1,0,0:0:0:0:
224,160,146437,1,8,0:0:0:0:
224,160,146573,1,8,0:0:0:0:
224,160,146642,1,8,0:0:0:0:
224,160,146710,1,0,0:0:0:0:
224,160,146778,1,0,0:0:0:0:
224,160,146846,1,8,0:0:0:0:
224,160,146983,1,8,0:0:0:0:
224,160,147051,1,0,0:0:0:0:
224,160,147119,1,8,0:0:0:0:
224,160,147164,1,0,0:0:0:0:
224,160,147210,1,0,0:0:0:0:
224,160,147255,1,8,0:0:0:0:
224,160,147392,1,0,0:0:0:0:
224,160,147460,1,8,0:0:0:0:
224,160,147528,1,8,0:0:0:0:
224,160,147664,1,8,0:0:0:0:
224,160,147733,1,8,0:0:0:0:
224,160,147801,1,0,0:0:0:0:
224,160,147869,1,0,0:0:0:0:
224,160,147937,1,8,0:0:0:0:
224,160,148005,1,8,0:0:0:0:
224,160,148073,1,0,0:0:0:0:
224,160,148142,1,0,0:0:0:0:
224,160,148210,1,8,0:0:0:0:
224,160,148346,1,0,0:0:0:0:
224,160,148483,1,8,0:0:0:0:
224,128,148551,1,8,0:0:0:0:
224,160,148687,1,0,0:0:0:0:
224,160,148755,1,8,0:0:0:0:
224,128,148823,1,8,0:0:0:0:
224,128,148892,1,0,0:0:0:0:
224,128,148960,1,0,0:0:0:0:
256,160,149028,1,8,0:0:0:0:
224,128,149164,1,12,0:0:0:0:
256,128,149301,1,8,0:0:0:0:
256,128,149335,1,8,0:0:0:0:
256,128,149437,1,0,0:0:0:0:
256,128,149573,1,0,0:0:0:0:
256,128,149642,1,8,0:0:0:0:
256,128,149778,1,0,0:0:0:0:
256,128,149846,1,8,0:0:0:0:
256,128,149914,1,8,0:0:0:0:
256,128,149983,1,0,0:0:0:0:
256,128,150051,1,0,0:0:0:0:
256,128,150119,1,8,0:0:0:0:
256,128,150255,1,8,0:0:0:0:
256,128,150301,1,8,0:0:0:0:
256,128,150346,1,8,0:0:0:0:
256,128,150392,1,0,0:0:0:0:
256,128,150460,1,8,0:0:0:0:
256,128,150528,1,0,0:0:0:0:
256,128,150596,1,0,0:0:0:0:
256,128,150664,1,0,0:0:0:0:
256,128,150733,1,0,0:0:0:0:
256,128,150801,1,8,0:0:0:0:
256,128,150937,1,8,0:0:0:0:
256,128,151005,1,0,0:0:0:0:
256,128,151073,1,0,0:0:0:0:
256,128,151142,1,0,0:0:0:0:
256,128,151210,1,8,0:0:0:0:
256,128,151346,1,8,0:0:0:0:
256,128,151414,1,0,0:0:0:0:
256,128,151483,1,8,0:0:0:0:
256,128,151528,1,8,0:0:0:0:
256,128,151573,1,8,0:0:0:0:
256,128,151619,1,0,0:0:0:0:
256,128,151755,1,0,0:0:0:0:
256,128,151823,1,8,0:0:0:0:
256,128,151960,1,0,0:0:0:0:
256,128,152028,1,8,0:0:0:0:
256,128,152096,1,8,0:0:0:0:
256,128,152164,1,0,0:0:0:0:
256,128,152233,1,0,0:0:0:0:
256,128,152301,1,8,0:0:0:0:
256,128,152346,1,0,0:0:0:0:
256,128,152392,1,0,0:0:0:0:
256,128,152437,1,8,0:0:0:0:
256,128,152573,1,8,0:0:0:0:
256,128,152642,1,8,0:0:0:0:
256,128,152710,1,0,0:0:0:0:
256,128,152755,1,0,0:0:0:0:
256,128,152801,1,8,0:0:0:0:
256,128,152846,1,8,0:0:0:0:
288,192,152983,1,8,0:0:0:0:
256,160,153051,1,0,0:0:0:0:
256,160,153119,1,8,0:0:0:0:
256,160,153187,1,8,0:0:0:0:
256,160,153255,1,0,0:0:0:0:
256,160,153323,1,0,0:0:0:0:
256,160,153392,1,8,0:0:0:0:
256,160,153528,1,0,0:0:0:0:
256,160,153596,1,0,0:0:0:0:
256,160,153664,1,8,0:0:0:0:
256,160,153710,1,0,0:0:0:0:
256,160,153755,1,0,0:0:0:0:
256,160,153801,1,8,0:0:0:0:
256,160,153937,1,0,0:0:0:0:
256,160,154005,1,8,0:0:0:0:
256,160,154142,1,0,0:0:0:0:
256,160,154210,1,8,0:0:0:0:
256,160,154278,1,8,0:0:0:0:
256,160,154346,1,0,0:0:0:0:
256,160,154414,1,0,0:0:0:0:
256,160,154483,1,8,0:0:0:0:
256,160,154619,1,8,0:0:0:0:
256,160,154664,1,0,0:0:0:0:
256,160,154710,1,0,0:0:0:0:
256,160,154755,1,8,0:0:0:0:
256,160,154823,1,8,0:0:0:0:
256,160,154892,1,0,0:0:0:0:
256,160,154960,1,0,0:0:0:0:
256,160,155028,1,0,0:0:0:0:
256,160,155096,1,0,0:0:0:0:
256,160,155164,1,8,0:0:0:0:
256,160,155301,1,8,0:0:0:0:
256,160,155369,1,0,0:0:0:0:
256,160,155437,1,0,0:0:0:0:
256,160,155505,1,0,0:0:0:0:
256,160,155573,1,8,0:0:0:0:
256,160,155710,1,8,0:0:0:0:
256,160,155778,1,0,0:0:0:0:
256,160,155846,1,8,0:0:0:0:
256,160,155892,1,8,0:0:0:0:
256,160,155937,1,8,0:0:0:0:
256,160,155983,1,0,0:0:0:0:
256,160,156119,1,0,0:0:0:0:
256,128,156187,1,0,0:0:0:0:
256,160,156255,1,8,0:0:0:0:
256,128,156392,1,8,0:0:0:0:
256,128,156528,1,0,0:0:0:0:
224,128,156573,1,0,0:0:0:0:
256,128,156619,1,0,0:0:0:0:
256,128,156664,1,8,0:0:0:0:
256,128,156801,1,8,0:0:0:0:
256,128,156846,1,8,0:0:0:0:
256,128,156892,1,8,0:0:0:0:
256,128,156937,1,8,0:0:0:0:
256,128,156983,1,8,0:0:0:0:
256,128,157028,1,8,0:0:0:0:
256,128,157073,1,0,0:0:0:0:
256,128,157210,1,8,0:0:0:0:
256,128,157278,1,0,0:0:0:0:
256,128,157346,1,0,0:0:0:0:
256,128,157414,1,0,0:0:0:0:
256,128,157483,1,8,0:0:0:0:
256,128,157551,1,8,0:0:0:0:
256,128,157619,1,0,0:0:0:0:
256,128,157687,1,0,0:0:0:0:
256,128,157755,1,8,0:0:0:0:
256,128,157892,1,8,0:0:0:0:
256,128,157960,1,8,0:0:0:0:
256,128,158028,1,0,0:0:0:0:
256,128,158073,1,8,0:0:0:0:
256,128,158119,1,8,0:0:0:0:
256,128,158164,1,0,0:0:0:0:
256,128,158301,1,0,0:0:0:0:
256,128,158369,1,8,0:0:0:0:
256,128,158437,1,8,0:0:0:0:
256,128,158505,1,0,0:0:0:0:
256,128,158573,1,8,0:0:0:0:
256,128,158642,1,8,0:0:0:0:
256,128,158710,1,0,0:0:0:0:
256,128,158778,1,0,0:0:0:0:
256,128,158846,1,8,0:0:0:0:
256,128,158983,1,8,0:0:0:0:
256,128,159051,1,0,0:0:0:0:
256,128,159119,1,0,0:0:0:0:
256,128,159164,1,0,0:0:0:0:
256,128,159210,1,0,0:0:0:0:
256,128,159255,1,8,0:0:0:0:
256,128,159323,1,8,0:0:0:0:
256,128,159392,1,0,0:0:0:0:
256,128,159460,1,0,0:0:0:0:
256,128,159528,1,8,0:0:0:0:
256,128,159664,1,8,0:0:0:0:
256,128,159733,1,0,0:0:0:0:
256,128,159801,1,0,0:0:0:0:
256,128,159869,1,0,0:0:0:0:
256,128,159937,1,8,0:0:0:0:
256,128,160073,1,8,0:0:0:0:
256,128,160142,1,0,0:0:0:0:
256,128,160210,1,8,0:0:0:0:
256,128,160255,1,8,0:0:0:0:
256,128,160301,1,8,0:0:0:0:
256,128,160346,1,0,0:0:0:0:
256,128,160483,1,0,0:0:0:0:
256,128,160551,1,8,0:0:0:0:
256,128,160619,1,8,0:0:0:0:
256,128,160687,1,0,0:0:0:0:
256,128,160755,1,8,0:0:0:0:
256,128,160823,1,8,0:0:0:0:
256,128,160892,1,0,0:0:0:0:
256,128,160960,1,0,0:0:0:0:
256,128,161028,1,8,0:0:0:0:
256,128,161164,1,8,0:0:0:0:
256,160,161233,1,8,0:0:0:0:
256,128,161301,1,0,0:0:0:0:
256,160,161346,1,0,0:0:0:0:
256,128,161392,1,0,0:0:0:0:
256,128,161437,1,8,0:0:0:0:
256,128,161710,1,8,0:0:0:0:
256,128,161778,1,8,0:0:0:0:
256,128,161846,1,8,0:0:0:0:
256,128,161914,1,8,0:0:0:0:
256,128,161983,1,0,0:0:0:0:
256,128,162051,1,0,0:0:0:0:
256,128,162119,1,8,0:0:0:0:
256,128,162255,1,0,0:0:0:0:
256,128,162323,1,0,0:0:0:0:
256,128,162392,1,8,0:0:0:0:
256,128,162437,1,8,0:0:0:0:
256,128,162483,1,8,0:0:0:0:
256,128,162528,1,0,0:0:0:0:
256,128,162664,1,0,0:0:0:0:
256,128,162733,1,8,0:0:0:0:
256,128,162801,1,8,0:0:0:0:
256,128,162869,1,0,0:0:0:0:
256,128,162937,1,8,0:0:0:0:
256,128,163005,1,8,0:0:0:0:
256,128,163073,1,0,0:0:0:0:
256,128,163142,1,0,0:0:0:0:
256,128,163210,1,8,0:0:0:0:
256,128,163346,1,8,0:0:0:0:
256,128,163414,1,8,0:0:0:0:
256,128,163483,1,0,0:0:0:0:
256,128,163528,1,8,0:0:0:0:
256,128,163573,1,8,0:0:0:0:
256,128,163619,1,0,0:0:0:0:
224,128,163687,1,8,0:0:0:0:
256,128,163755,1,0,0:0:0:0:
256,128,163823,1,0,0:0:0:0:
256,128,163892,1,8,0:0:0:0:
256,128,164028,1,8,0:0:0:0:
256,128,164096,1,0,0:0:0:0:
256,128,164164,1,0,0:0:0:0:
256,128,164233,1,0,0:0:0:0:
256,128,164301,1,8,0:0:0:0:
256,128,164437,1,8,0:0:0:0:
256,128,164505,1,0,0:0:0:0:
256,128,164573,1,8,0:0:0:0:
256,128,164619,1,8,0:0:0:0:
256,128,164664,1,8,0:0:0:0:
256,128,164710,1,0,0:0:0:0:
224,128,164846,1,8,0:0:0:0:
256,128,164914,1,0,0:0:0:0:
256,128,164983,1,8,0:0:0:0:
256,128,165017,1,8,0:0:0:0:
256,128,165119,1,8,0:0:0:0:
256,128,165187,1,8,0:0:0:0:
256,128,165255,1,0,0:0:0:0:
256,128,165323,1,0,0:0:0:0:
256,128,165392,1,8,0:0:0:0:
256,128,165460,1,8,0:0:0:0:
256,128,165528,1,0,0:0:0:0:
256,128,165664,1,8,0:0:0:0:
256,128,165801,1,4,0:0:0:0:
256,128,165937,1,0,0:0:0:0:
256,128,166005,1,8,0:0:0:0:
256,128,166073,1,0,0:0:0:0:
256,128,166142,1,0,0:0:0:0:
256,128,166210,1,8,0:0:0:0:
256,128,166278,1,8,0:0:0:0:
256,128,166346,1,0,0:0:0:0:
256,128,166414,1,0,0:0:0:0:
256,128,166483,1,8,0:0:0:0:
256,128,166619,1,12,0:0:0:0:
256,128,166755,1,8,0:0:0:0:
256,128,166789,1,8,0:0:0:0:
256,128,166892,1,0,0:0:0:0:
256,128,167028,1,0,0:0:0:0:
256,128,167096,1,8,0:0:0:0:
256,128,167164,1,8,0:0:0:0:
256,128,167233,1,0,0:0:0:0:
256,128,167301,1,8,0:0:0:0:
256,128,167369,1,8,0:0:0:0:
256,128,167437,1,0,0:0:0:0:
256,128,167505,1,0,0:0:0:0:
256,128,167573,1,8,0:0:0:0:
256,128,167710,1,8,0:0:0:0:
256,128,167778,1,8,0:0:0:0:
256,128,167846,1,0,0:0:0:0:
256,128,167892,1,0,0:0:0:0:
256,128,167937,1,8,0:0:0:0:
256,128,167983,1,8,0:0:0:0:
256,128,168051,1,0,0:0:0:0:
256,128,168119,1,0,0:0:0:0:
256,128,168187,1,0,0:0:0:0:
256,128,168255,1,8,0:0:0:0:
256,128,168392,1,8,0:0:0:0:
256,128,168460,1,0,0:0:0:0:
256,128,168528,1,0,0:0:0:0:
256,128,168596,1,0,0:0:0:0:
256,128,168664,1,8,0:0:0:0:
256,128,168801,1,8,0:0:0:0:
256,128,168869,1,0,0:0:0:0:
256,128,168937,1,8,0:0:0:0:
256,128,168983,1,8,0:0:0:0:
256,128,169028,1,8,0:0:0:0:
256,128,169073,1,0,0:0:0:0:
256,128,169210,1,0,0:0:0:0:
256,128,169278,1,8,0:0:0:0:
256,128,169346,1,8,0:0:0:0:
256,128,169414,1,0,0:0:0:0:
256,128,169483,1,8,0:0:0:0:
256,128,169551,1,8,0:0:0:0:
256,128,169619,1,0,0:0:0:0:
256,128,169687,1,0,0:0:0:0:
256,128,169755,1,8,0:0:0:0:
256,128,169892,1,8,0:0:0:0:
256,128,169937,1,8,0:0:0:0:
256,128,169983,1,8,0:0:0:0:
256,128,170028,1,0,0:0:0:0:
256,128,170073,1,0,0:0:0:0:
256,128,170119,1,0,0:0:0:0:
256,128,170164,1,8,0:0:0:0:
256,128,170233,1,8,0:0:0:0:
256,96,170301,1,0,0:0:0:0:
256,96,170369,1,0,0:0:0:0:
256,128,170437,1,8,0:0:0:0:
256,128,170505,1,0,0:0:0:0:
256,128,170573,1,8,0:0:0:0:
256,128,170642,1,8,0:0:0:0:
256,128,170710,1,0,0:0:0:0:
256,128,170778,1,0,0:0:0:0:
256,128,170846,1,8,0:0:0:0:
256,128,170983,1,8,0:0:0:0:
256,128,171028,1,0,0:0:0:0:
256,128,171073,1,0,0:0:0:0:
256,128,171119,1,8,0:0:0:0:
256,128,171187,1,8,0:0:0:0:
256,128,171255,1,0,0:0:0:0:
288,128,171392,1,0,0:0:0:0:
256,128,171460,1,8,0:0:0:0:
256,128,171528,1,8,0:0:0:0:
256,128,171596,1,0,0:0:0:0:
256,128,171664,1,8,0:0:0:0:
256,128,171733,1,8,0:0:0:0:
256,128,171801,1,0,0:0:0:0:
256,128,171869,1,0,0:0:0:0:
256,128,171937,1,8,0:0:0:0:
256,128,172073,1,8,0:0:0:0:
288,128,172142,1,8,0:0:0:0:
288,128,172210,1,0,0:0:0:0:
256,128,172255,1,8,0:0:0:0:
256,128,172301,1,8,0:0:0:0:
256,128,172346,1,0,0:0:0:0:
256,128,172414,1,8,0:0:0:0:
256,128,172483,1,0,0:0:0:0:
256,128,172551,1,0,0:0:0:0:
256,128,172619,1,8,0:0:0:0:
256,128,172755,1,8,0:0:0:0:
256,128,172823,1,0,0:0:0:0:
256,128,172892,1,0,0:0:0:0:
256,128,172960,1,0,0:0:0:0:
256,128,173028,1,8,0:0:0:0:
256,128,173096,1,0,0:0:0:0:
256,128,173164,1,8,0:0:0:0:
256,128,173233,1,8,0:0:0:0:
256,128,173301,1,0,0:0:0:0:
256,128,173437,1,8,0:0:0:0:
256,128,173471,1,0,0:0:0:0:
256,128,173573,1,8,0:0:0:0:
224,128,173642,1,8,0:0:0:0:
224,128,173710,1,8,0:0:0:0:
224,128,173778,1,0,0:0:0:0:
224,128,173846,1,8,0:0:0:0:
224,128,173914,1,8,0:0:0:0:
224,128,173983,1,8,0:0:0:0:
224,128,174028,1,8,0:0:0:0:
224,128,174073,1,8,0:0:0:0:
224,128,174119,1,0,0:0:0:0:
224,128,174255,1,8,0:0:0:0:
224,128,174301,1,8,0:0:0:0:
224,128,174346,1,8,0:0:0:0:
224,128,174392,1,8,0:0:0:0:
224,128,174528,1,0,0:0:0:0:
224,128,174596,1,8,0:0:0:0:
224,128,174664,1,8,0:0:0:0:
224,128,174801,1,4,0:0:0:0:
224,128,174937,1,0,0:0:0:0:
224,128,175005,1,8,0:0:0:0:
224,128,175073,1,8,0:0:0:0:
224,128,175210,1,4,0:0:0:0:
224,128,175346,1,0,0:0:0:0:
224,128,175414,1,8,0:0:0:0:
224,128,175483,1,8,0:0:0:0:
224,128,175551,1,8,0:0:0:0:
224,128,175619,1,0,0:0:0:0:
224,128,175755,1,0,0:0:0:0:
224,128,175823,1,8,0:0:0:0:
224,128,175892,1,8,0:0:0:0:
224,128,175960,1,0,0:0:0:0:
224,128,176028,1,8,0:0:0:0:
224,128,176096,1,8,0:0:0:0:
224,128,176164,1,0,0:0:0:0:
224,128,176233,1,0,0:0:0:0:
224,128,176301,1,8,0:0:0:0:
224,128,176437,1,8,0:0:0:0:
224,128,176483,1,0,0:0:0:0:
224,128,176528,1,0,0:0:0:0:
224,128,176573,1,8,0:0:0:0:
224,128,176642,1,8,0:0:0:0:
224,128,176710,1,0,0:0:0:0:
224,128,176778,1,8,0:0:0:0:
224,128,176846,1,8,0:0:0:0:
224,128,176983,1,4,0:0:0:0:
224,128,177119,1,0,0:0:0:0:
224,128,177187,1,8,0:0:0:0:
224,128,177255,1,8,0:0:0:0:
224,128,177392,1,4,0:0:0:0:
224,128,177528,1,0,0:0:0:0:
224,128,177596,1,8,0:0:0:0:
224,128,177664,1,8,0:0:0:0:
224,128,177801,1,0,0:0:0:0:
224,128,177869,1,0,0:0:0:0:
224,128,177937,1,8,0:0:0:0:
224,128,178073,1,8,0:0:0:0:
224,128,178142,1,8,0:0:0:0:
224,128,178210,1,0,0:0:0:0:
224,128,178278,1,0,0:0:0:0:
224,128,178346,1,8,0:0:0:0:
224,128,178483,1,8,0:0:0:0:
224,128,178528,1,0,0:0:0:0:
224,128,178573,1,0,0:0:0:0:
224,128,178619,1,8,0:0:0:0:
224,128,178687,1,8,0:0:0:0:
224,128,178755,1,0,0:0:0:0:
224,128,178892,1,0,0:0:0:0:
224,128,178960,1,8,0:0:0:0:
224,128,179028,1,8,0:0:0:0:
256,128,179164,1,4,0:0:0:0:
256,160,179301,1,0,0:0:0:0:
256,160,179369,1,8,0:0:0:0:
256,160,179437,1,8,0:0:0:0:
256,160,179573,1,4,0:0:0:0:
256,160,179710,1,0,0:0:0:0:
256,160,179778,1,8,0:0:0:0:
256,160,179846,1,8,0:0:0:0:
256,160,179983,1,8,0:0:0:0:
256,160,180051,1,0,0:0:0:0:
256,160,180119,1,8,0:0:0:0:
256,160,180187,1,8,0:0:0:0:
256,160,180255,1,0,0:0:0:0:
256,160,180323,1,0,0:0:0:0:
256,160,180392,1,8,0:0:0:0:
256,160,180528,1,0,0:0:0:0:
256,160,180596,1,0,0:0:0:0:
256,160,180664,1,8,0:0:0:0:
256,160,180710,1,8,0:0:0:0:
256,160,180755,1,8,0:0:0:0:
256,160,180801,1,0,0:0:0:0:
256,160,180937,1,0,0:0:0:0:
256,160,181005,1,8,0:0:0:0:
256,160,181073,1,0,0:0:0:0:
256,160,181142,1,8,0:0:0:0:
256,160,181210,1,8,0:0:0:0:
256,160,181346,1,4,0:0:0:0:
256,160,181483,1,0,0:0:0:0:
256,160,181551,1,8,0:0:0:0:
256,160,181619,1,8,0:0:0:0:
256,160,181755,1,4,0:0:0:0:
256,160,181892,1,0,0:0:0:0:
256,160,181960,1,8,0:0:0:0:
256,160,182028,1,8,0:0:0:0:
224,160,182164,1,0,0:0:0:0:
224,160,182233,1,0,0:0:0:0:
224,160,182301,1,8,0:0:0:0:
224,160,182437,1,8,0:0:0:0:
224,160,182505,1,8,0:0:0:0:
224,160,182573,1,0,0:0:0:0:
256,160,182642,1,0,0:0:0:0:
256,160,182710,1,8,0:0:0:0:
224,160,182846,1,8,0:0:0:0:
256,160,182914,1,0,0:0:0:0:
256,160,182983,1,8,0:0:0:0:
224,160,183028,1,8,0:0:0:0:
224,160,183073,1,8,0:0:0:0:
224,160,183119,1,0,0:0:0:0:
224,160,183255,1,0,0:0:0:0:
224,160,183323,1,8,0:0:0:0:
224,160,183392,1,8,0:0:0:0:
224,160,183528,1,4,0:0:0:0:
224,160,183664,1,0,0:0:0:0:
224,160,183733,1,8,0:0:0:0:
224,160,183801,1,8,0:0:0:0:
224,160,183937,1,4,0:0:0:0:
224,160,184073,1,0,0:0:0:0:
224,160,184142,1,8,0:0:0:0:
224,160,184210,1,8,0:0:0:0:
224,160,184346,1,8,0:0:0:0:
224,160,184414,1,0,0:0:0:0:
224,160,184483,1,8,0:0:0:0:
224,160,184551,1,8,0:0:0:0:
224,160,184619,1,0,0:0:0:0:
224,160,184687,1,0,0:0:0:0:
224,160,184755,1,8,0:0:0:0:
224,160,184892,1,0,0:0:0:0:
224,160,184960,1,0,0:0:0:0:
224,160,185028,1,8,0:0:0:0:
224,160,185073,1,0,0:0:0:0:
224,160,185119,1,0,0:0:0:0:
224,160,185164,1,8,0:0:0:0:
224,160,185301,1,0,0:0:0:0:
224,160,185369,1,8,0:0:0:0:
224,160,185437,1,0,0:0:0:0:
224,160,185505,1,8,0:0:0:0:
224,160,185573,1,8,0:0:0:0:
224,160,185710,1,4,0:0:0:0:
224,160,185846,1,0,0:0:0:0:
224,160,185914,1,8,0:0:0:0:
224,160,185983,1,8,0:0:0:0:
224,160,186119,1,4,0:0:0:0:
224,160,186255,1,0,0:0:0:0:
224,160,186323,1,8,0:0:0:0:
224,160,186392,1,8,0:0:0:0:
224,160,186528,1,8,0:0:0:0:
224,160,186573,1,8,0:0:0:0:
224,160,186619,1,8,0:0:0:0:
224,160,186664,1,0,0:0:0:0:
224,160,186801,1,8,0:0:0:0:
224,160,186835,1,8,0:0:0:0:
256,160,187073,1,8,0:0:0:0:
256,160,187142,1,8,0:0:0:0:
224,160,187210,1,8,0:0:0:0:
224,160,187278,1,8,0:0:0:0:
224,160,187346,1,0,0:0:0:0:
224,160,187414,1,0,0:0:0:0:
224,160,187483,1,8,0:0:0:0:
224,160,187619,1,0,0:0:0:0:
224,160,187687,1,8,0:0:0:0:
224,160,187755,1,8,0:0:0:0:
224,160,187892,1,4,0:0:0:0:
224,160,188028,1,0,0:0:0:0:
224,160,188096,1,8,0:0:0:0:
224,160,188164,1,8,0:0:0:0:
224,160,188301,1,4,0:0:0:0:
224,160,188437,1,0,0:0:0:0:
224,160,188505,1,8,0:0:0:0:
224,160,188573,1,8,0:0:0:0:
224,160,188710,1,8,0:0:0:0:
224,160,188778,1,0,0:0:0:0:
224,160,188846,1,0,0:0:0:0:
224,160,188914,1,8,0:0:0:0:
224,160,188983,1,0,0:0:0:0:
224,160,189051,1,0,0:0:0:0:
224,160,189119,1,8,0:0:0:0:
224,160,189255,1,8,0:0:0:0:
224,160,189323,1,8,0:0:0:0:
224,160,189392,1,0,0:0:0:0:
224,160,189460,1,8,0:0:0:0:
224,160,189528,1,8,0:0:0:0:
224,160,189664,1,0,0:0:0:0:
224,160,189733,1,8,0:0:0:0:
224,160,189801,1,0,0:0:0:0:
224,160,189869,1,8,0:0:0:0:
224,160,189937,1,8,0:0:0:0:
224,160,190073,1,4,0:0:0:0:
224,160,190210,1,0,0:0:0:0:
224,160,190278,1,8,0:0:0:0:
224,160,190346,1,8,0:0:0:0:
224,160,190483,1,4,0:0:0:0:
224,160,190619,1,0,0:0:0:0:
224,160,190687,1,0,0:0:0:0:
224,160,190755,1,8,0:0:0:0:
224,160,190892,1,8,0:0:0:0:
224,160,190937,1,0,0:0:0:0:
224,160,190983,1,0,0:0:0:0:
224,160,191028,1,8,0:0:0:0:
224,160,191164,1,0,0:0:0:0:
192,160,191233,1,8,0:0:0:0:
224,160,191301,1,0,0:0:0:0:
224,160,191335,1,0,0:0:0:0:
224,160,191437,1,8,0:0:0:0:
224,160,191471,1,8,0:0:0:0:
224,160,191573,1,8,0:0:0:0:
224,160,191642,1,0,0:0:0:0:
224,160,191710,1,8,0:0:0:0:
224,160,191755,1,8,0:0:0:0:
224,160,191801,1,8,0:0:0:0:
224,160,191846,1,0,0:0:0:0:
192,160,191983,1,0,0:0:0:0:
192,160,192051,1,8,0:0:0:0:
192,160,192119,1,8,0:0:0:0:
192,160,192255,1,4,0:0:0:0:
192,160,192392,1,0,0:0:0:0:
192,160,192460,1,8,0:0:0:0:
192,160,192528,1,8,0:0:0:0:
192,160,192664,1,4,0:0:0:0:
192,160,192801,1,0,0:0:0:0:
192,160,192869,1,8,0:0:0:0:
192,160,192937,1,8,0:0:0:0:
192,160,193073,1,0,0:0:0:0:
192,160,193210,1,0,0:0:0:0:
192,160,193278,1,8,0:0:0:0:
192,160,193346,1,8,0:0:0:0:
192,160,193414,1,0,0:0:0:0:
192,160,193483,1,8,0:0:0:0:
192,160,193551,1,8,0:0:0:0:
192,160,193619,1,0,0:0:0:0:
192,160,193687,1,0,0:0:0:0:
192,160,193755,1,8,0:0:0:0:
192,160,193892,1,0,0:0:0:0:
192,160,193937,1,8,0:0:0:0:
192,160,193983,1,8,0:0:0:0:
192,160,194028,1,0,0:0:0:0:
192,160,194096,1,8,0:0:0:0:
192,160,194164,1,0,0:0:0:0:
192,160,194233,1,8,0:0:0:0:
192,160,194301,1,8,0:0:0:0:
192,160,194437,1,4,0:0:0:0:
192,160,194573,1,0,0:0:0:0:
192,160,194642,1,8,0:0:0:0:
192,160,194710,1,8,0:0:0:0:
192,160,194846,1,4,0:0:0:0:
192,160,194983,1,0,0:0:0:0:
192,160,195051,1,8,0:0:0:0:
192,160,195119,1,8,0:0:0:0:
192,160,195255,1,8,0:0:0:0:
192,160,195323,1,0,0:0:0:0:
192,160,195392,1,8,0:0:0:0:
192,160,195528,1,8,0:0:0:0:
192,160,195596,1,0,0:0:0:0:
192,160,195664,1,0,0:0:0:0:
192,160,195733,1,8,0:0:0:0:
192,160,195801,1,8,0:0:0:0:
192,160,195937,1,8,0:0:0:0:
192,160,196005,1,0,0:0:0:0:
192,160,196073,1,8,0:0:0:0:
192,160,196119,1,8,0:0:0:0:
192,160,196164,1,8,0:0:0:0:
192,160,196210,1,0,0:0:0:0:
192,160,196346,1,0,0:0:0:0:
192,160,196414,1,8,0:0:0:0:
192,160,196483,1,8,0:0:0:0:
192,160,196619,1,4,0:0:0:0:
192,160,196755,1,0,0:0:0:0:
192,160,196823,1,8,0:0:0:0:
192,160,196892,1,8,0:0:0:0:
192,160,197028,1,4,0:0:0:0:
192,160,197164,1,0,0:0:0:0:
192,160,197233,1,8,0:0:0:0:
192,160,197301,1,8,0:0:0:0:
192,160,197437,1,8,0:0:0:0:
192,160,197505,1,0,0:0:0:0:
192,160,197573,1,8,0:0:0:0:
192,160,197642,1,8,0:0:0:0:
192,160,197710,1,0,0:0:0:0:
192,160,197778,1,0,0:0:0:0:
192,160,197846,1,8,0:0:0:0:
192,160,197983,1,8,0:0:0:0:
192,160,198051,1,0,0:0:0:0:
192,160,198119,1,8,0:0:0:0:
224,160,198164,1,8,0:0:0:0:
192,160,198210,1,8,0:0:0:0:
192,160,198255,1,0,0:0:0:0:
224,160,198392,1,0,0:0:0:0:
192,160,198460,1,8,0:0:0:0:
192,160,198528,1,0,0:0:0:0:
192,160,198596,1,8,0:0:0:0:
192,160,198664,1,8,0:0:0:0:
192,160,198801,1,4,0:0:0:0:
192,160,198937,1,0,0:0:0:0:
192,160,199005,1,8,0:0:0:0:
192,160,199073,1,8,0:0:0:0:
192,160,199210,1,4,0:0:0:0:
192,160,199346,1,0,0:0:0:0:
192,160,199414,1,0,0:0:0:0:
192,160,199483,1,8,0:0:0:0:
192,160,199619,1,0,0:0:0:0:
192,128,199664,1,0,0:0:0:0:
192,128,199710,1,0,0:0:0:0:
192,160,199755,1,8,0:0:0:0:
192,128,199892,1,8,0:0:0:0:
192,128,199960,1,0,0:0:0:0:
192,128,200028,1,0,0:0:0:0:
192,128,200096,1,8,0:0:0:0:
192,128,200164,1,8,0:0:0:0:
192,128,200301,1,8,0:0:0:0:
192,128,200369,1,0,0:0:0:0:
192,128,200437,1,8,0:0:0:0:
192,128,200483,1,8,0:0:0:0:
192,128,200528,1,8,0:0:0:0:
224,128,200573,1,0,0:0:0:0:
224,128,200710,1,0,0:0:0:0:
224,128,200778,1,8,0:0:0:0:
224,128,200846,1,8,0:0:0:0:
192,128,200983,1,4,0:0:0:0:
192,128,201119,1,0,0:0:0:0:
192,128,201187,1,8,0:0:0:0:
192,128,201255,1,8,0:0:0:0:
192,128,201392,1,4,0:0:0:0:
192,128,201528,1,0,0:0:0:0:
192,128,201596,1,8,0:0:0:0:
192,128,201664,1,8,0:0:0:0:
192,128,201801,1,8,0:0:0:0:
192,128,201869,1,0,0:0:0:0:
192,128,201937,1,8,0:0:0:0:
192,128,202005,1,8,0:0:0:0:
192,128,202073,1,0,0:0:0:0:
192,128,202142,1,0,0:0:0:0:
192,128,202210,1,8,0:0:0:0:
192,128,202346,1,0,0:0:0:0:
192,128,202414,1,0,0:0:0:0:
192,128,202483,1,8,0:0:0:0:
192,128,202528,1,8,0:0:0:0:
192,128,202573,1,8,0:0:0:0:
192,128,202619,1,0,0:0:0:0:
192,128,202755,1,0,0:0:0:0:
192,128,202823,1,8,0:0:0:0:
192,128,202892,1,0,0:0:0:0:
192,128,202960,1,8,0:0:0:0:
192,128,203028,1,8,0:0:0:0:
192,128,203164,1,4,0:0:0:0:
192,128,203301,1,0,0:0:0:0:
192,128,203369,1,8,0:0:0:0:
192,128,203437,1,8,0:0:0:0:
192,128,203573,1,4,0:0:0:0:
192,128,203710,1,0,0:0:0:0:
192,128,203778,1,8,0:0:0:0:
192,128,203846,1,8,0:0:0:0:
192,128,203983,1,8,0:0:0:0:
192,128,204051,1,8,0:0:0:0:
192,128,204119,1,0,0:0:0:0:
192,128,204187,1,8,0:0:0:0:
192,128,204255,1,8,0:0:0:0:
192,128,204392,1,8,0:0:0:0:
192,128,204437,1,8,0:0:0:0:
192,128,204483,1,8,0:0:0:0:
192,128,204528,1,0,0:0:0:0:
192,128,204596,1,0,0:0:0:0:
192,128,204664,1,0,0:0:0:0:
192,128,204733,1,8,0:0:0:0:
192,128,204801,1,0,0:0:0:0:
192,128,204869,1,0,0:0:0:0:
192,128,204937,1,8,0:0:0:0:
192,128,205073,1,0,0:0:0:0:
192,128,205142,1,8,0:0:0:0:
192,128,205210,1,8,0:0:0:0:
192,128,205346,1,4,0:0:0:0:
192,128,205483,1,0,0:0:0:0:
192,128,205551,1,8,0:0:0:0:
192,128,205619,1,8,0:0:0:0:
192,128,205755,1,4,0:0:0:0:
192,128,205892,1,0,0:0:0:0:
192,128,205960,1,8,0:0:0:0:
192,128,206028,1,8,0:0:0:0:
192,128,206164,1,8,0:0:0:0:
192,128,206233,1,0,0:0:0:0:
192,128,206301,1,0,0:0:0:0:
192,128,206369,1,8,0:0:0:0:
192,128,206437,1,0,0:0:0:0:
192,128,206505,1,0,0:0:0:0:
192,128,206573,1,8,0:0:0:0:
192,128,206710,1,8,0:0:0:0:
192,128,206778,1,8,0:0:0:0:
192,128,206846,1,0,0:0:0:0:
192,128,206914,1,8,0:0:0:0:
192,128,206983,1,8,0:0:0:0:
192,128,207119,1,8,0:0:0:0:
192,128,207187,1,8,0:0:0:0:
192,128,207255,1,0,0:0:0:0:
192,128,207323,1,8,0:0:0:0:
192,128,207392,1,8,0:0:0:0:
192,128,207528,1,4,0:0:0:0:
192,128,207664,1,0,0:0:0:0:
192,128,207733,1,8,0:0:0:0:
192,128,207801,1,8,0:0:0:0:
192,128,207937,1,4,0:0:0:0:
192,128,208073,1,0,0:0:0:0:
192,128,208142,1,0,0:0:0:0:
192,128,208210,1,8,0:0:0:0:
256,192,208346,12,8,208755,0:0:0:0:
256,160,208892,5,8,0:0:0:0:
256,192,208960,1,0,0:0:0:0:
256,192,209028,1,0,0:0:0:0:
256,160,209096,1,8,0:0:0:0:
256,160,209164,1,0,0:0:0:0:
256,160,209233,1,0,0:0:0:0:
256,160,209301,1,8,0:0:0:0:
256,160,209346,1,8,0:0:0:0:
256,160,209392,1,8,0:0:0:0:
256,160,209437,1,0,0:0:0:0:
