osu file format v14

[General]
AudioFilename: audio.mp3
AudioLeadIn: 0
PreviewTime: 7368
Countdown: 0
SampleSet: Normal
StackLeniency: 0.7
Mode: 1
LetterboxInBreaks: 0
EpilepsyWarning: 1
WidescreenStoryboard: 1

[Editor]
DistanceSpacing: 1
BeatDivisor: 4
GridSize: 32
TimelineZoom: 1.6

[Metadata]
Title:Kirameki*Chocolaterie
TitleUnicode:きらめき*Chocolaterie
Artist:KyoKa
ArtistUnicode:KyoKa
Creator:Hoshikuz
Version:Peaceful's Muzukashii
Source:あまいろショコラータ
Tags:きゃべつそふと Cabbage Soft chocolate my favorite kemomimi adventure あまショコ Amachoco eroge Amairo Chocolata op opening short ver. version visual novel japanese video game jpop j-pop 藤井稿太郎 koutarou fujii みう MusikMagie 原瀬今日香 harase kyouka R-18 MetalStream Peaceful Sanjenin Nagi Konpaku Sariel [R] Ron sb storyboard
BeatmapID:2323353
BeatmapSetID:1111182

[Difficulty]
HPDrainRate:6
CircleSize:4
OverallDifficulty:5
ApproachRate:8
SliderMultiplier:1.4
SliderTickRate:1

[Events]
//Background and Video events
0,0,"ev204a.jpg",0,160
//Break Periods
//Storyboard Layer 0 (Background)
//Storyboard Layer 1 (Fail)
//Storyboard Layer 2 (Pass)
//Storyboard Layer 3 (Foreground)
//Storyboard Layer 4 (Overlay)
//Storyboard Sound Samples

[TimingPoints]
466,434.782608695652,4,1,0,50,1,0
3944,-100,4,1,0,60,0,0
5683,-100,4,1,0,70,0,0
7422,-100,4,1,0,80,0,0
24379,-100,4,1,0,70,0,0
31770,-100,4,1,0,80,0,0
38726,-100,4,1,0,70,0,0
45683,-100,4,1,0,80,0,0
52639,-100,4,1,0,85,0,0
56118,-100,4,1,0,90,0,1
76987,-100,4,1,0,80,0,0
93944,-100,4,1,0,70,0,0

[HitObjects]
256,192,466,12,0,3509,0:0:0:0:
256,192,3944,5,12,0:0:0:0:
256,192,4813,1,4,0:0:0:0:
256,192,5683,1,12,0:0:0:0:
333,159,6009,1,12,0:0:0:0:
192,192,6335,1,12,0:0:0:0:
320,192,6552,1,12,0:0:0:0:
192,64,6987,1,8,0:0:0:0:
224,64,7096,1,8,0:0:0:0:
256,64,7205,1,8,0:0:0:0:
320,64,7422,5,4,0:0:0:0:
320,160,7748,1,8,0:0:0:0:
320,256,8074,1,0,0:0:0:0:
187,176,8292,1,0,0:0:0:0:
192,256,8509,1,8,0:0:0:0:
128,256,8726,1,0,0:0:0:0:
327,130,9161,1,0,0:0:0:0:
202,101,9487,1,8,0:0:0:0:
327,130,9813,1,8,0:0:0:0:
389,152,10031,1,8,0:0:0:0:
360,146,10248,1,0,0:0:0:0:
360,146,10465,1,0,0:0:0:0:
360,146,10900,5,8,0:0:0:0:
275,106,11226,1,8,0:0:0:0:
306,197,11552,1,0,0:0:0:0:
227,96,11987,1,0,0:0:0:0:
227,96,12205,1,0,0:0:0:0:
397,128,12422,1,8,0:0:0:0:
287,140,12639,1,8,0:0:0:0:
366,197,12965,1,0,0:0:0:0:
366,197,13292,1,8,0:0:0:0:
366,197,13400,1,8,0:0:0:0:
366,197,13509,1,8,0:0:0:0:
374,82,14379,5,4,0:0:0:0:
434,154,14705,1,8,0:0:0:0:
434,154,15031,1,0,0:0:0:0:
294,207,15248,1,8,0:0:0:0:
434,154,15465,1,8,0:0:0:0:
434,154,15683,1,0,0:0:0:0:
327,130,16118,1,8,0:0:0:0:
202,101,16444,1,8,0:0:0:0:
389,152,16770,1,0,0:0:0:0:
187,150,16987,1,8,0:0:0:0:
360,146,17205,1,8,0:0:0:0:
360,146,17422,1,0,0:0:0:0:
360,146,17857,5,8,0:0:0:0:
275,106,18183,1,8,0:0:0:0:
306,197,18509,1,0,0:0:0:0:
227,96,18944,1,0,0:0:0:0:
239,113,19052,1,0,0:0:0:0:
227,96,19161,1,0,0:0:0:0:
227,96,19379,1,8,0:0:0:0:
287,140,19596,1,8,0:0:0:0:
297,179,19813,1,0,0:0:0:0:
366,197,20031,1,8,0:0:0:0:
366,197,20465,1,8,0:0:0:0:
366,197,20574,1,8,0:0:0:0:
366,197,20683,1,8,0:0:0:0:
249,119,20900,1,0,0:0:0:0:
214,223,21009,1,0,0:0:0:0:
214,223,21118,1,0,0:0:0:0:
336,15,21335,5,0,0:0:0:0:
330,90,21552,1,8,0:0:0:0:
330,90,21987,1,8,0:0:0:0:
330,90,22422,1,8,0:0:0:0:
307,155,22639,1,0,0:0:0:0:
140,136,22857,1,0,0:0:0:0:
355,135,23074,1,12,0:0:0:0:
110,89,23292,1,12,0:0:0:0:
355,135,23509,1,12,0:0:0:0:
355,135,23726,1,12,0:0:0:0:
355,135,23944,1,12,0:0:0:0:
484,365,24813,5,0,0:0:0:0:
460,322,25031,1,8,0:0:0:0:
368,225,25248,1,0,0:0:0:0:
321,177,25574,1,8,0:0:0:0:
402,207,25900,1,0,0:0:0:0:
177,57,26009,1,0,0:0:0:0:
339,166,26118,1,0,0:0:0:0:
205,132,26335,1,8,0:0:0:0:
336,155,26770,1,8,0:0:0:0:
279,124,26987,1,8,0:0:0:0:
396,128,27313,1,0,0:0:0:0:
396,128,27639,1,8,0:0:0:0:
396,128,27748,1,8,0:0:0:0:
396,128,27857,1,8,0:0:0:0:
396,128,28074,1,0,0:0:0:0:
291,214,28509,1,8,0:0:0:0:
238,105,28944,1,8,0:0:0:0:
343,171,29161,1,8,0:0:0:0:
252,210,29487,1,0,0:0:0:0:
347,171,29813,1,8,0:0:0:0:
252,210,30031,1,8,0:0:0:0:
252,210,30357,1,0,0:0:0:0:
252,210,30683,1,0,0:0:0:0:
252,210,30900,1,0,0:0:0:0:
252,210,31118,1,8,0:0:0:0:
269,81,31226,1,8,0:0:0:0:
252,210,31335,1,8,0:0:0:0:
332,202,31770,5,4,0:0:0:0:
244,193,32096,1,8,0:0:0:0:
347,273,32422,1,8,0:0:0:0:
347,273,32639,1,0,0:0:0:0:
300,90,32965,1,8,0:0:0:0:
347,273,33292,1,8,0:0:0:0:
367,198,33509,1,0,0:0:0:0:
350,263,33726,1,8,0:0:0:0:
364,198,33944,1,8,0:0:0:0:
347,261,34161,1,8,0:0:0:0:
365,195,34379,1,0,0:0:0:0:
178,125,35031,1,8,0:0:0:0:
230,145,35248,1,0,0:0:0:0:
287,166,35465,1,8,0:0:0:0:
220,141,35683,1,8,0:0:0:0:
280,145,35900,1,0,0:0:0:0:
345,156,36118,1,8,0:0:0:0:
268,94,36335,1,0,0:0:0:0:
281,148,36552,1,8,0:0:0:0:
423,182,36987,1,12,0:0:0:0:
262,172,37313,1,12,0:0:0:0:
333,162,37639,1,12,0:0:0:0:
423,182,37857,1,12,0:0:0:0:
296,207,38292,1,0,0:0:0:0:
296,207,38400,1,0,0:0:0:0:
296,207,38509,1,0,0:0:0:0:
283,121,38726,5,4,0:0:0:0:
247,82,39161,1,8,0:0:0:0:
247,82,39379,1,8,0:0:0:0:
264,56,39596,1,0,0:0:0:0:
186,208,40031,1,8,0:0:0:0:
277,282,40248,1,0,0:0:0:0:
376,120,40465,1,0,0:0:0:0:
380,252,40900,1,8,0:0:0:0:
313,229,41118,1,8,0:0:0:0:
376,121,41335,1,0,0:0:0:0:
328,82,41552,1,8,0:0:0:0:
381,260,41770,1,8,0:0:0:0:
324,221,41987,1,8,0:0:0:0:
370,106,42205,1,0,0:0:0:0:
370,106,42639,1,8,0:0:0:0:
370,106,42857,1,8,0:0:0:0:
204,123,43074,1,0,0:0:0:0:
445,162,43400,1,8,0:0:0:0:
445,162,43726,1,0,0:0:0:0:
370,106,43944,1,8,0:0:0:0:
370,106,44270,1,0,0:0:0:0:
378,143,44813,1,0,0:0:0:0:
133,212,45031,1,8,0:0:0:0:
249,236,45248,1,8,0:0:0:0:
265,218,45357,1,8,0:0:0:0:
278,203,45465,1,8,0:0:0:0:
283,121,45683,5,4,0:0:0:0:
334,148,46009,1,0,0:0:0:0:
247,82,46335,1,8,0:0:0:0:
247,82,46552,1,8,0:0:0:0:
327,133,46879,1,8,0:0:0:0:
277,282,47205,1,0,0:0:0:0:
376,120,47422,1,8,0:0:0:0:
337,206,47748,1,0,0:0:0:0:
380,252,48074,1,8,0:0:0:0:
376,121,48292,1,8,0:0:0:0:
260,179,48509,1,0,0:0:0:0:
260,179,48944,1,0,0:0:0:0:
370,106,49161,1,8,0:0:0:0:
370,106,49487,1,8,0:0:0:0:
279,146,49813,1,0,0:0:0:0:
370,106,50031,1,8,0:0:0:0:
445,162,50357,1,0,0:0:0:0:
445,162,50683,1,0,0:0:0:0:
370,106,50900,1,8,0:0:0:0:
343,321,51552,1,0,0:0:0:0:
210,278,51770,1,8,0:0:0:0:
350,254,51987,1,0,0:0:0:0:
249,236,52205,1,8,0:0:0:0:
335,174,52422,1,8,0:0:0:0:
278,203,52639,1,4,0:0:0:0:
173,109,52965,1,4,0:0:0:0:
480,120,53509,1,4,0:0:0:0:
184,106,53835,1,4,0:0:0:0:
395,117,54379,1,12,0:0:0:0:
407,101,54705,1,12,0:0:0:0:
395,117,55031,1,12,0:0:0:0:
395,117,55248,1,12,0:0:0:0:
349,220,55900,5,0,0:0:0:0:
349,220,56118,1,12,0:0:0:0:
301,139,56444,1,8,0:0:0:0:
301,139,56770,1,0,0:0:0:0:
301,139,56987,1,8,0:0:0:0:
301,139,57313,1,8,0:0:0:0:
301,139,57639,1,0,0:0:0:0:
301,139,57857,1,8,0:0:0:0:
301,139,58183,1,8,0:0:0:0:
301,139,58509,1,0,0:0:0:0:
301,139,58726,1,0,0:0:0:0:
301,139,58944,1,8,0:0:0:0:
301,139,59161,1,8,0:0:0:0:
336,148,59379,1,0,0:0:0:0:
336,148,59487,1,0,0:0:0:0:
301,139,59596,1,0,0:0:0:0:
485,200,60248,1,8,0:0:0:0:
462,192,60357,1,8,0:0:0:0:
438,184,60465,1,8,0:0:0:0:
388,168,60683,1,0,0:0:0:0:
331,151,60900,1,8,0:0:0:0:
491,194,61118,1,8,0:0:0:0:
467,187,61335,1,0,0:0:0:0:
280,207,61552,1,0,0:0:0:0:
491,194,61770,1,8,0:0:0:0:
491,194,61987,1,0,0:0:0:0:
423,164,62205,1,8,0:0:0:0:
349,220,62857,5,0,0:0:0:0:
349,220,63074,1,12,0:0:0:0:
301,139,63400,1,8,0:0:0:0:
301,139,63726,1,0,0:0:0:0:
301,139,63944,1,8,0:0:0:0:
301,139,64270,1,8,0:0:0:0:
301,139,64596,1,0,0:0:0:0:
301,139,64813,1,8,0:0:0:0:
301,139,65139,1,8,0:0:0:0:
301,139,65465,1,0,0:0:0:0:
301,139,65683,1,8,0:0:0:0:
301,139,65900,1,8,0:0:0:0:
301,139,66118,1,0,0:0:0:0:
403,258,66335,1,0,0:0:0:0:
403,258,66444,1,0,0:0:0:0:
301,139,66552,1,0,0:0:0:0:
485,200,67205,1,8,0:0:0:0:
461,191,67313,1,8,0:0:0:0:
438,184,67422,1,8,0:0:0:0:
388,168,67639,1,0,0:0:0:0:
331,151,67857,1,0,0:0:0:0:
266,135,68074,1,8,0:0:0:0:
467,187,68292,1,0,0:0:0:0:
491,194,68618,1,8,0:0:0:0:
423,164,68944,1,8,0:0:0:0:
491,194,69161,1,0,0:0:0:0:
432,170,69379,1,0,0:0:0:0:
365,143,69596,1,8,0:0:0:0:
247,88,69813,1,8,0:0:0:0:
477,57,70031,5,4,0:0:0:0:
349,220,70683,1,0,0:0:0:0:
349,220,70900,1,8,0:0:0:0:
301,139,71226,1,8,0:0:0:0:
301,139,71552,1,0,0:0:0:0:
301,139,71770,1,8,0:0:0:0:
301,139,71987,1,8,0:0:0:0:
366,213,72205,1,0,0:0:0:0:
301,139,72422,1,0,0:0:0:0:
301,139,72639,1,8,0:0:0:0:
266,130,72748,1,8,0:0:0:0:
266,130,72857,1,8,0:0:0:0:
394,245,73074,1,0,0:0:0:0:
376,225,73183,1,0,0:0:0:0:
357,204,73292,1,0,0:0:0:0:
410,158,73509,1,12,0:0:0:0:
244,158,73835,1,12,0:0:0:0:
406,161,74161,1,12,0:0:0:0:
458,117,74379,1,12,0:0:0:0:
465,141,74813,1,12,0:0:0:0:
465,141,75248,1,4,0:0:0:0:
321,145,75900,1,8,0:0:0:0:
321,145,76118,1,0,0:0:0:0:
104,141,76335,1,8,0:0:0:0:
330,177,76552,1,0,0:0:0:0:
330,177,76661,1,0,0:0:0:0:
330,177,76770,1,0,0:0:0:0:
374,82,76987,5,4,0:0:0:0:
304,176,77313,1,8,0:0:0:0:
434,154,77639,1,0,0:0:0:0:
208,58,77857,1,0,0:0:0:0:
434,154,78074,1,8,0:0:0:0:
434,154,78292,1,0,0:0:0:0:
327,130,78726,1,8,0:0:0:0:
202,101,79052,1,8,0:0:0:0:
327,130,79379,1,0,0:0:0:0:
389,152,79596,1,8,0:0:0:0:
360,146,79813,1,8,0:0:0:0:
360,146,80031,1,0,0:0:0:0:
360,146,80465,5,8,0:0:0:0:
275,106,80792,1,8,0:0:0:0:
306,197,81118,1,0,0:0:0:0:
227,96,81552,1,0,0:0:0:0:
227,96,81770,1,0,0:0:0:0:
227,96,81987,1,8,0:0:0:0:
287,140,82205,1,8,0:0:0:0:
366,197,82531,1,0,0:0:0:0:
366,197,82857,1,8,0:0:0:0:
366,197,82965,1,8,0:0:0:0:
366,197,83074,1,8,0:0:0:0:
374,82,83944,5,4,0:0:0:0:
434,154,84270,1,8,0:0:0:0:
434,154,84596,1,0,0:0:0:0:
434,154,84813,1,8,0:0:0:0:
434,154,85031,1,8,0:0:0:0:
434,154,85248,1,0,0:0:0:0:
327,130,85683,1,0,0:0:0:0:
202,101,86009,1,8,0:0:0:0:
327,130,86335,1,0,0:0:0:0:
389,152,86552,1,8,0:0:0:0:
360,146,86770,1,0,0:0:0:0:
360,146,86987,1,0,0:0:0:0:
360,146,87422,5,8,0:0:0:0:
275,106,87748,1,8,0:0:0:0:
306,197,88074,1,0,0:0:0:0:
227,96,88509,1,0,0:0:0:0:
239,113,88618,1,0,0:0:0:0:
227,96,88726,1,0,0:0:0:0:
227,96,88944,1,8,0:0:0:0:
287,140,89161,1,8,0:0:0:0:
366,197,89379,1,8,0:0:0:0:
297,179,89596,1,0,0:0:0:0:
366,197,90031,1,8,0:0:0:0:
366,197,90139,1,8,0:0:0:0:
366,197,90248,1,8,0:0:0:0:
249,119,90465,1,0,0:0:0:0:
213,130,90574,1,0,0:0:0:0:
213,130,90683,1,0,0:0:0:0:
336,15,90900,5,0,0:0:0:0:
365,133,91118,1,8,0:0:0:0:
365,133,91552,1,8,0:0:0:0:
365,133,91987,1,8,0:0:0:0:
307,155,92205,1,0,0:0:0:0:
282,285,92422,1,0,0:0:0:0:
355,135,92639,1,12,0:0:0:0:
382,230,92857,1,12,0:0:0:0:
355,135,93074,1,12,0:0:0:0:
355,135,93292,1,12,0:0:0:0:
355,135,93509,1,12,0:0:0:0:
