osu file format v14

[General]
AudioFilename: audio.mp3
AudioLeadIn: 0
PreviewTime: 7368
Countdown: 0
SampleSet: Normal
StackLeniency: 0.7
Mode: 1
LetterboxInBreaks: 0
EpilepsyWarning: 1
WidescreenStoryboard: 1

[Editor]
DistanceSpacing: 1
BeatDivisor: 2
GridSize: 32
TimelineZoom: 1

[Metadata]
Title:Kirameki*Chocolaterie
TitleUnicode:きらめき*Chocolaterie
Artist:KyoKa
ArtistUnicode:KyoKa
Creator:Hoshikuz
Version:Kantan
Source:あまいろショコラータ
Tags:きゃべつそふと Cabbage Soft chocolate my favorite kemomimi adventure あまショコ Amachoco eroge Amairo Chocolata op opening short ver. version visual novel japanese video game jpop j-pop 藤井稿太郎 koutarou fujii みう MusikMagie 原瀬今日香 harase kyouka R-18 MetalStream Peaceful Sanjenin Nagi Konpaku Sariel [R] Ron sb storyboard
BeatmapID:2368350
BeatmapSetID:1111182

[Difficulty]
HPDrainRate:8
CircleSize:4
OverallDifficulty:3
ApproachRate:8
SliderMultiplier:1.4
SliderTickRate:1

[Events]
//Background and Video events
0,0,"ev201c.jpg",0,170
//Break Periods
//Storyboard Layer 0 (Background)
//Storyboard Layer 1 (Fail)
//Storyboard Layer 2 (Pass)
//Storyboard Layer 3 (Foreground)
//Storyboard Layer 4 (Overlay)
//Storyboard Sound Samples

[TimingPoints]
466,434.782608695652,4,1,0,50,1,0
3944,-100,4,1,0,60,0,0
5683,-100,4,1,0,70,0,0
7422,-100,4,1,0,80,0,0
24379,-100,4,1,0,70,0,0
31770,-100,4,1,0,80,0,0
38726,-100,4,1,0,70,0,0
45683,-100,4,1,0,80,0,0
52639,-100,4,1,0,85,0,0
56118,-100,4,1,0,90,0,1
76987,-100,4,1,0,80,0,0
93944,-100,4,1,0,70,0,0

[HitObjects]
256,192,466,12,0,3074,0:0:0:0:
288,224,3944,5,12,0:0:0:0:
224,224,4813,1,4,0:0:0:0:
288,160,5683,1,8,0:0:0:0:
288,160,6118,1,8,0:0:0:0:
224,160,6552,1,0,0:0:0:0:
224,224,7422,1,4,0:0:0:0:
288,160,8292,1,8,0:0:0:0:
224,160,8726,1,0,0:0:0:0:
288,160,9161,1,8,0:0:0:0:
288,160,10031,1,8,0:0:0:0:
224,160,10465,1,0,0:0:0:0:
224,160,10900,1,0,0:0:0:0:
224,160,12205,1,0,0:0:0:0:
288,160,12639,1,8,0:0:0:0:
224,160,13509,1,0,0:0:0:0:
288,224,14379,1,12,0:0:0:0:
288,160,15248,1,8,0:0:0:0:
224,160,15683,1,0,0:0:0:0:
288,160,16118,1,8,0:0:0:0:
288,160,16987,1,8,0:0:0:0:
224,160,17422,1,0,0:0:0:0:
224,160,17857,1,0,0:0:0:0:
224,160,19161,1,0,0:0:0:0:
288,160,19596,1,8,0:0:0:0:
288,160,20465,1,8,0:0:0:0:
288,160,20900,1,8,0:0:0:0:
224,160,21335,1,0,0:0:0:0:
288,224,23074,1,12,0:0:0:0:
288,224,23509,1,12,0:0:0:0:
288,224,23944,1,12,0:0:0:0:
224,160,24813,1,0,0:0:0:0:
224,160,25683,1,0,0:0:0:0:
288,160,26118,1,8,0:0:0:0:
224,160,26552,1,0,0:0:0:0:
288,160,27422,1,8,0:0:0:0:
288,160,27857,1,8,0:0:0:0:
224,160,28292,1,0,0:0:0:0:
224,160,29161,1,0,0:0:0:0:
288,160,30031,1,8,0:0:0:0:
288,160,31335,1,8,0:0:0:0:
224,224,31770,1,4,0:0:0:0:
288,160,32639,1,8,0:0:0:0:
288,160,33509,1,8,0:0:0:0:
288,160,33944,1,8,0:0:0:0:
224,160,34379,1,0,0:0:0:0:
288,160,35248,1,8,0:0:0:0:
288,160,36118,1,8,0:0:0:0:
224,160,36987,1,0,0:0:0:0:
224,160,37422,1,0,0:0:0:0:
288,160,37857,1,8,0:0:0:0:
224,224,38726,1,4,0:0:0:0:
288,160,39596,1,8,0:0:0:0:
224,160,40465,1,0,0:0:0:0:
288,160,40900,1,8,0:0:0:0:
288,160,41335,1,8,0:0:0:0:
224,160,42205,1,0,0:0:0:0:
288,160,43074,1,8,0:0:0:0:
224,160,43944,1,0,0:0:0:0:
288,160,44379,1,8,0:0:0:0:
224,224,45683,1,4,0:0:0:0:
288,160,46552,1,8,0:0:0:0:
288,160,47422,1,8,0:0:0:0:
224,160,47857,1,0,0:0:0:0:
288,160,48292,1,8,0:0:0:0:
224,224,49161,1,4,0:0:0:0:
288,160,50031,1,8,0:0:0:0:
224,224,50900,1,4,0:0:0:0:
224,160,51770,1,0,0:0:0:0:
288,160,52205,1,8,0:0:0:0:
288,224,52639,1,12,0:0:0:0:
288,224,53509,1,12,0:0:0:0:
224,224,54379,1,4,0:0:0:0:
288,224,56118,1,12,0:0:0:0:
288,160,56987,1,8,0:0:0:0:
288,160,57857,1,8,0:0:0:0:
224,160,58726,1,0,0:0:0:0:
288,160,59161,1,8,0:0:0:0:
224,160,59596,1,0,0:0:0:0:
224,160,60465,1,0,0:0:0:0:
224,160,60900,1,0,0:0:0:0:
288,160,61335,1,8,0:0:0:0:
288,160,61770,1,8,0:0:0:0:
288,160,62205,1,8,0:0:0:0:
288,224,63074,1,12,0:0:0:0:
288,160,63944,1,8,0:0:0:0:
288,160,64813,1,8,0:0:0:0:
288,160,65683,1,8,0:0:0:0:
288,160,66118,1,8,0:0:0:0:
224,160,66552,1,0,0:0:0:0:
224,160,67422,1,0,0:0:0:0:
224,160,67857,1,0,0:0:0:0:
288,160,68292,1,8,0:0:0:0:
224,160,69161,1,0,0:0:0:0:
224,160,69596,1,0,0:0:0:0:
224,224,70031,1,4,0:0:0:0:
288,160,70900,1,8,0:0:0:0:
224,160,71770,1,0,0:0:0:0:
224,160,72205,1,0,0:0:0:0:
288,160,72639,1,8,0:0:0:0:
288,160,73509,1,8,0:0:0:0:
224,160,74379,1,0,0:0:0:0:
288,160,74813,1,8,0:0:0:0:
224,160,75248,1,0,0:0:0:0:
224,224,76987,1,4,0:0:0:0:
288,160,77857,1,8,0:0:0:0:
224,160,78292,1,0,0:0:0:0:
288,160,78726,1,8,0:0:0:0:
288,160,79596,1,8,0:0:0:0:
224,160,80031,1,0,0:0:0:0:
224,160,80465,1,0,0:0:0:0:
224,160,81770,1,0,0:0:0:0:
288,160,82205,1,8,0:0:0:0:
224,160,83074,1,0,0:0:0:0:
288,224,83944,1,12,0:0:0:0:
288,160,84813,1,8,0:0:0:0:
224,160,85248,1,0,0:0:0:0:
288,160,85683,1,8,0:0:0:0:
288,160,86552,1,8,0:0:0:0:
224,160,86987,1,0,0:0:0:0:
224,160,87422,1,0,0:0:0:0:
224,160,88726,1,0,0:0:0:0:
288,160,89161,1,8,0:0:0:0:
288,160,90031,1,8,0:0:0:0:
288,160,90465,1,8,0:0:0:0:
224,160,90900,1,0,0:0:0:0:
288,224,92639,1,12,0:0:0:0:
288,224,93074,1,12,0:0:0:0:
288,224,93509,1,12,0:0:0:0:
