osu file format v14

[General]
AudioFilename: audio.mp3
AudioLeadIn: 0
PreviewTime: 57354
Countdown: 0
SampleSet: Normal
StackLeniency: 0.7
Mode: 1
LetterboxInBreaks: 0
WidescreenStoryboard: 1

[Editor]
Bookmarks: 6011,11497,22468,33440,44411,49897,69097
DistanceSpacing: 1
BeatDivisor: 2
GridSize: 32
TimelineZoom: 0.7999997

[Metadata]
Title:Yumemi Hanabira 1chorus Ver.
TitleUnicode:夢見ハナビラ 1chorus Ver.
Artist:KyoKa
ArtistUnicode:KyoKa
Creator:[-E S I A-]
Version:arc's Futsuu
Source:さくらの雲*スカアレットの恋
Tags:Version Eroge Cabbage Soft A love in Sacra & Scarlet Sakura no Kumo * Scarlet no Koi Sakuretto さくレット SakuKumo galgame visual novel vn opening op video game japanese j-pop jpop pop videogame female vocals vocalist [r] Ron bigh bighzonda arcpotato gaston_2199 E_S_I_A [-E_S_I_A-] ESIA [-ESIA-]
BeatmapID:3882844
BeatmapSetID:1883852

[Difficulty]
HPDrainRate:7
CircleSize:2
OverallDifficulty:4
ApproachRate:10
SliderMultiplier:1.4
SliderTickRate:1

[Events]
//Background and Video events
0,0,"f.jpg",0,50
//Break Periods
//Storyboard Layer 0 (Background)
//Storyboard Layer 1 (Fail)
//Storyboard Layer 2 (Pass)
//Storyboard Layer 3 (Foreground)
//Storyboard Layer 4 (Overlay)
//Storyboard Sound Samples

[TimingPoints]
526,352.941176470588,4,1,0,60,1,0
526,-97.143967359627,4,1,0,60,0,0
1917,342.857142857143,4,1,0,60,1,0
3268,342.857142857143,4,1,0,60,1,0
6010,342.857142857143,4,1,0,70,1,0
11411,-100,4,1,0,80,0,0
22411,-100,4,1,0,60,0,0
33354,-100,4,1,0,70,0,0
44368,-100,4,1,0,75,0,0
49811,-100,4,1,0,80,0,0
55383,-100,4,1,0,80,0,0
58040,-100,4,1,0,90,0,0
58124,-100,4,1,0,90,0,1
79983,-100,4,1,0,80,0,1
80067,-100,4,1,0,80,0,0

[HitObjects]
256,192,526,5,0,0:0:0:0:
256,192,1231,1,8,0:0:0:0:
256,192,1917,1,0,0:0:0:0:
256,192,2259,1,0,0:0:0:0:
256,192,2602,1,8,0:0:0:0:
256,192,3268,1,0,0:0:0:0:
256,192,3953,1,8,0:0:0:0:
256,192,4639,1,0,0:0:0:0:
256,192,6010,1,12,0:0:0:0:
256,192,6352,1,0,0:0:0:0:
256,192,6524,1,8,0:0:0:0:
256,192,6695,1,0,0:0:0:0:
256,192,7038,1,0,0:0:0:0:
256,192,7381,1,8,0:0:0:0:
256,192,7724,1,8,0:0:0:0:
256,192,7895,1,8,0:0:0:0:
256,192,8067,1,0,0:0:0:0:
256,192,8238,1,0,0:0:0:0:
256,192,8410,1,8,0:0:0:0:
256,192,8752,1,4,0:0:0:0:
256,192,9267,1,12,0:0:0:0:
256,192,9781,1,4,0:0:0:0:
256,192,10124,1,12,0:0:0:0:
256,192,10981,1,0,0:0:0:0:
256,192,11152,1,8,0:0:0:0:
256,192,11324,1,0,0:0:0:0:
256,192,11495,1,12,0:0:0:0:
256,192,11838,1,0,0:0:0:0:
256,192,12181,1,8,0:0:0:0:
256,192,12524,1,0,0:0:0:0:
256,192,12695,1,8,0:0:0:0:
256,192,13038,1,0,0:0:0:0:
256,192,13210,1,8,0:0:0:0:
256,192,13381,1,8,0:0:0:0:
256,192,13552,1,0,0:0:0:0:
256,192,13895,1,8,0:0:0:0:
256,192,14238,1,0,0:0:0:0:
256,192,14581,1,8,0:0:0:0:
256,192,14752,1,0,0:0:0:0:
256,192,15095,1,8,0:0:0:0:
256,192,15438,1,4,0:0:0:0:
256,192,16981,1,12,0:0:0:0:
256,192,17324,1,0,0:0:0:0:
256,192,17667,1,8,0:0:0:0:
256,160,17838,1,8,0:0:0:0:
256,192,18010,1,0,0:0:0:0:
256,192,18181,1,8,0:0:0:0:
256,192,19038,1,8,0:0:0:0:
256,192,19724,1,12,0:0:0:0:
256,192,20067,1,0,0:0:0:0:
256,192,20410,1,8,0:0:0:0:
256,192,20581,1,8,0:0:0:0:
256,192,20924,1,0,0:0:0:0:
256,192,21267,1,0,0:0:0:0:
256,192,21438,1,8,0:0:0:0:
256,160,21781,1,0,0:0:0:0:
256,160,22124,1,8,0:0:0:0:
256,192,22295,1,8,0:0:0:0:
256,192,22467,1,0,0:0:0:0:
256,160,23152,1,0,0:0:0:0:
256,160,23838,1,8,0:0:0:0:
256,160,24352,1,0,0:0:0:0:
256,160,24524,1,8,0:0:0:0:
256,192,24867,1,8,0:0:0:0:
256,160,25210,1,0,0:0:0:0:
256,160,25895,1,8,0:0:0:0:
256,192,26581,1,0,0:0:0:0:
256,192,26924,1,0,0:0:0:0:
256,192,27095,1,0,0:0:0:0:
256,192,27267,1,8,0:0:0:0:
256,192,27610,1,0,0:0:0:0:
256,192,27952,1,8,0:0:0:0:
288,192,28981,1,0,0:0:0:0:
288,192,29324,1,8,0:0:0:0:
288,224,29667,1,8,0:0:0:0:
288,192,30010,1,0,0:0:0:0:
288,192,30352,1,8,0:0:0:0:
288,224,30695,1,0,0:0:0:0:
256,192,32067,1,8,0:0:0:0:
288,192,32581,1,8,0:0:0:0:
256,192,32752,1,0,0:0:0:0:
288,192,32924,1,0,0:0:0:0:
288,192,33095,1,8,0:0:0:0:
256,192,33438,1,8,0:0:0:0:
256,192,33781,1,8,0:0:0:0:
256,192,34124,1,0,0:0:0:0:
256,192,34467,1,0,0:0:0:0:
288,192,34638,1,0,0:0:0:0:
256,192,34810,1,8,0:0:0:0:
256,192,35152,1,0,0:0:0:0:
256,192,35495,1,8,0:0:0:0:
288,192,35838,1,8,0:0:0:0:
288,192,36181,1,0,0:0:0:0:
288,192,36524,1,0,0:0:0:0:
288,192,36695,1,8,0:0:0:0:
288,192,37210,1,0,0:0:0:0:
288,192,37552,1,8,0:0:0:0:
288,224,37724,1,0,0:0:0:0:
288,192,37895,1,8,0:0:0:0:
288,192,38238,1,8,0:0:0:0:
288,192,38581,1,8,0:0:0:0:
288,192,38924,1,0,0:0:0:0:
288,192,39267,1,8,0:0:0:0:
288,192,39952,1,8,0:0:0:0:
288,192,40295,1,0,0:0:0:0:
288,192,40467,1,0,0:0:0:0:
288,192,40638,1,8,0:0:0:0:
320,192,40981,1,0,0:0:0:0:
320,192,41324,1,8,0:0:0:0:
320,192,41667,1,4,0:0:0:0:
320,192,42010,1,8,0:0:0:0:
320,192,42181,1,4,0:0:0:0:
320,224,42524,1,12,0:0:0:0:
288,192,42867,1,4,0:0:0:0:
320,192,43210,1,0,0:0:0:0:
320,192,43381,1,0,0:0:0:0:
320,192,43552,1,0,0:0:0:0:
320,192,43724,1,8,0:0:0:0:
320,192,44067,1,0,0:0:0:0:
320,192,44410,1,12,0:0:0:0:
320,192,44581,1,12,0:0:0:0:
320,192,45438,1,4,0:0:0:0:
320,192,45610,1,4,0:0:0:0:
320,192,45952,1,8,0:0:0:0:
320,192,46124,1,0,0:0:0:0:
320,192,46467,1,0,0:0:0:0:
320,192,46638,1,0,0:0:0:0:
320,192,46810,1,8,0:0:0:0:
320,192,47152,1,4,0:0:0:0:
288,192,47324,1,4,0:0:0:0:
288,192,48181,1,12,0:0:0:0:
288,192,48352,1,12,0:0:0:0:
256,192,48695,1,0,0:0:0:0:
288,192,48867,1,8,0:0:0:0:
256,192,49210,1,0,0:0:0:0:
256,192,49381,1,0,0:0:0:0:
288,192,49552,1,12,0:0:0:0:
288,192,49895,1,8,0:0:0:0:
256,192,50238,1,0,0:0:0:0:
288,192,50410,1,0,0:0:0:0:
256,192,50581,1,8,0:0:0:0:
256,192,51095,1,8,0:0:0:0:
288,192,51267,1,4,0:0:0:0:
288,192,51610,1,0,0:0:0:0:
288,192,51781,1,0,0:0:0:0:
288,192,51952,1,8,0:0:0:0:
288,192,52124,1,0,0:0:0:0:
288,192,52295,1,8,0:0:0:0:
288,192,52638,1,12,0:0:0:0:
288,192,52981,1,0,0:0:0:0:
288,192,53152,1,0,0:0:0:0:
288,192,53324,1,8,0:0:0:0:
288,192,54010,1,8,0:0:0:0:
288,192,54352,1,8,0:0:0:0:
288,192,54524,1,0,0:0:0:0:
288,192,54695,1,8,0:0:0:0:
288,192,55038,1,0,0:0:0:0:
288,192,55210,1,0,0:0:0:0:
288,192,55381,1,12,0:0:0:0:
288,192,55724,1,0,0:0:0:0:
288,192,55895,1,8,0:0:0:0:
288,192,56067,1,0,0:0:0:0:
288,192,56238,1,8,0:0:0:0:
288,192,56410,1,8,0:0:0:0:
288,192,56581,1,0,0:0:0:0:
288,192,56924,1,0,0:0:0:0:
288,192,57095,1,0,0:0:0:0:
288,192,57267,1,8,0:0:0:0:
256,160,58124,1,4,0:0:0:0:
256,192,58810,1,8,0:0:0:0:
256,192,59324,1,0,0:0:0:0:
256,192,59495,1,8,0:0:0:0:
279,191,59838,1,0,0:0:0:0:
256,192,60181,1,8,0:0:0:0:
288,160,60352,1,0,0:0:0:0:
288,192,60524,1,8,0:0:0:0:
290,179,60867,1,0,0:0:0:0:
256,160,61210,1,8,0:0:0:0:
256,160,61381,1,8,0:0:0:0:
256,160,61552,1,0,0:0:0:0:
290,179,61724,1,0,0:0:0:0:
288,160,61895,1,8,0:0:0:0:
288,160,62238,1,0,0:0:0:0:
288,160,62924,1,0,0:0:0:0:
288,160,63095,1,0,0:0:0:0:
288,160,63267,1,8,0:0:0:0:
288,160,63610,1,0,0:0:0:0:
288,160,63952,1,8,0:0:0:0:
288,160,64124,1,8,0:0:0:0:
288,160,64638,1,8,0:0:0:0:
288,160,64981,1,0,0:0:0:0:
256,192,65324,1,8,0:0:0:0:
256,192,65495,1,0,0:0:0:0:
256,192,65667,1,8,0:0:0:0:
288,192,66010,1,0,0:0:0:0:
288,192,66352,1,0,0:0:0:0:
256,192,66524,1,8,0:0:0:0:
256,192,66695,1,8,0:0:0:0:
256,192,67038,1,8,0:0:0:0:
274,198,67210,1,0,0:0:0:0:
311,205,67381,1,8,0:0:0:0:
256,192,67724,1,0,0:0:0:0:
256,192,67895,1,0,0:0:0:0:
256,192,68067,1,8,0:0:0:0:
256,192,68238,1,0,0:0:0:0:
256,192,68410,1,8,0:0:0:0:
256,192,68752,1,0,0:0:0:0:
256,192,69095,1,12,0:0:0:0:
256,192,69781,1,8,0:0:0:0:
256,192,70295,1,8,0:0:0:0:
256,192,70467,1,0,0:0:0:0:
256,192,70810,1,8,0:0:0:0:
256,192,71152,1,0,0:0:0:0:
256,192,71324,1,0,0:0:0:0:
256,192,71495,1,8,0:0:0:0:
256,192,71838,1,0,0:0:0:0:
256,192,72181,1,8,0:0:0:0:
256,192,72352,1,8,0:0:0:0:
256,192,72524,1,0,0:0:0:0:
256,192,72867,1,8,0:0:0:0:
256,192,73210,1,0,0:0:0:0:
256,192,73895,1,8,0:0:0:0:
256,192,74067,1,0,0:0:0:0:
256,192,74238,1,8,0:0:0:0:
256,192,74581,1,4,0:0:0:0:
256,192,74924,1,8,0:0:0:0:
256,192,75095,1,0,0:0:0:0:
256,192,75610,1,8,0:0:0:0:
256,192,75952,1,4,0:0:0:0:
256,192,76295,1,8,0:0:0:0:
256,192,76467,1,0,0:0:0:0:
256,192,76638,1,8,0:0:0:0:
256,192,76981,1,8,0:0:0:0:
256,192,77152,1,8,0:0:0:0:
256,192,77324,1,4,0:0:0:0:
256,192,77667,1,8,0:0:0:0:
256,192,78010,1,0,0:0:0:0:
256,192,78181,1,0,0:0:0:0:
256,192,78352,1,8,0:0:0:0:
279,206,78524,1,8,0:0:0:0:
256,192,78695,1,4,0:0:0:0:
256,192,79381,1,8,0:0:0:0:
256,192,80067,1,0,0:0:0:0:
256,192,80410,1,8,0:0:0:0:
256,192,80752,1,0,0:0:0:0:
256,192,81095,1,8,0:0:0:0:
256,192,81267,1,0,0:0:0:0:
256,192,81610,1,8,0:0:0:0:
256,192,81781,1,0,0:0:0:0:
256,192,81952,1,0,0:0:0:0:
256,192,82124,1,8,0:0:0:0:
256,192,82467,1,0,0:0:0:0:
256,192,82810,1,8,0:0:0:0:
256,192,83152,1,0,0:0:0:0:
256,192,83324,1,8,0:0:0:0:
256,192,83667,1,8,0:0:0:0:
256,192,84010,1,0,0:0:0:0:
256,192,85552,1,4,0:0:0:0:
256,192,85895,1,8,0:0:0:0:
256,192,86067,1,8,0:0:0:0:
288,192,86238,1,0,0:0:0:0:
288,192,86581,1,8,0:0:0:0:
288,192,86752,1,0,0:0:0:0:
288,192,87610,1,8,0:0:0:0:
288,192,87952,1,0,0:0:0:0:
288,192,88295,1,12,0:0:0:0:
288,192,88638,1,0,0:0:0:0:
288,192,88981,1,8,0:0:0:0:
288,192,89152,1,0,0:0:0:0:
288,160,89495,1,12,0:0:0:0:
288,160,89838,1,0,0:0:0:0:
288,160,90010,1,0,0:0:0:0:
288,160,90181,1,0,0:0:0:0:
288,160,90352,1,8,0:0:0:0:
188,226,90524,1,0,0:0:0:0:
288,160,90695,1,0,0:0:0:0:
288,160,90867,1,8,0:0:0:0:
