osu file format v14

[General]
AudioFilename: audio.mp3
AudioLeadIn: 0
PreviewTime: 57354
Countdown: 0
SampleSet: Normal
StackLeniency: 0.7
Mode: 1
LetterboxInBreaks: 0
WidescreenStoryboard: 0

[Editor]
Bookmarks: 6011,11497,22468,33440,44411,49897,55552,69097
DistanceSpacing: 0.9
BeatDivisor: 4
GridSize: 8
TimelineZoom: 1.8

[Metadata]
Title:Yumemi Hanabira 1chorus Ver.
TitleUnicode:夢見ハナビラ 1chorus Ver.
Artist:KyoKa
ArtistUnicode:KyoKa
Creator:[-E S I A-]
Version:Sakura Oni
Source:さくらの雲*スカアレットの恋
Tags:Version Eroge Cabbage Soft A love in Sacra & Scarlet Sakura no Kumo * Scarlet no Koi Sakuretto さくレット SakuKumo galgame visual novel vn opening op video game japanese j-pop jpop pop videogame female vocals vocalist [r] Ron bigh bighzonda arcpotato gaston_2199 E_S_I_A [-E_S_I_A-] ESIA [-ESIA-]
BeatmapID:3878546
BeatmapSetID:1883852

[Difficulty]
HPDrainRate:6
CircleSize:2
OverallDifficulty:6
ApproachRate:10
SliderMultiplier:1.4
SliderTickRate:1

[Events]
//Background and Video events
0,0,"i.jpg",0,80
//Break Periods
//Storyboard Layer 0 (Background)
//Storyboard Layer 1 (Fail)
//Storyboard Layer 2 (Pass)
//Storyboard Layer 3 (Foreground)
//Storyboard Layer 4 (Overlay)
//Storyboard Sound Samples

[TimingPoints]
526,352.941176470588,4,1,0,60,1,0
526,-121.951219512195,4,1,0,60,0,0
1917,342.857142857143,4,1,0,60,1,0
1917,-125,4,1,0,60,0,0
3268,342.857142857143,4,1,0,60,1,0
3268,-125,4,1,0,60,0,0
4554,-121.951219512195,4,1,0,60,0,0
4897,-119.047619047619,4,1,0,60,0,0
5240,-116.279069767442,4,1,0,60,0,0
5583,-113.636363636364,4,1,0,60,0,0
6010,342.857142857143,4,1,0,70,1,0
6010,-111.111111111111,4,1,0,70,0,0
8668,-100,4,1,0,70,0,0
10040,-95.2380952380952,4,1,0,70,0,0
10897,-109.89010989011,4,1,0,70,0,0
11068,-106.382978723404,4,1,0,70,0,0
11240,-103.092783505155,4,1,0,70,0,0
11411,-100,4,1,0,80,0,0
21911,-101.010101010101,4,1,0,80,0,0
22083,-102.040816326531,4,1,0,80,0,0
22168,-104.166666666667,4,1,0,80,0,0
22254,-106.382978723404,4,1,0,80,0,0
22340,-108.695652173913,4,1,0,80,0,0
22411,-111.111111111111,4,1,0,60,0,0
32668,-109.89010989011,4,1,0,60,0,0
32840,-108.695652173913,4,1,0,60,0,0
33011,-107.52688172043,4,1,0,60,0,0
33183,-106.382978723404,4,1,0,60,0,0
33354,-105.263157894737,4,1,0,70,0,0
38754,-100,4,1,0,70,0,0
44368,-100,4,1,0,75,0,0
49811,-100,4,1,0,80,0,0
58040,-95.2380952380952,4,1,0,90,0,0
58124,-95.2380952380952,4,1,0,90,0,1
66440,-90.9090909090909,4,1,0,90,0,1
66954,-95.2380952380952,4,1,0,90,0,1
67126,-90.9090909090909,4,1,0,90,0,1
67640,-111.111111111111,4,1,0,90,0,1
67854,-108.695652173913,4,1,0,90,0,1
68026,-106.382978723404,4,1,0,90,0,1
68197,-104.166666666667,4,1,0,90,0,1
68368,-103.092783505155,4,1,0,90,0,1
68454,-102.040816326531,4,1,0,90,0,1
68540,-101.010101010101,4,1,0,90,0,1
68626,-100,4,1,0,90,0,1
68711,-99.009900990099,4,1,0,90,0,1
68797,-98.0392156862745,4,1,0,90,0,1
68883,-97.0873786407767,4,1,0,90,0,1
68968,-96.1538461538461,4,1,0,90,0,1
69054,-95.2380952380952,4,1,0,90,0,1
79983,-100,4,1,0,80,0,1
80067,-100,4,1,0,80,0,0

[HitObjects]
351,103,526,5,8,0:0:0:0:
271,341,1231,1,0,0:0:0:0:
310,95,1917,1,8,0:0:0:0:
242,201,2259,1,8,0:0:0:0:
359,187,2602,1,0,0:0:0:0:
359,187,2945,1,0,0:0:0:0:
233,196,3268,1,8,0:0:0:0:
355,223,3610,1,0,0:0:0:0:
311,177,3782,1,8,0:0:0:0:
355,223,3953,1,0,0:0:0:0:
251,184,4296,1,0,0:0:0:0:
132,140,4639,1,8,0:0:0:0:
253,174,4982,1,0,0:0:0:0:
350,189,5325,1,8,0:0:0:0:
262,286,5668,1,8,0:0:0:0:
320,182,6010,5,4,0:0:0:0:
236,265,6352,1,0,0:0:0:0:
326,241,6524,1,0,0:0:0:0:
313,189,6695,1,8,0:0:0:0:
230,271,6867,1,8,0:0:0:0:
326,241,7038,1,0,0:0:0:0:
317,185,7210,1,8,0:0:0:0:
326,241,7381,1,0,0:0:0:0:
233,268,7724,1,8,0:0:0:0:
315,187,7895,1,8,0:0:0:0:
283,229,8067,1,0,0:0:0:0:
231,270,8238,1,0,0:0:0:0:
386,161,8410,1,8,0:0:0:0:
288,244,8581,1,0,0:0:0:0:
315,187,8752,1,12,0:0:0:0:
251,190,8924,1,0,0:0:0:0:
227,274,9010,1,0,0:0:0:0:
220,191,9095,1,0,0:0:0:0:
246,249,9181,1,0,0:0:0:0:
315,187,9267,1,8,0:0:0:0:
314,188,9438,1,0,0:0:0:0:
251,190,9524,1,0,0:0:0:0:
251,190,9610,1,0,0:0:0:0:
286,209,9695,1,0,0:0:0:0:
251,190,9781,1,8,0:0:0:0:
286,249,9952,1,0,0:0:0:0:
315,187,10124,1,12,0:0:0:0:
315,187,10295,1,12,0:0:0:0:
314,188,10467,1,12,0:0:0:0:
315,187,10638,1,12,0:0:0:0:
224,290,10981,1,0,0:0:0:0:
232,195,11152,1,8,0:0:0:0:
232,195,11324,1,8,0:0:0:0:
272,243,11495,1,4,0:0:0:0:
328,128,11838,1,8,0:0:0:0:
280,168,12010,1,0,0:0:0:0:
344,168,12181,1,8,0:0:0:0:
376,176,12267,1,8,0:0:0:0:
344,176,12352,1,0,0:0:0:0:
280,176,12524,1,0,0:0:0:0:
296,112,12695,1,8,0:0:0:0:
344,168,13038,1,8,0:0:0:0:
424,248,13210,1,0,0:0:0:0:
385,244,13295,1,0,0:0:0:0:
368,235,13381,1,0,0:0:0:0:
341,222,13552,1,8,0:0:0:0:
337,152,13724,1,0,0:0:0:0:
337,230,13810,1,0,0:0:0:0:
336,184,13895,1,8,0:0:0:0:
336,248,13981,1,8,0:0:0:0:
336,184,14067,1,0,0:0:0:0:
336,184,14238,1,12,0:0:0:0:
336,248,14581,1,0,0:0:0:0:
272,248,14752,1,8,0:0:0:0:
272,248,15095,1,8,0:0:0:0:
272,248,15267,1,0,0:0:0:0:
272,248,15438,1,12,0:0:0:0:
320,184,15781,1,8,0:0:0:0:
344,120,15952,1,0,0:0:0:0:
336,136,16038,1,0,0:0:0:0:
360,184,16124,1,0,0:0:0:0:
360,208,16210,1,0,0:0:0:0:
416,192,16295,1,8,0:0:0:0:
336,248,16467,1,8,0:0:0:0:
368,240,16552,1,0,0:0:0:0:
360,208,16638,1,8,0:0:0:0:
320,184,16724,1,8,0:0:0:0:
480,192,16810,1,0,0:0:0:0:
416,192,16895,1,0,0:0:0:0:
416,192,16981,1,12,0:0:0:0:
328,128,17324,1,8,0:0:0:0:
280,168,17495,1,0,0:0:0:0:
344,168,17667,1,8,0:0:0:0:
376,176,17752,1,8,0:0:0:0:
344,176,17838,1,0,0:0:0:0:
280,176,18010,1,0,0:0:0:0:
296,112,18181,1,8,0:0:0:0:
344,168,18524,1,8,0:0:0:0:
424,248,18695,1,0,0:0:0:0:
325,192,18781,1,0,0:0:0:0:
400,200,18867,1,0,0:0:0:0:
336,184,19038,1,8,0:0:0:0:
325,192,19210,1,0,0:0:0:0:
325,192,19295,1,0,0:0:0:0:
336,184,19381,1,8,0:0:0:0:
360,240,19467,1,8,0:0:0:0:
336,184,19552,1,8,0:0:0:0:
336,184,19724,1,4,0:0:0:0:
336,248,20067,1,8,0:0:0:0:
282,215,20238,1,0,0:0:0:0:
272,248,20410,1,8,0:0:0:0:
280,184,20581,1,8,0:0:0:0:
280,184,20924,1,8,0:0:0:0:
336,212,21095,1,0,0:0:0:0:
392,120,21267,1,0,0:0:0:0:
392,216,21438,1,12,0:0:0:0:
232,112,21781,1,0,0:0:0:0:
344,104,21952,1,8,0:0:0:0:
413,135,22124,5,0,0:0:0:0:
384,140,22210,1,0,0:0:0:0:
372,146,22295,1,0,0:0:0:0:
413,135,22381,1,0,0:0:0:0:
345,157,22467,1,8,0:0:0:0:
372,146,23152,1,8,0:0:0:0:
253,206,23495,1,0,0:0:0:0:
345,291,23838,1,8,0:0:0:0:
345,179,24352,1,0,0:0:0:0:
281,177,24524,1,8,0:0:0:0:
328,218,24695,1,0,0:0:0:0:
155,174,24867,1,8,0:0:0:0:
154,174,25038,1,8,0:0:0:0:
123,174,25210,1,0,0:0:0:0:
246,196,25552,1,8,0:0:0:0:
246,196,25724,1,0,0:0:0:0:
374,165,25895,1,8,0:0:0:0:
246,196,26238,1,8,0:0:0:0:
127,175,26581,1,0,0:0:0:0:
252,174,26924,1,0,0:0:0:0:
315,167,27095,1,0,0:0:0:0:
252,174,27267,1,8,0:0:0:0:
350,252,27610,1,8,0:0:0:0:
470,285,27952,1,0,0:0:0:0:
170,54,28981,1,0,0:0:0:0:
21,54,29324,1,8,0:0:0:0:
116,123,29667,1,0,0:0:0:0:
244,169,30010,1,8,0:0:0:0:
369,177,30352,1,8,0:0:0:0:
270,216,30695,1,0,0:0:0:0:
327,190,30867,1,8,0:0:0:0:
270,216,31038,1,0,0:0:0:0:
330,198,31210,1,8,0:0:0:0:
270,216,31381,1,0,0:0:0:0:
270,216,31552,1,0,0:0:0:0:
327,189,31724,1,8,0:0:0:0:
356,123,31895,1,8,0:0:0:0:
270,256,32067,1,0,0:0:0:0:
350,84,32581,1,0,0:0:0:0:
302,124,32752,1,8,0:0:0:0:
274,180,32924,1,8,0:0:0:0:
201,200,33095,1,0,0:0:0:0:
263,200,33267,1,8,0:0:0:0:
318,169,33438,1,0,0:0:0:0:
333,287,33781,1,8,0:0:0:0:
333,287,34124,1,0,0:0:0:0:
360,230,34295,1,0,0:0:0:0:
326,238,34467,1,8,0:0:0:0:
326,238,34638,1,0,0:0:0:0:
333,287,34810,1,8,0:0:0:0:
333,287,35152,1,0,0:0:0:0:
333,287,35495,1,8,0:0:0:0:
321,225,35667,1,0,0:0:0:0:
326,286,35838,1,8,0:0:0:0:
358,229,36010,1,8,0:0:0:0:
326,174,36181,1,0,0:0:0:0:
355,228,36524,1,8,0:0:0:0:
355,228,36695,1,8,0:0:0:0:
333,287,36867,1,0,0:0:0:0:
333,287,37210,1,0,0:0:0:0:
350,162,37552,1,8,0:0:0:0:
333,287,37895,1,0,0:0:0:0:
350,162,38067,1,0,0:0:0:0:
333,287,38238,1,8,0:0:0:0:
339,224,38410,1,0,0:0:0:0:
333,287,38581,1,8,0:0:0:0:
333,287,38924,1,4,0:0:0:0:
377,173,39267,1,8,0:0:0:0:
331,223,39781,1,0,0:0:0:0:
352,164,39952,1,8,0:0:0:0:
333,287,40295,1,0,0:0:0:0:
352,164,40467,1,0,0:0:0:0:
351,162,40638,1,8,0:0:0:0:
296,171,40810,1,0,0:0:0:0:
314,226,41152,1,0,0:0:0:0:
282,171,41324,1,8,0:0:0:0:
318,169,41667,5,4,0:0:0:0:
352,280,42010,1,8,0:0:0:0:
318,169,42181,1,4,0:0:0:0:
318,169,42524,1,4,0:0:0:0:
318,169,42867,1,12,0:0:0:0:
432,232,43210,1,0,0:0:0:0:
416,168,43381,1,8,0:0:0:0:
304,200,43552,1,0,0:0:0:0:
304,200,43638,1,0,0:0:0:0:
304,200,43724,1,8,0:0:0:0:
368,208,43810,1,8,0:0:0:0:
336,209,43895,1,0,0:0:0:0:
304,210,43981,1,0,0:0:0:0:
368,208,44067,1,8,0:0:0:0:
368,208,44152,1,0,0:0:0:0:
336,208,44238,1,8,0:0:0:0:
304,208,44324,1,8,0:0:0:0:
396,200,44410,5,4,0:0:0:0:
396,200,44581,1,4,0:0:0:0:
236,99,45095,1,8,0:0:0:0:
348,154,45438,1,4,0:0:0:0:
405,182,45610,1,4,0:0:0:0:
279,195,45952,1,8,0:0:0:0:
334,225,46124,1,0,0:0:0:0:
334,225,46210,1,0,0:0:0:0:
316,198,46295,1,8,0:0:0:0:
279,195,46381,1,8,0:0:0:0:
309,201,46467,1,0,0:0:0:0:
339,191,46552,1,0,0:0:0:0:
363,171,46638,1,8,0:0:0:0:
339,191,46724,1,0,0:0:0:0:
316,198,46810,1,8,0:0:0:0:
291,218,46895,1,0,0:0:0:0:
316,198,46981,1,8,0:0:0:0:
316,198,47067,1,8,0:0:0:0:
369,183,47152,1,4,0:0:0:0:
431,169,47324,1,4,0:0:0:0:
379,350,47838,1,8,0:0:0:0:
316,198,48010,1,8,0:0:0:0:
316,198,48095,1,8,0:0:0:0:
301,169,48181,1,4,0:0:0:0:
270,114,48352,1,4,0:0:0:0:
289,234,48695,1,0,0:0:0:0:
348,215,48781,1,0,0:0:0:0:
348,215,48867,1,8,0:0:0:0:
360,162,49038,1,0,0:0:0:0:
348,215,49210,1,8,0:0:0:0:
360,243,49295,1,8,0:0:0:0:
367,189,49381,1,0,0:0:0:0:
367,189,49467,1,0,0:0:0:0:
348,215,49552,1,8,0:0:0:0:
284,218,49724,1,8,0:0:0:0:
367,189,49895,1,4,0:0:0:0:
273,175,50152,1,0,0:0:0:0:
258,241,50238,1,8,0:0:0:0:
208,265,50410,1,0,0:0:0:0:
208,265,50581,1,8,0:0:0:0:
208,265,50752,1,0,0:0:0:0:
232,244,50838,1,0,0:0:0:0:
208,265,50924,1,8,0:0:0:0:
208,265,51095,1,8,0:0:0:0:
208,265,51267,1,4,0:0:0:0:
295,229,51524,1,8,0:0:0:0:
208,265,51610,1,0,0:0:0:0:
208,265,51781,1,8,0:0:0:0:
208,265,51952,1,0,0:0:0:0:
208,265,52124,1,8,0:0:0:0:
230,243,52210,1,8,0:0:0:0:
208,265,52295,1,0,0:0:0:0:
208,265,52467,1,8,0:0:0:0:
208,265,52638,1,4,0:0:0:0:
240,256,52895,1,0,0:0:0:0:
208,265,52981,1,8,0:0:0:0:
208,265,53152,1,8,0:0:0:0:
208,265,53324,1,0,0:0:0:0:
240,256,53581,1,8,0:0:0:0:
208,265,53667,1,0,0:0:0:0:
208,265,53838,1,0,0:0:0:0:
208,265,54010,1,8,0:0:0:0:
224,240,54267,1,0,0:0:0:0:
208,265,54352,1,8,0:0:0:0:
240,248,54524,1,8,0:0:0:0:
208,265,54610,1,0,0:0:0:0:
240,280,54695,1,0,0:0:0:0:
232,208,54781,1,8,0:0:0:0:
208,265,54952,1,0,0:0:0:0:
232,248,55038,1,8,0:0:0:0:
248,224,55124,1,8,0:0:0:0:
208,265,55210,1,0,0:0:0:0:
232,240,55295,1,0,0:0:0:0:
208,265,55381,1,12,0:0:0:0:
208,265,55724,1,8,0:0:0:0:
208,265,55895,1,0,0:0:0:0:
208,265,56067,1,8,0:0:0:0:
208,265,56238,1,0,0:0:0:0:
208,265,56410,1,8,0:0:0:0:
208,265,56581,1,4,0:0:0:0:
386,183,56924,5,12,0:0:0:0:
386,183,57095,5,12,0:0:0:0:
386,183,57267,5,12,0:0:0:0:
429,178,58124,1,4,0:0:0:0:
386,183,58295,1,0,0:0:0:0:
429,178,58381,1,0,0:0:0:0:
429,178,58467,1,8,0:0:0:0:
426,112,58638,1,8,0:0:0:0:
366,185,58809,1,0,0:0:0:0:
429,178,58895,1,0,0:0:0:0:
303,191,58981,1,0,0:0:0:0:
324,168,59067,1,0,0:0:0:0:
366,185,59152,1,8,0:0:0:0:
366,185,59324,1,8,0:0:0:0:
421,261,59409,1,0,0:0:0:0:
411,230,59495,1,8,0:0:0:0:
386,172,59667,1,0,0:0:0:0:
327,196,59838,1,8,0:0:0:0:
327,196,59924,1,8,0:0:0:0:
327,196,60009,1,0,0:0:0:0:
327,196,60181,1,8,0:0:0:0:
220,231,60352,1,0,0:0:0:0:
251,231,60438,1,0,0:0:0:0:
276,212,60524,1,8,0:0:0:0:
189,231,60609,1,8,0:0:0:0:
386,172,60695,1,0,0:0:0:0:
327,196,60867,1,8,0:0:0:0:
327,196,61038,1,0,0:0:0:0:
381,163,61209,1,8,0:0:0:0:
366,190,61295,1,0,0:0:0:0:
327,196,61381,1,8,0:0:0:0:
327,196,61467,1,0,0:0:0:0:
366,190,61552,1,8,0:0:0:0:
378,232,61724,1,0,0:0:0:0:
316,217,61895,1,8,0:0:0:0:
337,193,61981,1,8,0:0:0:0:
315,218,62067,1,0,0:0:0:0:
378,232,62238,1,8,0:0:0:0:
378,232,62324,1,0,0:0:0:0:
409,230,62409,1,0,0:0:0:0:
413,198,62495,1,0,0:0:0:0:
391,174,62581,1,8,0:0:0:0:
323,152,62752,1,0,0:0:0:0:
326,194,62838,1,8,0:0:0:0:
354,161,62924,1,0,0:0:0:0:
326,194,63095,1,12,0:0:0:0:
359,206,63267,1,12,0:0:0:0:
471,263,63609,1,4,0:0:0:0:
353,217,63781,1,0,0:0:0:0:
353,217,63867,1,0,0:0:0:0:
322,207,63952,1,8,0:0:0:0:
302,255,64124,1,8,0:0:0:0:
327,236,64209,1,8,0:0:0:0:
327,236,64295,1,0,0:0:0:0:
327,236,64467,1,0,0:0:0:0:
327,236,64638,1,8,0:0:0:0:
353,217,64724,1,8,0:0:0:0:
353,217,64809,1,0,0:0:0:0:
327,236,64895,1,0,0:0:0:0:
327,236,64981,1,8,0:0:0:0:
327,236,65152,1,0,0:0:0:0:
327,236,65324,1,8,0:0:0:0:
353,217,65409,1,0,0:0:0:0:
327,236,65495,1,8,0:0:0:0:
327,236,65581,1,8,0:0:0:0:
327,236,65667,1,0,0:0:0:0:
319,173,65838,1,0,0:0:0:0:
434,120,66010,1,8,0:0:0:0:
336,200,66352,1,0,0:0:0:0:
356,255,66524,1,12,0:0:0:0:
356,255,66695,1,12,0:0:0:0:
232,261,67038,1,0,0:0:0:0:
236,108,67210,1,12,0:0:0:0:
276,156,67381,1,12,0:0:0:0:
395,197,67724,1,0,0:0:0:0:
336,173,67895,1,8,0:0:0:0:
336,173,68067,1,0,0:0:0:0:
258,182,68238,1,0,0:0:0:0:
336,173,68410,1,8,0:0:0:0:
258,182,68495,1,8,0:0:0:0:
258,182,68581,1,0,0:0:0:0:
336,173,68667,1,0,0:0:0:0:
250,213,68752,1,8,0:0:0:0:
250,213,68838,1,8,0:0:0:0:
258,182,68924,1,8,0:0:0:0:
267,187,69010,1,8,0:0:0:0:
298,184,69095,1,4,0:0:0:0:
349,220,69267,1,0,0:0:0:0:
374,238,69352,1,0,0:0:0:0:
390,211,69438,1,8,0:0:0:0:
390,211,69610,1,8,0:0:0:0:
390,211,69781,1,0,0:0:0:0:
390,211,69867,1,0,0:0:0:0:
390,211,69952,1,0,0:0:0:0:
390,211,70038,1,0,0:0:0:0:
390,211,70124,1,8,0:0:0:0:
390,211,70295,1,8,0:0:0:0:
390,211,70381,1,0,0:0:0:0:
390,211,70467,1,8,0:0:0:0:
390,211,70638,1,0,0:0:0:0:
331,187,70810,1,8,0:0:0:0:
370,186,70895,1,8,0:0:0:0:
390,211,70981,1,0,0:0:0:0:
390,211,71152,1,8,0:0:0:0:
390,211,71324,1,0,0:0:0:0:
390,211,71410,1,0,0:0:0:0:
390,211,71495,1,8,0:0:0:0:
390,211,71581,1,8,0:0:0:0:
390,211,71667,1,0,0:0:0:0:
390,211,71838,1,8,0:0:0:0:
390,211,72010,1,0,0:0:0:0:
390,211,72181,1,0,0:0:0:0:
403,182,72267,1,0,0:0:0:0:
390,211,72352,1,8,0:0:0:0:
390,211,72438,1,0,0:0:0:0:
390,211,72524,1,8,0:0:0:0:
390,211,72695,1,0,0:0:0:0:
390,211,72867,1,8,0:0:0:0:
403,182,72952,1,8,0:0:0:0:
348,258,73038,1,0,0:0:0:0:
390,211,73210,1,8,0:0:0:0:
390,211,73295,1,0,0:0:0:0:
390,211,73381,1,8,0:0:0:0:
390,211,73467,1,8,0:0:0:0:
390,211,73552,1,0,0:0:0:0:
390,211,73724,1,8,0:0:0:0:
390,211,73810,1,0,0:0:0:0:
390,211,73895,1,8,0:0:0:0:
329,201,74067,1,0,0:0:0:0:
297,207,74152,1,0,0:0:0:0:
329,201,74238,1,8,0:0:0:0:
297,196,74324,1,0,0:0:0:0:
205,171,74410,1,0,0:0:0:0:
174,164,74495,1,0,0:0:0:0:
204,170,74581,1,12,0:0:0:0:
325,204,74924,1,0,0:0:0:0:
385,221,75095,1,8,0:0:0:0:
317,202,75267,1,0,0:0:0:0:
385,221,75438,1,0,0:0:0:0:
321,203,75610,1,8,0:0:0:0:
389,222,75781,1,0,0:0:0:0:
314,292,75952,1,12,0:0:0:0:
359,205,76295,1,0,0:0:0:0:
359,205,76467,1,0,0:0:0:0:
359,205,76638,1,8,0:0:0:0:
359,205,76810,1,8,0:0:0:0:
359,205,76981,1,0,0:0:0:0:
359,205,77152,1,0,0:0:0:0:
314,292,77324,1,12,0:0:0:0:
359,205,77667,1,0,0:0:0:0:
359,205,77838,1,0,0:0:0:0:
246,210,78010,1,8,0:0:0:0:
317,230,78095,1,8,0:0:0:0:
317,230,78181,1,8,0:0:0:0:
318,230,78267,1,8,0:0:0:0:
348,240,78352,1,0,0:0:0:0:
348,240,78438,1,0,0:0:0:0:
348,240,78524,1,0,0:0:0:0:
348,240,78610,1,0,0:0:0:0:
337,210,78695,1,12,0:0:0:0:
341,151,79552,1,0,0:0:0:0:
295,198,79724,1,8,0:0:0:0:
327,88,80067,1,4,0:0:0:0:
328,128,80410,1,8,0:0:0:0:
280,168,80581,1,0,0:0:0:0:
344,168,80752,1,8,0:0:0:0:
376,176,80838,1,8,0:0:0:0:
344,176,80924,1,0,0:0:0:0:
280,176,81095,1,0,0:0:0:0:
296,112,81267,1,8,0:0:0:0:
344,168,81610,1,8,0:0:0:0:
424,248,81781,1,0,0:0:0:0:
400,232,81867,1,0,0:0:0:0:
400,200,81952,1,0,0:0:0:0:
336,184,82124,1,8,0:0:0:0:
336,184,82295,1,0,0:0:0:0:
336,184,82381,1,0,0:0:0:0:
314,206,82467,1,8,0:0:0:0:
313,206,82552,1,8,0:0:0:0:
336,184,82638,1,0,0:0:0:0:
336,184,82810,1,12,0:0:0:0:
336,248,83152,1,0,0:0:0:0:
272,248,83324,1,8,0:0:0:0:
272,248,83667,1,8,0:0:0:0:
272,248,83838,1,0,0:0:0:0:
320,184,84010,1,8,0:0:0:0:
272,248,84352,1,8,0:0:0:0:
344,120,84524,1,0,0:0:0:0:
336,136,84610,1,0,0:0:0:0:
360,184,84695,1,0,0:0:0:0:
360,208,84781,1,0,0:0:0:0:
416,192,84867,1,8,0:0:0:0:
336,248,85038,1,8,0:0:0:0:
368,240,85124,1,0,0:0:0:0:
360,208,85210,1,8,0:0:0:0:
320,184,85295,1,8,0:0:0:0:
480,192,85381,1,0,0:0:0:0:
416,192,85467,1,0,0:0:0:0:
416,192,85552,1,12,0:0:0:0:
328,128,85895,1,8,0:0:0:0:
280,168,86067,1,0,0:0:0:0:
344,168,86238,1,8,0:0:0:0:
376,176,86324,1,8,0:0:0:0:
344,176,86410,1,0,0:0:0:0:
280,176,86581,1,0,0:0:0:0:
296,112,86752,1,8,0:0:0:0:
344,168,87095,1,8,0:0:0:0:
424,248,87267,1,0,0:0:0:0:
400,232,87352,1,0,0:0:0:0:
400,200,87438,1,0,0:0:0:0:
336,184,87610,1,8,0:0:0:0:
336,248,87781,1,0,0:0:0:0:
347,267,87867,1,0,0:0:0:0:
336,184,87952,1,8,0:0:0:0:
360,240,88038,1,8,0:0:0:0:
336,184,88124,1,8,0:0:0:0:
336,184,88295,1,4,0:0:0:0:
252,278,88638,1,8,0:0:0:0:
262,216,88810,1,0,0:0:0:0:
311,176,88981,1,8,0:0:0:0:
311,176,89152,1,8,0:0:0:0:
273,190,89324,1,0,0:0:0:0:
336,184,89495,1,12,0:0:0:0:
338,204,89838,1,0,0:0:0:0:
276,194,90010,1,0,0:0:0:0:
401,215,90181,1,0,0:0:0:0:
408,168,90352,5,8,0:0:0:0:
344,176,90524,1,0,0:0:0:0:
280,192,90695,1,0,0:0:0:0:
328,176,90867,5,8,0:0:0:0:
