osu file format v14

[General]
AudioFilename: audio.mp3
AudioLeadIn: 0
PreviewTime: 57354
Countdown: 0
SampleSet: Normal
StackLeniency: 0.7
Mode: 1
LetterboxInBreaks: 0
WidescreenStoryboard: 1

[Editor]
Bookmarks: 6011,11497,22468,33440,44411,49897,58126,69097
DistanceSpacing: 0.9
BeatDivisor: 4
GridSize: 32
TimelineZoom: 2

[Metadata]
Title:Yumemi Hanabira 1chorus Ver.
TitleUnicode:夢見ハナビラ 1chorus Ver.
Artist:KyoKa
ArtistUnicode:KyoKa
Creator:[-E S I A-]
Version:2199's Muzukashii
Source:さくらの雲*スカアレットの恋
Tags:Version Eroge Cabbage Soft A love in Sacra & Scarlet Sakura no Kumo * Scarlet no Koi Sakuretto さくレット SakuKumo galgame visual novel vn opening op video game japanese j-pop jpop pop videogame female vocals vocalist [r] Ron bigh bighzonda arcpotato gaston_2199 E_S_I_A [-E_S_I_A-] ESIA [-ESIA-]
BeatmapID:3902513
BeatmapSetID:1883852

[Difficulty]
HPDrainRate:6
CircleSize:2
OverallDifficulty:5
ApproachRate:10
SliderMultiplier:1.4
SliderTickRate:1

[Events]
//Background and Video events
0,0,"m.jpg",0,80
//Break Periods
//Storyboard Layer 0 (Background)
//Storyboard Layer 1 (Fail)
//Storyboard Layer 2 (Pass)
//Storyboard Layer 3 (Foreground)
//Storyboard Layer 4 (Overlay)
//Storyboard Sound Samples

[TimingPoints]
526,352.941176470588,4,1,0,60,1,0
526,-97.143967359627,4,1,0,60,0,0
1917,342.857142857143,4,1,0,60,1,0
3268,342.857142857143,4,1,0,60,1,0
6010,342.857142857143,4,1,0,70,1,0
6010,-100,4,1,0,70,0,0
11411,-100,4,1,0,80,0,0
22411,-100,4,1,0,60,0,0
33354,-100,4,1,0,70,0,0
44368,-100,4,1,0,75,0,0
49811,-100,4,1,0,80,0,0
58040,-100,4,1,0,90,0,0
58124,-100,4,1,0,90,0,1
79983,-100,4,1,0,80,0,1
80067,-100,4,1,0,80,0,0

[HitObjects]
256,192,526,5,8,0:0:0:0:
256,192,1231,1,0,0:0:0:0:
256,192,1917,1,8,0:0:0:0:
256,192,2259,1,8,0:0:0:0:
256,192,2602,1,0,0:0:0:0:
256,192,2945,1,0,0:0:0:0:
256,192,3268,1,8,0:0:0:0:
256,192,3610,1,0,0:0:0:0:
256,192,3782,1,8,0:0:0:0:
256,192,3953,1,0,0:0:0:0:
256,192,4296,1,8,0:0:0:0:
256,192,4639,1,0,0:0:0:0:
288,192,5325,1,8,0:0:0:0:
256,192,6010,1,4,0:0:0:0:
256,192,6352,1,0,0:0:0:0:
256,192,6524,1,0,0:0:0:0:
256,192,6695,1,8,0:0:0:0:
256,192,7038,1,8,0:0:0:0:
256,192,7210,1,0,0:0:0:0:
256,192,7381,1,8,0:0:0:0:
256,192,7552,1,0,0:0:0:0:
256,192,7724,1,8,0:0:0:0:
256,192,7895,1,8,0:0:0:0:
256,192,8067,1,0,0:0:0:0:
256,192,8410,1,8,0:0:0:0:
224,128,8581,1,0,0:0:0:0:
256,192,8752,1,8,0:0:0:0:
256,192,8924,1,0,0:0:0:0:
256,192,9010,1,0,0:0:0:0:
256,192,9095,1,0,0:0:0:0:
256,192,9267,1,8,0:0:0:0:
256,192,9438,1,0,0:0:0:0:
256,192,9524,1,0,0:0:0:0:
256,192,9610,1,0,0:0:0:0:
256,192,9781,1,8,0:0:0:0:
256,192,10124,1,4,0:0:0:0:
256,192,10295,1,4,0:0:0:0:
256,192,10467,1,4,0:0:0:0:
256,192,10638,1,4,0:0:0:0:
256,192,11495,1,12,0:0:0:0:
256,192,11838,1,8,0:0:0:0:
256,192,12010,1,0,0:0:0:0:
256,192,12181,1,8,0:0:0:0:
256,192,12524,1,8,0:0:0:0:
256,192,12695,1,0,0:0:0:0:
256,160,12781,1,0,0:0:0:0:
256,160,12867,1,0,0:0:0:0:
256,192,13038,1,0,0:0:0:0:
256,192,13210,1,8,0:0:0:0:
256,192,13381,1,8,0:0:0:0:
256,192,13552,1,0,0:0:0:0:
256,192,13895,1,8,0:0:0:0:
256,192,14238,1,4,0:0:0:0:
256,192,14581,1,8,0:0:0:0:
256,192,14752,1,0,0:0:0:0:
256,192,15095,1,8,0:0:0:0:
256,192,15438,1,4,0:0:0:0:
256,192,15952,1,8,0:0:0:0:
256,192,16210,1,8,0:0:0:0:
256,192,16295,1,8,0:0:0:0:
256,192,16467,1,0,0:0:0:0:
256,192,16638,1,8,0:0:0:0:
256,192,16981,1,4,0:0:0:0:
256,192,17324,1,8,0:0:0:0:
256,192,17495,1,0,0:0:0:0:
256,192,17667,1,8,0:0:0:0:
256,192,18010,1,8,0:0:0:0:
256,192,18181,1,0,0:0:0:0:
256,160,18267,1,0,0:0:0:0:
256,160,18352,1,0,0:0:0:0:
256,192,18524,1,0,0:0:0:0:
256,192,18695,1,8,0:0:0:0:
256,192,18867,1,0,0:0:0:0:
256,192,19038,1,8,0:0:0:0:
256,192,19381,1,8,0:0:0:0:
256,192,19724,1,4,0:0:0:0:
256,192,20067,1,0,0:0:0:0:
256,128,20410,1,8,0:0:0:0:
256,192,20581,1,8,0:0:0:0:
256,192,20924,1,0,0:0:0:0:
256,128,21095,1,0,0:0:0:0:
256,128,21267,1,0,0:0:0:0:
256,192,21438,1,12,0:0:0:0:
256,192,21781,1,8,0:0:0:0:
256,192,21952,1,0,0:0:0:0:
256,192,22124,1,8,0:0:0:0:
224,128,22295,1,8,0:0:0:0:
256,192,22467,1,4,0:0:0:0:
288,192,23152,1,8,0:0:0:0:
288,192,23838,1,0,0:0:0:0:
288,192,24352,1,8,0:0:0:0:
288,192,24524,1,0,0:0:0:0:
288,192,24695,1,0,0:0:0:0:
288,192,24867,1,8,0:0:0:0:
288,192,25038,1,8,0:0:0:0:
288,192,25210,1,0,0:0:0:0:
288,192,25895,1,8,0:0:0:0:
288,192,26581,1,0,0:0:0:0:
288,192,26924,1,8,0:0:0:0:
288,192,27095,1,0,0:0:0:0:
288,192,27267,1,8,0:0:0:0:
288,192,27610,1,8,0:0:0:0:
288,192,27952,1,0,0:0:0:0:
288,192,28981,1,8,0:0:0:0:
288,192,29324,1,0,0:0:0:0:
160,128,29667,1,0,0:0:0:0:
160,128,30010,1,8,0:0:0:0:
160,128,30352,1,8,0:0:0:0:
160,128,30695,1,0,0:0:0:0:
160,128,31038,1,8,0:0:0:0:
160,128,31210,1,0,0:0:0:0:
160,128,31381,1,8,0:0:0:0:
160,128,31552,1,8,0:0:0:0:
160,128,31724,1,0,0:0:0:0:
160,128,31895,1,0,0:0:0:0:
160,128,32067,1,8,0:0:0:0:
160,96,32581,1,0,0:0:0:0:
160,96,32752,1,8,0:0:0:0:
160,96,32924,1,0,0:0:0:0:
160,96,33095,1,8,0:0:0:0:
160,96,33438,1,0,0:0:0:0:
160,64,33781,1,8,0:0:0:0:
160,64,34124,1,0,0:0:0:0:
160,64,34295,1,0,0:0:0:0:
160,64,34467,1,8,0:0:0:0:
160,64,34810,1,8,0:0:0:0:
160,64,35152,1,0,0:0:0:0:
160,64,35495,1,8,0:0:0:0:
160,64,35667,1,0,0:0:0:0:
160,64,35838,1,8,0:0:0:0:
160,64,36181,1,0,0:0:0:0:
160,64,36524,1,8,0:0:0:0:
160,64,36695,1,0,0:0:0:0:
160,64,37210,1,8,0:0:0:0:
160,64,37552,1,0,0:0:0:0:
160,64,37895,1,8,0:0:0:0:
160,64,38067,1,0,0:0:0:0:
160,64,38238,1,8,0:0:0:0:
160,64,38581,1,8,0:0:0:0:
160,64,38924,1,4,0:0:0:0:
192,96,39267,1,8,0:0:0:0:
192,96,39781,1,0,0:0:0:0:
192,96,39952,1,8,0:0:0:0:
192,96,40295,1,0,0:0:0:0:
192,96,40467,1,0,0:0:0:0:
192,96,40638,1,8,0:0:0:0:
192,96,40810,1,0,0:0:0:0:
192,96,41152,1,0,0:0:0:0:
192,96,41324,1,8,0:0:0:0:
192,64,41667,1,4,0:0:0:0:
192,64,42010,1,8,0:0:0:0:
192,64,42181,1,4,0:0:0:0:
192,64,42524,1,4,0:0:0:0:
192,64,42867,1,12,0:0:0:0:
201,62,43381,1,8,0:0:0:0:
192,64,43552,1,0,0:0:0:0:
192,64,43724,1,8,0:0:0:0:
201,62,43895,1,0,0:0:0:0:
201,62,44067,1,8,0:0:0:0:
201,62,44152,1,8,0:0:0:0:
201,62,44238,1,8,0:0:0:0:
201,62,44410,1,4,0:0:0:0:
192,64,44581,1,4,0:0:0:0:
201,62,45095,1,8,0:0:0:0:
201,62,45438,1,4,0:0:0:0:
192,64,45610,1,12,0:0:0:0:
320,96,45952,1,8,0:0:0:0:
201,62,46124,1,0,0:0:0:0:
201,62,46210,1,0,0:0:0:0:
201,62,46295,1,0,0:0:0:0:
201,62,46467,1,0,0:0:0:0:
192,64,46552,1,0,0:0:0:0:
192,64,46638,1,0,0:0:0:0:
201,62,46810,1,8,0:0:0:0:
201,62,46981,1,8,0:0:0:0:
201,62,47152,1,4,0:0:0:0:
201,62,47324,1,4,0:0:0:0:
201,62,47838,1,8,0:0:0:0:
201,62,48181,1,4,0:0:0:0:
201,62,48352,1,12,0:0:0:0:
256,160,48695,1,8,0:0:0:0:
201,62,48781,1,8,0:0:0:0:
201,62,48867,1,8,0:0:0:0:
201,62,49038,1,8,0:0:0:0:
201,62,49210,1,0,0:0:0:0:
201,62,49295,1,0,0:0:0:0:
201,62,49381,1,0,0:0:0:0:
201,62,49552,1,8,0:0:0:0:
201,62,49895,1,4,0:0:0:0:
201,62,50238,1,8,0:0:0:0:
201,62,50410,1,0,0:0:0:0:
201,62,50495,1,0,0:0:0:0:
201,62,50581,1,0,0:0:0:0:
201,62,50752,1,0,0:0:0:0:
201,62,50924,1,8,0:0:0:0:
201,62,51095,1,0,0:0:0:0:
201,62,51267,1,12,0:0:0:0:
201,62,51610,1,8,0:0:0:0:
201,62,51781,1,8,0:0:0:0:
201,62,51952,1,0,0:0:0:0:
201,62,52124,1,8,0:0:0:0:
192,32,52210,1,8,0:0:0:0:
201,62,52295,1,8,0:0:0:0:
201,62,52638,1,4,0:0:0:0:
224,128,52981,1,8,0:0:0:0:
224,128,53324,1,0,0:0:0:0:
224,128,53495,1,0,0:0:0:0:
224,128,53667,1,8,0:0:0:0:
224,128,53838,1,8,0:0:0:0:
224,128,54010,1,0,0:0:0:0:
224,128,54095,1,0,0:0:0:0:
224,128,54181,1,0,0:0:0:0:
213,129,54352,1,8,0:0:0:0:
213,129,54524,1,0,0:0:0:0:
213,129,54695,1,8,0:0:0:0:
224,128,54781,1,8,0:0:0:0:
224,128,54867,1,8,0:0:0:0:
213,129,55038,1,0,0:0:0:0:
213,129,55210,1,8,0:0:0:0:
213,129,55381,1,4,0:0:0:0:
160,64,55724,1,8,0:0:0:0:
224,96,55895,1,0,0:0:0:0:
224,128,56067,1,8,0:0:0:0:
224,96,56238,1,0,0:0:0:0:
224,96,56410,1,8,0:0:0:0:
224,96,56581,1,4,0:0:0:0:
224,96,56924,1,4,0:0:0:0:
224,96,57095,1,4,0:0:0:0:
224,96,57267,1,4,0:0:0:0:
192,128,58124,1,12,0:0:0:0:
192,128,58467,1,8,0:0:0:0:
192,128,58638,1,0,0:0:0:0:
192,128,58809,1,8,0:0:0:0:
192,128,59152,1,0,0:0:0:0:
224,96,59324,1,8,0:0:0:0:
192,128,59495,1,0,0:0:0:0:
192,128,59838,1,8,0:0:0:0:
192,128,60009,1,0,0:0:0:0:
192,128,60181,1,8,0:0:0:0:
192,96,60267,1,8,0:0:0:0:
160,96,60352,1,8,0:0:0:0:
192,128,60524,1,0,0:0:0:0:
192,96,60695,5,0,0:0:0:0:
192,96,60867,1,8,0:0:0:0:
192,96,61209,1,8,0:0:0:0:
192,96,61381,1,8,0:0:0:0:
192,96,61552,1,0,0:0:0:0:
192,96,61638,1,0,0:0:0:0:
192,96,61724,1,0,0:0:0:0:
192,96,61895,1,8,0:0:0:0:
192,96,62067,1,8,0:0:0:0:
192,96,62238,1,0,0:0:0:0:
160,128,62581,1,8,0:0:0:0:
160,128,63095,1,8,0:0:0:0:
160,128,63267,1,8,0:0:0:0:
192,96,63609,1,4,0:0:0:0:
192,96,63952,1,8,0:0:0:0:
192,96,64124,1,0,0:0:0:0:
192,96,64467,1,0,0:0:0:0:
192,96,64638,1,8,0:0:0:0:
192,64,64724,1,8,0:0:0:0:
192,96,64809,1,8,0:0:0:0:
192,96,64981,1,0,0:0:0:0:
192,96,65152,1,0,0:0:0:0:
192,96,65324,1,8,0:0:0:0:
192,96,65495,1,0,0:0:0:0:
192,96,65667,1,8,0:0:0:0:
192,96,66010,1,8,0:0:0:0:
192,96,66352,1,0,0:0:0:0:
192,96,66524,1,12,0:0:0:0:
192,96,66695,1,12,0:0:0:0:
192,64,67210,1,12,0:0:0:0:
192,64,67381,1,12,0:0:0:0:
192,64,67895,1,8,0:0:0:0:
192,64,68067,1,8,0:0:0:0:
192,64,68238,1,8,0:0:0:0:
192,64,68410,1,0,0:0:0:0:
192,64,68581,1,8,0:0:0:0:
192,64,68752,1,8,0:0:0:0:
192,64,68838,1,8,0:0:0:0:
192,64,68924,1,8,0:0:0:0:
192,128,69095,1,4,0:0:0:0:
192,128,69438,1,8,0:0:0:0:
192,128,69610,1,0,0:0:0:0:
192,128,69781,1,8,0:0:0:0:
192,128,70124,1,0,0:0:0:0:
224,96,70295,1,8,0:0:0:0:
192,128,70467,1,0,0:0:0:0:
192,64,70552,1,0,0:0:0:0:
192,64,70638,1,0,0:0:0:0:
192,128,70810,1,8,0:0:0:0:
192,128,70981,1,0,0:0:0:0:
192,128,71152,1,8,0:0:0:0:
160,96,71324,1,8,0:0:0:0:
192,128,71495,1,0,0:0:0:0:
192,96,71838,1,8,0:0:0:0:
192,96,72181,1,8,0:0:0:0:
192,96,72352,1,0,0:0:0:0:
192,96,72524,1,8,0:0:0:0:
192,96,72610,1,8,0:0:0:0:
192,96,72695,1,8,0:0:0:0:
192,96,72867,1,0,0:0:0:0:
192,96,73038,1,0,0:0:0:0:
192,96,73210,1,8,0:0:0:0:
160,128,73724,1,0,0:0:0:0:
192,64,73810,1,0,0:0:0:0:
160,128,73895,1,0,0:0:0:0:
160,128,74067,1,0,0:0:0:0:
160,128,74238,1,8,0:0:0:0:
192,64,74410,1,8,0:0:0:0:
201,62,74581,1,4,0:0:0:0:
201,62,74924,1,8,0:0:0:0:
201,62,75095,1,0,0:0:0:0:
201,62,75181,1,0,0:0:0:0:
201,62,75267,1,0,0:0:0:0:
201,62,75438,1,0,0:0:0:0:
201,62,75610,1,8,0:0:0:0:
201,62,75781,1,0,0:0:0:0:
201,62,75952,1,12,0:0:0:0:
201,62,76295,1,8,0:0:0:0:
201,62,76467,1,8,0:0:0:0:
201,62,76638,1,0,0:0:0:0:
201,62,76810,1,8,0:0:0:0:
192,32,76895,1,8,0:0:0:0:
201,62,76981,1,8,0:0:0:0:
128,64,77152,1,8,0:0:0:0:
201,62,77324,1,4,0:0:0:0:
192,32,77667,1,8,0:0:0:0:
224,128,78010,1,0,0:0:0:0:
192,0,78095,1,0,0:0:0:0:
224,128,78181,1,0,0:0:0:0:
224,128,78352,1,8,0:0:0:0:
192,32,78438,1,8,0:0:0:0:
224,128,78524,1,8,0:0:0:0:
224,128,78695,1,4,0:0:0:0:
288,160,79724,1,0,0:0:0:0:
256,192,80067,1,12,0:0:0:0:
256,192,80410,1,8,0:0:0:0:
256,192,80581,1,0,0:0:0:0:
256,192,80752,1,8,0:0:0:0:
256,192,81095,1,8,0:0:0:0:
256,192,81267,1,0,0:0:0:0:
256,160,81352,1,0,0:0:0:0:
256,160,81438,1,0,0:0:0:0:
256,192,81610,1,0,0:0:0:0:
256,192,81781,1,8,0:0:0:0:
256,192,81952,1,8,0:0:0:0:
256,192,82124,1,0,0:0:0:0:
256,192,82467,1,8,0:0:0:0:
256,192,82810,1,4,0:0:0:0:
256,192,83152,1,8,0:0:0:0:
256,192,83324,1,0,0:0:0:0:
256,192,83667,1,8,0:0:0:0:
256,192,84010,1,0,0:0:0:0:
192,32,84352,1,8,0:0:0:0:
256,192,84524,1,0,0:0:0:0:
192,128,84695,1,8,0:0:0:0:
192,128,84781,1,8,0:0:0:0:
192,128,84867,1,8,0:0:0:0:
256,192,85038,1,0,0:0:0:0:
256,192,85210,1,8,0:0:0:0:
256,192,85552,1,4,0:0:0:0:
256,192,85895,1,8,0:0:0:0:
256,192,86067,1,0,0:0:0:0:
256,192,86238,1,8,0:0:0:0:
256,192,86581,1,8,0:0:0:0:
256,192,86752,1,0,0:0:0:0:
256,160,86838,1,0,0:0:0:0:
256,160,86924,1,0,0:0:0:0:
256,192,87095,1,0,0:0:0:0:
256,192,87267,1,8,0:0:0:0:
256,192,87438,1,0,0:0:0:0:
256,192,87610,1,8,0:0:0:0:
256,192,87952,1,8,0:0:0:0:
256,192,88295,1,4,0:0:0:0:
256,192,88638,1,8,0:0:0:0:
256,128,88981,1,8,0:0:0:0:
256,192,89152,1,0,0:0:0:0:
256,192,89495,1,12,0:0:0:0:
256,128,89838,1,0,0:0:0:0:
256,192,90010,1,0,0:0:0:0:
256,128,90181,1,0,0:0:0:0:
256,192,90352,1,8,0:0:0:0:
256,192,90524,1,0,0:0:0:0:
256,192,90695,1,0,0:0:0:0:
224,128,90867,1,8,0:0:0:0:
