osu file format v14

[General]
AudioFilename: audio.mp3
AudioLeadIn: 0
PreviewTime: 66785
Countdown: 0
SampleSet: Soft
StackLeniency: 0.4
Mode: 0
LetterboxInBreaks: 0
WidescreenStoryboard: 1

[Editor]
DistanceSpacing: 1.3
BeatDivisor: 4
GridSize: 32
TimelineZoom: 3.199999

[Metadata]
Title:Tokimeki * Decoration
TitleUnicode:ときめき*Decoration
Artist:KyoKa
ArtistUnicode:KyoKa
Creator:StaroaX
Version:Kyutei's Insane * Days
Source:あまいろショコラータ2
Tags:あまショコ amachoco amairo chocolata Chocolate op opening short ver. version visual novel japanese video game size pop j-pop jpop Eroge Visual Novel My Favorite KEMOMIMI Adventure cabbage soft きゃべつそふと しらたま Shiratama 梱枝りこ korie riko 原瀬今日香 Harase Kyouka Crissa [-Crissaegrim-] Eula- Kyutei -Magic-
BeatmapID:2944619
BeatmapSetID:1416947

[Difficulty]
HPDrainRate:5.2
CircleSize:4
OverallDifficulty:8.6
ApproachRate:8.8
SliderMultiplier:1.6
SliderTickRate:1

[Events]
//Background and Video events
0,0,"Hand-edited bg cuz no decent quality cgs sadge.png",0,0
Video,0,"amachoco-op-but-sh1t-qual.mp4"
//Break Periods
//Storyboard Layer 0 (Background)
//Storyboard Layer 1 (Fail)
//Storyboard Layer 2 (Pass)
//Storyboard Layer 3 (Foreground)
//Storyboard Layer 4 (Overlay)
//Storyboard Sound Samples

[TimingPoints]
543,346.820809248555,4,2,12,60,1,0
543,-108.695652173913,4,2,12,60,0,0
2970,-161.290322580645,4,2,12,60,0,0
3317,-108.695652173913,4,2,12,60,0,0
5571,-108.695652173913,4,2,12,50,0,0
5745,-81.9672131147541,4,2,13,50,0,0
6005,-125,4,2,13,5,0,0
6092,-98.0392156862745,4,2,12,70,0,0
8779,-98.0392156862745,4,2,12,5,0,0
8866,-70.4225352112676,4,2,12,70,0,0
9126,-70.4225352112676,4,2,12,5,0,0
9213,-70.4225352112676,4,2,12,70,0,0
10253,-70.4225352112676,4,2,12,70,0,0
11121,-108.695652173913,4,2,12,55,0,0
11641,-108.695652173913,4,2,12,70,0,0
16843,-108.695652173913,4,2,13,70,0,0
17016,-108.695652173913,4,2,12,70,0,0
22392,-250,4,2,12,70,0,0
22652,-333.333333333333,4,2,12,5,0,0
22739,-121.951219512195,4,2,12,50,0,0
27768,-121.951219512195,4,2,12,55,0,0
27941,-121.951219512195,4,2,13,55,0,0
28115,-121.951219512195,4,2,12,50,0,0
28288,-98.0392156862745,4,2,12,60,0,0
28982,-121.951219512195,4,2,12,60,0,0
29675,-98.0392156862744,4,2,12,60,0,0
30716,-121.951219512195,4,2,12,60,0,0
32450,-98.0392156862744,4,2,12,55,0,0
33490,-138.888888888889,4,2,12,55,0,0
33751,-138.888888888889,4,2,12,5,0,0
33837,-98.0392156862745,4,2,12,60,0,0
39040,-98.0392156862745,4,2,13,60,0,0
39213,-98.0392156862745,4,2,12,60,0,0
43548,-98.0392156862745,4,2,12,55,0,0
44936,-121.951219512195,4,2,12,50,0,0
53259,-121.951219512195,4,2,12,50,0,0
55687,-98.0392156862744,4,2,12,50,0,0
56034,-108.695652173913,4,2,11,45,0,0
56207,-108.695652173913,4,2,12,45,0,0
57074,-108.695652173913,4,2,11,45,0,0
57248,-108.695652173913,4,2,12,45,0,0
58462,-108.695652173913,4,2,11,45,0,0
58635,-108.695652173913,4,2,12,45,0,0
60196,-108.695652173913,4,2,11,50,0,0
61063,-108.695652173913,4,2,12,45,0,0
61583,-98.0392156862745,4,2,12,60,0,0
62623,-108.695652173913,4,2,12,60,0,0
63317,-98.0392156862745,4,2,12,60,0,0
65398,-81.9672131147541,4,2,12,60,0,0
65745,-81.9672131147541,4,2,12,55,0,0
66438,-98.0392156862745,4,2,12,55,0,0
67132,-81.9672131147541,4,2,12,80,0,1
67392,-81.9672131147541,4,2,12,5,0,1
67479,-81.9672131147541,4,2,12,80,0,1
68779,-81.9672131147541,4,2,12,5,0,1
68866,-81.9672131147541,4,2,12,80,0,1
70167,-81.9672131147541,4,2,12,5,0,1
70253,-81.9672131147541,4,2,12,80,0,1
71294,-98.0392156862745,4,2,12,80,0,1
71988,-70.4225352112676,4,2,12,80,0,1
72248,-100,4,2,12,5,0,1
72334,-54.9450549450549,4,2,13,80,0,1
72595,-100,4,2,13,5,0,1
72681,-98.0392156862745,4,2,12,80,0,1
77363,-75.7575757575758,4,2,12,80,0,1
78230,-81.9672131147541,4,2,12,60,0,0
78317,-81.9672131147541,4,2,12,5,0,0
78404,-81.9672131147541,4,2,12,80,0,1
78751,-81.9672131147541,4,2,12,80,0,1
79878,-81.9672131147541,4,2,12,5,0,1
79964,-81.9672131147541,4,2,12,80,0,1
81265,-81.9672131147541,4,2,12,5,0,1
81352,-81.9672131147541,4,2,12,80,0,1
82392,-98.0392156862745,4,2,12,80,0,1
83086,-70.4225352112676,4,2,13,85,0,1
83259,-70.4225352112676,4,2,12,80,0,1
83346,-100,4,2,12,5,0,1
83433,-61.7283950617284,4,2,12,80,0,1
83693,-100,4,2,12,5,0,1
83779,-98.0392156862745,4,2,12,80,0,1
85167,-54.9450549450549,4,2,12,80,0,1
86554,-81.9672131147541,4,2,12,80,0,1
87595,-98.0392156862745,4,2,12,80,0,1
88462,-70.4225352112676,4,2,12,80,0,1
88982,-98.0392156862745,4,2,12,80,0,1
90716,-100,4,2,12,80,0,0
90889,-70.4225352112676,4,2,12,60,0,1
91149,-100,4,2,12,5,0,1
91236,-70.4225352112676,4,2,12,60,0,1
91496,-100,4,2,12,5,0,1
91583,-54.9450549450549,4,2,12,60,0,1
92103,-108.695652173913,4,2,12,70,0,0
97306,-108.695652173913,4,2,13,70,0,0
97479,-108.695652173913,4,2,12,70,0,0
102855,-250,4,2,12,70,0,0
103115,-250,4,2,12,5,0,0
103201,-125,4,2,11,80,0,0
103895,-125,4,2,12,60,0,0
104589,-125,4,2,12,40,0,0
105282,-125,4,2,12,20,0,0
105976,-125,4,2,12,5,0,0

[Colours]
Combo1 : 155,180,255
Combo2 : 230,230,230
Combo3 : 255,155,180

[HitObjects]
413,331,543,5,6,3:2:0:0:
349,290,716,1,2,0:0:0:0:
260,360,889,2,0,P|215:349|185:340,1,73.599997529297,8|2,0:0|3:2,0:0:0:0:
87,178,1236,5,0,0:0:0:0:
244,276,1410,1,2,3:2:0:0:
57,373,1583,2,0,P|42:333|23:300,1,73.599997529297,8|2,0:0|3:2,0:0:0:0:
188,208,1930,2,0,P|170:240|158:274,1,73.599997529297,2|2,0:1|3:2,0:0:0:0:
10,149,2277,1,8,0:0:0:0:
144,30,2450,1,10,0:0:0:0:
144,30,2537,1,8,0:0:0:0:
144,30,2623,6,0,P|174:50|209:62,1,73.599997529297,0|2,3:2|3:1,0:0:0:0:
256,125,2970,2,0,P|280:108|309:98,1,49.5999980322266,8|0,0:0|0:0,0:0:0:0:
432,299,3317,5,6,3:2:0:0:
378,240,3490,1,2,0:0:0:0:
492,107,3664,2,0,L|469:35,1,73.599997529297,8|2,0:0|3:2,0:0:0:0:
305,104,4011,5,0,3:2:0:0:
399,157,4184,1,2,0:0:0:0:
492,209,4358,1,8,0:0:0:0:
358,7,4531,5,2,3:1:0:0:
385,152,4878,1,2,3:1:0:0:
412,298,5225,1,2,3:1:0:0:
217,359,5571,5,4,0:3:0:0:
196,332,5658,1,4,0:3:0:0:
217,305,5745,2,0,B|303:289|263:363|374:345,1,146.399993968506,4|0,0:3|0:0,0:0:0:0:
412,298,6092,6,0,P|428:271|414:225,1,81.6000004980469,6|0,3:2|0:0,0:0:0:0:
231,137,6438,2,0,P|215:164|229:210,1,81.6000004980469,10|0,0:0|0:0,0:0:0:0:
363,99,6785,1,10,0:0:0:0:
204,0,6959,2,0,P|154:19|116:31,1,81.6000004980469,2|10,3:2|0:0,0:0:0:0:
44,178,7306,5,2,3:2:0:0:
102,117,7479,1,10,0:1:0:0:
189,323,7652,5,2,3:2:0:0:
124,204,7826,1,8,0:0:0:0:
357,343,7999,5,2,3:2:0:0:
196,242,8173,1,8,0:0:0:0:
486,185,8346,5,2,3:1:0:0:
305,257,8519,2,0,P|327:182|344:124,1,122.40000074707,10|0,0:0|0:0,0:0:0:0:
429,47,8866,6,0,B|435:32|454:29|454:29|454:27|454:27|419:15|382:36|405:57|367:76|330:57,1,170.399991419678,12|0,0:0|0:0,0:0:0:0:
267,9,9213,5,10,0:0:0:0:
330,50,9386,1,10,0:0:0:0:
146,164,9560,5,10,0:0:0:0:
259,90,9733,1,10,0:0:0:0:
35,39,9907,5,10,0:0:0:0:
97,241,10080,1,10,0:0:0:0:
97,241,11121,5,2,0:0:0:0:
181,357,11294,2,0,P|171:321|163:286,1,73.599997529297,2|2,0:0|0:0,0:0:0:0:
315,238,11641,5,6,3:2:0:0:
252,282,11814,1,2,0:0:0:0:
362,326,11988,5,10,0:0:0:0:
201,188,12161,1,2,0:0:0:0:
387,81,12334,5,2,3:2:0:0:
442,136,12508,2,0,P|433:171|423:207,1,73.599997529297,2|8,3:2|0:0,0:0:0:0:
512,87,12855,5,10,0:3:0:0:
512,87,12941,1,8,0:3:0:0:
512,87,13028,1,2,3:1:0:0:
360,247,13201,2,0,P|381:275|417:279,1,73.599997529297,2|8,0:0|0:0,0:0:0:0:
298,75,13548,2,0,P|262:78|240:107,1,73.599997529297,2|0,0:0|3:2,0:0:0:0:
314,168,13895,5,2,3:1:0:0:
148,63,14069,2,0,P|157:106|165:143,1,73.599997529297,10|2,0:0|0:0,0:0:0:0:
89,300,14415,5,2,3:1:0:0:
152,256,14589,1,2,0:0:0:0:
42,212,14762,5,10,0:0:0:0:
203,350,14936,1,2,0:0:0:0:
369,149,15109,5,2,3:2:0:0:
318,206,15282,2,0,P|326:241|336:277,1,73.599997529297,2|8,3:2|0:0,0:0:0:0:
225,142,15629,5,10,0:3:0:0:
225,142,15716,1,8,0:3:0:0:
225,142,15803,1,2,3:1:0:0:
401,321,15976,2,0,P|379:349|343:352,1,73.599997529297,2|8,0:0|0:0,0:0:0:0:
443,208,16323,2,0,P|478:211|500:239,1,73.599997529297,2|0,0:0|3:2,0:0:0:0:
337,268,16670,5,6,3:2:0:0:
363,162,16843,1,14,0:0:0:0:
389,56,17016,1,2,0:0:0:0:
189,194,17190,6,0,P|221:203|261:187,1,73.599997529297,6|0,3:1|0:0,0:0:0:0:
157,46,17537,2,0,P|132:69|125:111,1,73.599997529297,8|0,0:0|0:0,0:0:0:0:
304,91,17884,2,0,P|295:57|262:31,1,73.599997529297,0|0,3:2|3:2,0:0:0:0:
216,113,18230,1,10,0:0:0:0:
27,29,18404,5,8,0:3:0:0:
27,29,18490,1,8,0:3:0:0:
27,29,18577,2,0,P|35:64|43:101,1,73.599997529297,2|0,3:1|0:0,0:0:0:0:
173,265,18924,2,0,P|181:230|189:193,1,73.599997529297,8|0,0:0|0:0,0:0:0:0:
0,285,19271,1,2,3:2:0:0:
137,353,19444,5,2,3:1:0:0:
243,327,19618,1,8,0:0:0:0:
349,301,19791,1,0,0:0:0:0:
447,352,19964,6,0,P|411:340|361:322,1,73.599997529297,2|0,3:1|0:0,0:0:0:0:
487,188,20311,2,0,P|501:221|487:253,1,73.599997529297,8|0,0:0|0:0,0:0:0:0:
332,169,20658,2,0,P|317:134|331:102,1,73.599997529297,0|0,3:2|3:2,0:0:0:0:
397,40,20918,1,0,0:0:0:0:
400,31,21005,6,0,P|365:18|330:7,1,73.599997529297,10|2,3:2|0:0,0:0:0:0:
137,192,21352,1,6,3:2:0:0:
217,9,21525,1,2,0:0:0:0:
332,169,21699,1,10,0:0:0:0:
140,92,21872,6,0,B|52:83|99:153|0:143,1,147.199995058594,6|2,3:1|3:2,0:0:0:0:
139,230,22306,5,0,3:2:0:0:
147,238,22392,2,0,L|135:186,1,48,10|0,0:0|0:0,0:0:0:0:
220,200,22739,5,6,3:1:0:0:
390,307,23086,6,0,B|340:324|340:324|327:345|327:345|272:362,2,131.200002001953,2|2|2,3:2|3:2|3:2,0:0:0:0:
425,237,23953,1,6,0:3:0:0:
240,150,24473,6,0,P|258:220|275:292,2,131.200002001953,2|2|2,3:2|3:2|3:2,0:0:0:0:
290,89,25340,1,6,0:3:0:0:
290,89,25427,1,4,0:3:0:0:
290,89,25514,1,2,3:1:0:0:
127,364,25860,5,2,3:2:0:0:
104,331,26034,5,4,0:3:0:0:
109,294,26207,5,2,3:2:0:0:
136,264,26381,5,4,0:3:0:0:
160,233,26554,5,2,3:2:0:0:
162,196,26727,5,4,0:3:0:0:
141,163,26901,5,2,3:1:0:0:
46,227,27161,6,0,P|71:220|83:216,1,32.8000005004883,0|2,0:0|3:2,0:0:0:0:
201,318,27421,5,6,0:3:0:0:
261,264,27595,5,4,3:0:0:0:
350,327,27768,6,0,P|346:343|343:359,1,32.8000005004883,12|0,0:0|0:0,0:0:0:0:
417,377,27941,2,0,P|425:344|430:326,1,32.8000005004883,12|0,0:0|0:0,0:0:0:0:
498,163,28115,1,0,3:2:0:0:
498,163,28201,1,0,3:2:0:0:
498,163,28288,6,0,B|438:183|438:183|422:208|422:208|354:229,1,163.200000996094,6|8,3:2|0:0,0:0:0:0:
496,251,28808,1,4,0:3:0:0:
365,136,28982,2,0,P|372:104|380:73,1,65.6000010009766,2|4,3:2|0:3,0:0:0:0:
447,29,29329,1,8,0:0:0:0:
248,134,29502,1,14,0:3:0:0:
248,134,29589,1,8,0:3:0:0:
248,134,29675,6,0,P|269:216|289:301,2,163.200000996094,2|8|0,3:2|0:0|3:2,0:0:0:0:
354,228,30543,1,8,0:2:0:0:
231,350,30716,2,0,P|257:371|296:366,1,65.6000010009766,10|6,0:0|0:3,0:0:0:0:
182,207,31063,6,0,P|147:203|119:224,1,65.6000010009766,2|4,3:2|0:3,0:0:0:0:
168,284,31410,1,10,0:0:0:0:
48,161,31583,2,0,P|30:209|15:235,1,65.6000010009766,6|0,0:3|3:2,0:0:0:0:
166,82,31930,1,6,0:3:0:0:
238,117,32103,2,0,P|256:165|272:191,1,65.6000010009766,8|6,0:0|0:3,0:0:0:0:
444,297,32450,6,0,B|350:287|400:361|295:350,1,163.200000996094,6|8,3:2|0:0,0:0:0:0:
241,297,32970,2,0,P|226:265|246:223,1,81.6000004980469,6|0,3:1|0:0,0:0:0:0:
430,108,33317,1,0,3:2:0:0:
430,108,33404,1,0,3:2:0:0:
430,108,33490,2,0,P|449:143|428:186,1,86.4000021093751,14|0,0:0|0:0,0:0:0:0:
298,43,33837,6,0,P|343:31|383:16,1,81.6000004980469,6|4,3:1|0:3,0:0:0:0:
266,128,34184,2,0,P|233:94|200:67,1,81.6000004980469,10|4,0:0|0:3,0:0:0:0:
348,114,34531,2,0,P|335:158|328:201,1,81.6000004980469,2|4,3:2|0:3,0:0:0:0:
266,128,34878,1,10,0:0:0:0:
404,249,35051,1,14,0:3:0:0:
404,249,35138,1,8,0:3:0:0:
404,249,35225,6,0,P|381:277|334:274,1,81.6000004980469,0|4,3:2|0:3,0:0:0:0:
200,100,35571,2,0,P|239:98|266:128,1,81.6000004980469,10|4,0:0|0:3,0:0:0:0:
107,291,35918,1,2,3:2:0:0:
167,250,36092,1,8,0:0:0:0:
0,139,36265,1,10,0:0:0:0:
97,217,36438,1,6,0:3:0:0:
97,217,36525,1,0,0:0:0:0:
97,217,36612,6,0,P|80:154|75:137,1,81.6000004980469,0|4,3:2|0:3,0:0:0:0:
224,58,36959,2,0,P|200:31|148:37,1,81.6000004980469,10|4,0:0|0:3,0:0:0:0:
254,193,37306,2,0,P|293:194|321:166,1,81.6000004980469,2|4,3:2|0:3,0:0:0:0:
475,45,37652,1,10,0:0:0:0:
406,188,37826,1,12,0:3:0:0:
406,188,37912,1,8,0:3:0:0:
406,188,37999,6,0,P|395:136|388:103,1,81.6000004980469,2|4,3:2|0:3,0:0:0:0:
254,193,38346,1,10,0:0:0:0:
477,266,38519,2,0,P|488:214|495:181,1,81.6000004980469,6|0,0:3|3:2,0:0:0:0:
357,276,38866,1,12,0:0:0:0:
508,345,39040,2,0,B|439:337|475:391|398:383,1,122.40000074707,12|0,0:0|0:0,0:0:0:0:
277,319,39386,6,0,B|276:331|266:337|266:337|245:305|270:283,1,81.6000004980469,6|4,3:1|0:3,0:0:0:0:
383,141,39733,2,0,B|392:136|404:141|404:141|386:175|354:164,1,81.6000004980469,8|4,0:0|0:3,0:0:0:0:
201,129,40080,2,0,B|187:123|190:110|190:110|228:108|235:141,1,81.6000004980469,2|4,3:2|0:3,0:0:0:0:
282,207,40427,1,8,0:0:0:0:
158,301,40600,1,14,0:3:0:0:
158,301,40687,1,8,0:3:0:0:
158,301,40774,6,0,P|170:252|180:216,1,81.6000004980469,0|4,3:2|0:3,0:0:0:0:
1,106,41121,2,0,P|13:155|23:191,1,81.6000004980469,8|4,0:0|0:3,0:0:0:0:
136,45,41467,1,0,3:2:0:0:
70,0,41641,1,8,0:0:0:0:
196,157,41814,1,10,0:0:0:0:
126,196,41988,1,6,0:3:0:0:
126,196,42074,1,0,0:0:0:0:
126,196,42161,6,0,P|106:163|128:123,1,81.6000004980469,2|4,3:2|0:3,0:0:0:0:
237,249,42508,1,10,0:0:0:0:
105,368,42681,2,0,P|70:346|33:329,1,81.6000004980469,6|0,0:3|3:2,0:0:0:0:
131,265,43028,1,6,0:3:0:0:
263,384,43201,2,0,P|297:362|334:345,1,81.6000004980469,8|6,0:0|0:3,0:0:0:0:
462,209,43548,6,0,P|441:284|423:382,1,163.200000996094,6|8,3:2|0:0,0:0:0:0:
315,235,44069,1,6,3:1:0:0:
512,147,44242,6,0,P|481:129|455:132,2,54.4000003320312,8|8|8,0:0|0:0|0:0,0:0:0:0:
451,39,44589,2,0,P|419:56|409:80,2,54.4000003320312,0|0|0,3:2|3:2|3:2,0:0:0:0:
302,0,44936,6,0,P|318:59|332:137,1,131.200002001953,6|8,3:2|0:0,0:0:0:0:
240,77,45456,1,2,0:0:0:0:
385,188,45629,2,0,B|336:206|336:206|325:225|325:225|271:243,1,131.200002001953,2|0,3:2|0:0,0:0:0:0:
203,200,46149,1,10,0:0:0:0:
376,384,46323,2,0,B|439:331|390:266|390:266,1,131.200002001953,2|8,0:0|0:0,0:0:0:0:
332,318,46843,1,2,0:0:0:0:
512,212,47016,2,0,P|500:248|490:279,1,65.6000010009766,2|0,3:2|3:2,0:0:0:0:
479,120,47363,5,8,0:0:0:0:
484,112,47450,1,8,0:0:0:0:
489,104,47537,1,10,0:0:0:0:
495,96,47623,1,8,0:0:0:0:
500,90,47710,6,0,P|461:70|439:55,1,65.6000010009766,2|2,3:2|0:0,0:0:0:0:
331,230,48057,2,0,P|359:212|389:198,1,65.6000010009766,10|2,0:0|0:0,0:0:0:0:
283,64,48404,1,2,3:2:0:0:
229,121,48577,2,0,P|243:160|260:186,1,65.6000010009766,0|2,3:2|0:0,0:0:0:0:
102,280,48924,2,0,P|88:319|71:345,1,65.6000010009766,10|0,0:0|0:0,0:0:0:0:
168,205,49271,1,2,3:2:0:0:
105,163,49444,1,10,0:0:0:0:
208,319,49618,2,0,P|238:303|273:294,1,65.6000010009766,2|0,0:0|3:2,0:0:0:0:
391,192,49964,1,2,3:2:0:0:
217,86,50138,5,10,0:0:0:0:
209,87,50225,1,8,0:0:0:0:
201,90,50311,1,10,0:0:0:0:
192,94,50398,1,8,0:0:0:0:
185,97,50485,6,0,P|202:159|221:237,2,131.200002001953,6|8|0,3:2|0:0|3:2,0:0:0:0:
294,177,51352,1,0,3:2:0:0:
155,280,51525,2,0,P|176:303|221:306,1,65.6000010009766,2|8,0:0|0:0,0:0:0:0:
147,180,51872,2,0,B|69:171|110:233|23:223,2,131.200002001953,2|10|2,0:0|0:0|3:2,0:0:0:0:
207,227,52739,1,0,3:2:0:0:
350,116,52912,5,10,0:0:0:0:
360,114,52999,1,8,0:0:0:0:
369,112,53086,1,8,0:0:0:0:
377,108,53173,1,8,0:0:0:0:
387,106,53259,6,0,B|348:140|348:140|381:223,1,131.200002001953,6|8,3:2|0:0,0:0:0:0:
457,151,53779,2,0,P|462:130|466:113,2,32.8000005004883,8|8|2,0:3|0:0|3:2,0:0:0:0:
296,212,54126,1,4,3:1:0:0:
442,298,54300,2,0,P|437:277|433:260,2,32.8000005004883,12|8|8,0:0|0:0|0:3,0:0:0:0:
495,354,54647,5,10,3:2:0:0:
360,281,54820,1,8,0:3:0:0:
360,281,54907,1,8,0:3:0:0:
360,281,54993,1,8,0:0:0:0:
478,192,55167,1,8,0:3:0:0:
346,361,55340,1,0,3:0:0:0:
277,163,55514,1,0,3:0:0:0:
442,298,55687,6,0,P|432:256|429:242,1,40.8000002490234,0|0,3:0|0:0,0:0:0:0:
478,192,55860,2,0,P|482:172|487:152,1,40.8000002490234,2|0,3:0|0:0,0:0:0:0:
449,13,56034,6,0,B|386:76|311:51|311:51,1,147.199995058594,6|4,3:1|3:0,0:0:0:0:
328,226,56554,1,2,0:0:0:0:
348,151,56727,2,0,B|261:127|209:187|209:187,1,147.199995058594,6|4,3:0|3:0,0:0:0:0:
90,197,57248,5,2,0:0:0:0:
28,238,57421,2,0,P|48:135|56:91,1,147.199995058594,6|0,3:0|0:0,0:0:0:0:
197,258,57941,1,2,0:0:0:0:
156,322,58115,2,0,B|71:312|116:379|21:369,1,147.199995058594,6|4,3:0|3:0,0:0:0:0:
99,246,58635,1,6,0:3:0:0:
246,370,58808,6,0,P|256:320|261:294,1,73.599997529297,6|0,3:0|0:0,0:0:0:0:
400,156,59155,2,0,P|407:192|414:228,1,73.599997529297,6|0,3:0|0:0,0:0:0:0:
235,200,59502,6,0,P|273:176|308:189,1,73.599997529297,6|0,3:0|0:0,0:0:0:0:
446,329,59849,2,0,P|410:333|382:311,1,73.599997529297,6|0,3:0|0:0,0:0:0:0:
512,209,60196,6,0,P|499:278|486:370,1,147.199995058594,6|6,3:0|3:0,0:0:0:0:
347,240,60716,1,2,0:3:0:0:
274,384,60889,1,4,3:0:0:0:
432,239,61063,1,0,3:2:0:0:
432,239,61149,1,0,3:2:0:0:
432,239,61236,2,0,P|419:203|412:164,1,73.599997529297,4|2,3:1|0:0,0:0:0:0:
504,89,61583,6,0,B|405:104|350:15|350:15,2,163.200000996094,6|10|2,3:2|0:0|3:2,0:0:0:0:
331,161,62450,1,0,3:2:0:0:
496,254,62623,2,0,P|483:218|476:179,1,73.599997529297,10|0,0:0|0:0,0:0:0:0:
357,331,62970,5,2,3:2:0:0:
424,366,63144,1,0,3:2:0:0:
309,243,63317,2,0,B|348:249|383:217|383:217|434:227|413:279,1,163.200000996094,8|2,0:0|3:2,0:0:0:0:
254,355,63837,1,0,3:2:0:0:
195,308,64011,2,0,P|177:281|202:233,1,81.6000004980469,8|2,0:0|0:0,0:0:0:0:
375,87,64358,5,6,3:2:0:0:
296,73,64531,1,0,0:0:0:0:
283,152,64704,1,8,0:0:0:0:
361,165,64878,1,0,0:0:0:0:
477,239,65051,5,8,3:0:0:0:
471,244,65138,1,8,0:3:0:0:
465,249,65225,1,8,0:3:0:0:
458,254,65311,1,8,0:3:0:0:
452,261,65398,6,0,P|461:291|466:318,1,48.799997989502,8|8,3:2|0:0,0:0:0:0:
393,327,65571,2,0,P|388:303|381:280,1,48.799997989502,8|8,0:0|0:0,0:0:0:0:
292,133,65745,5,4,3:2:0:0:
361,165,65918,1,0,0:0:0:0:
204,321,66092,5,0,0:0:0:0:
267,288,66265,1,0,0:0:0:0:
108,164,66438,6,0,P|119:214|126:250,1,81.6000004980469,4|0,3:2|0:0,0:0:0:0:
46,226,66785,5,2,0:0:0:0:
190,196,66959,1,2,0:0:0:0:
16,93,67132,6,0,B|118:109|136:31|136:31,1,146.399993968506,6|0,3:2|0:0,0:0:0:0:
131,25,67479,1,10,0:0:0:0:
309,179,67652,2,0,B|309:193|294:203|294:203|265:168|292:143,1,97.5999959790041,2|0,0:0|3:2,0:0:0:0:
359,90,67999,1,0,3:2:0:0:
190,196,68173,1,10,0:0:0:0:
426,323,68346,1,10,0:3:0:0:
431,331,68433,1,8,0:3:0:0:
436,340,68519,6,0,L|406:190,1,146.399993968506,2|0,3:1|0:0,0:0:0:0:
462,147,68866,1,10,0:0:0:0:
342,300,69040,2,0,P|307:311|262:274,1,97.5999959790041,2|0,0:0|3:2,0:0:0:0:
137,116,69386,1,2,3:1:0:0:
325,219,69560,1,10,0:0:0:0:
115,344,69733,1,2,0:0:0:0:
20,220,69907,6,0,B|103:210|59:277|153:267,1,146.399993968506,2|0,3:1|0:0,0:0:0:0:
206,319,70253,1,10,0:0:0:0:
346,149,70427,2,0,P|309:139|265:175,1,97.5999959790041,2|0,0:0|3:2,0:0:0:0:
395,295,70774,2,0,P|429:327|475:319,1,97.5999959790041,2|8,3:2|0:0,0:0:0:0:
454,212,71121,1,10,0:3:0:0:
300,355,71294,6,0,P|286:310|265:278,1,81.6000004980469,2|0,3:1|0:0,0:0:0:0:
370,212,71641,2,0,P|381:173|404:139,1,81.6000004980469,8|0,0:0|0:0,0:0:0:0:
245,42,71988,6,0,B|273:87|242:118|213:101|179:152|228:191,1,170.399991419678,6|0,3:2|0:0,0:0:0:0:
284,185,72334,2,0,B|292:117|240:99|215:134|149:93|185:22,1,218.400007331543,14|0,0:0|0:0,0:0:0:0:
352,18,72681,6,0,B|408:38|408:38|426:65|426:65|501:91,1,163.200000996094,6|8,3:2|0:0,0:0:0:0:
370,155,73201,1,0,0:0:0:0:
501,247,73375,2,0,P|520:220|501:175,1,81.6000004980469,2|0,3:2|3:2,0:0:0:0:
334,268,73722,2,0,P|315:295|334:340,1,81.6000004980469,10|8,0:0|0:3,0:0:0:0:
416,249,74069,5,2,3:1:0:0:
294,192,74242,1,2,0:0:0:0:
172,135,74415,1,10,0:0:0:0:
36,164,74589,6,0,B|129:152|80:228|186:217,1,163.200000996094,2|2,0:0|3:1,0:0:0:0:
347,16,75109,1,10,0:0:0:0:
172,135,75282,1,2,0:0:0:0:
378,254,75456,6,0,P|366:193|359:162,1,81.6000004980469,2|0,3:1|0:0,0:0:0:0:
253,0,75803,2,0,P|241:61|234:92,1,81.6000004980469,10|0,0:0|0:0,0:0:0:0:
186,238,76149,6,0,P|225:240|254:212,1,81.6000004980469,2|0,3:2|3:2,0:0:0:0:
415,41,76496,2,0,P|395:18|344:17,1,81.6000004980469,10|0,0:0|0:0,0:0:0:0:
470,193,76843,6,0,P|488:105|503:33,1,163.200000996094,6|8,3:2|0:0,0:0:0:0:
287,226,77363,2,0,B|360:224|382:169|382:169|361:219|416:263,1,211.199999355469,6|10,3:1|0:1,0:0:0:0:
502,312,77884,6,0,P|473:324|448:337,1,52.7999998388672,0|0,3:2|3:2,0:0:0:0:
338,297,78057,2,0,P|309:309|284:322,1,52.7999998388672,0|0,3:2|3:2,0:0:0:0:
181,361,78230,6,0,P|190:348|190:368,1,48.799997989502,2|0,3:1|0:0,0:0:0:0:
79,324,78404,5,4,3:2:0:0:
139,280,78577,1,10,0:0:0:0:
56,164,78751,2,0,B|42:164|32:149|32:149|67:120|92:147,1,97.5999959790041,2|0,0:0|3:2,0:0:0:0:
363,239,79097,1,0,3:2:0:0:
224,62,79271,1,10,0:0:0:0:
139,280,79444,1,10,0:3:0:0:
135,286,79531,1,8,0:3:0:0:
131,294,79618,6,0,B|211:298|268:365|268:365,1,146.399993968506,2|0,3:1|0:0,0:0:0:0:
320,311,79964,1,10,0:0:0:0:
257,156,80138,2,0,P|228:187|238:239,1,97.5999959790041,2|0,0:0|3:2,0:0:0:0:
357,156,80485,1,2,3:1:0:0:
210,77,80658,1,10,0:0:0:0:
312,227,80832,1,2,0:0:0:0:
122,368,81005,6,0,P|134:302|144:221,1,146.399993968506,2|0,3:1|0:0,0:0:0:0:
102,164,81352,1,10,0:0:0:0:
250,298,81525,2,0,P|284:330|330:322,1,97.5999959790041,2|0,0:0|3:2,0:0:0:0:
438,130,81872,2,0,P|391:121|357:153,1,97.5999959790041,2|8,3:2|0:0,0:0:0:0:
464,270,82219,1,10,0:3:0:0:
267,115,82392,6,0,P|279:165|288:210,1,81.6000004980469,2|0,3:1|0:0,0:0:0:0:
115,293,82739,2,0,P|127:343|136:388,1,81.6000004980469,8|0,0:0|0:0,0:0:0:0:
192,160,83086,6,0,B|83:198|62:89|62:89,1,170.399991419678,6|0,3:2|0:0,0:0:0:0:
88,36,83433,2,0,B|86:34|160:120|80:214,1,194.400004746094,12|0,0:2|0:0,0:0:0:0:
14,250,83779,6,0,P|42:287|95:281,1,81.6000004980469,4|0,3:1|0:0,0:0:0:0:
252,120,84126,2,0,P|212:127|191:160,1,81.6000004980469,8|0,0:0|0:0,0:0:0:0:
324,359,84473,6,0,P|314:307|307:274,1,81.6000004980469,2|0,3:2|3:2,0:0:0:0:
499,90,84820,2,0,P|489:142|482:175,1,81.6000004980469,10|8,0:0|0:3,0:0:0:0:
293,37,85167,6,0,B|327:-7|389:-6|435:46|409:149|309:109|335:214,1,291.200009775391,2|10,3:1|0:0,0:0:0:0:
293,37,85687,2,0,B|242:13|187:42|170:109|240:189|311:108|335:213,1,291.200009775391,2|2,0:0|3:1,0:0:0:0:
148,362,86207,1,10,0:0:0:0:
253,230,86381,1,2,0:0:0:0:
43,229,86554,6,0,B|155:216|95:305|216:293,2,195.199991958008,2|8|0,3:1|0:0|3:2,0:0:0:0:
109,144,87421,1,0,3:2:0:0:
253,230,87595,2,0,P|274:197|249:152,1,81.6000004980469,10|0,0:0|0:0,0:0:0:0:
145,37,87941,6,0,B|245:78|297:-11|297:-11,1,163.200000996094,6|10,3:2|0:0,0:0:0:0:
459,175,88462,2,0,B|408:142|348:157|348:157|296:97|354:62,1,227.199988559571,4|0,3:1|3:2,0:0:0:0:
473,194,88982,1,10,0:0:0:0:
347,275,89329,6,0,B|251:263|302:339|199:329,1,163.200000996094,4|8,3:2|0:0,0:0:0:0:
139,373,89849,1,0,0:0:0:0:
25,236,90022,2,0,L|33:195,2,40.8000002490234,8|8|0,0:0|0:0|3:2,0:0:0:0:
83,320,90369,2,0,L|118:137,1,163.200000996094,12|0,0:1|0:0,0:0:0:0:
49,74,90889,6,0,B|44:62|23:57|23:57|61:35|95:56|73:85|115:115|152:88|156:65|158:73|159:77|160:81|169:79|164:81|157:69,1,170.399991419678,10|0,0:0|0:0,0:0:0:0:
275,149,91236,2,0,B|184:85|250:-5|250:-5,1,170.399991419678,10|0,0:0|0:0,0:0:0:0:
324,47,91583,6,2,L|320:85,10,36.4000012219239,10|2|2|2|2|2|2|2|2|2|2,0:0|0:0|0:0|0:0|0:0|0:0|0:0|0:0|0:0|0:0|0:0,0:0:0:0:
409,208,92103,5,6,3:2:0:0:
346,164,92277,1,2,0:0:0:0:
456,120,92450,5,10,0:0:0:0:
295,258,92623,1,2,0:0:0:0:
226,88,92797,5,2,3:2:0:0:
171,143,92970,2,0,P|180:178|190:214,1,73.599997529297,2|8,3:2|0:0,0:0:0:0:
94,173,93317,5,10,0:3:0:0:
94,173,93404,1,8,0:3:0:0:
94,173,93490,1,2,3:1:0:0:
267,289,93664,2,0,P|246:317|210:321,1,73.599997529297,2|8,0:0|0:0,0:0:0:0:
346,164,94011,2,0,P|381:167|403:195,1,73.599997529297,2|0,0:0|3:2,0:0:0:0:
505,364,94358,5,2,3:1:0:0:
344,249,94531,2,0,P|353:292|361:329,1,73.599997529297,10|2,0:0|0:0,0:0:0:0:
458,199,94878,5,2,3:1:0:0:
395,155,95051,1,2,0:0:0:0:
505,111,95225,5,10,0:0:0:0:
344,249,95398,1,2,0:0:0:0:
178,48,95571,5,2,3:2:0:0:
229,105,95745,2,0,P|221:140|211:176,1,73.599997529297,2|8,3:2|0:0,0:0:0:0:
305,68,96092,5,10,0:3:0:0:
305,68,96178,1,8,0:3:0:0:
305,68,96265,1,2,3:1:0:0:
144,225,96438,2,0,P|166:253|202:256,1,73.599997529297,2|8,0:0|0:0,0:0:0:0:
57,88,96785,2,0,P|22:91|0:119,1,73.599997529297,2|0,0:0|3:2,0:0:0:0:
75,261,97132,5,6,3:2:0:0:
101,155,97306,1,14,0:0:0:0:
127,49,97479,1,2,0:0:0:0:
316,256,97652,6,0,P|283:269|248:261,1,73.599997529297,6|0,3:1|0:0,0:0:0:0:
325,99,97999,2,0,P|353:123|363:158,1,73.599997529297,8|0,0:0|0:0,0:0:0:0:
183,173,98346,2,0,P|189:138|216:113,1,73.599997529297,0|0,3:2|3:2,0:0:0:0:
275,180,98693,1,10,0:0:0:0:
146,302,98866,5,8,0:3:0:0:
146,302,98953,1,8,0:3:0:0:
146,302,99040,2,0,P|105:311|74:331,1,73.599997529297,2|0,3:1|0:0,0:0:0:0:
216,112,99386,2,0,P|175:103|144:83,1,73.599997529297,8|0,0:0|0:0,0:0:0:0:
246,260,99733,1,2,3:2:0:0:
318,101,99907,5,2,3:1:0:0:
429,176,100080,1,8,0:0:0:0:
352,285,100253,1,0,0:0:0:0:
466,366,100427,6,0,P|454:330|436:280,1,73.599997529297,2|0,3:1|0:0,0:0:0:0:
269,190,100774,2,0,P|257:226|239:276,1,73.599997529297,8|0,0:0|0:0,0:0:0:0:
377,124,101121,2,0,P|332:99|312:81,1,73.599997529297,0|0,3:2|3:2,0:0:0:0:
185,205,101381,1,0,0:0:0:0:
181,213,101467,2,0,P|149:229|120:252,1,73.599997529297,10|2,3:2|0:0,0:0:0:0:
185,306,101814,5,6,3:2:0:0:
288,165,101988,1,2,0:0:0:0:
136,86,102161,1,10,0:0:0:0:
273,264,102334,6,0,B|356:247|326:318|403:306|403:306|429:306|424:307|419:308|418:303|417:297|415:290,1,147.199995058594,6|2,3:1|3:2,0:0:0:0:
472,230,102768,1,0,3:2:0:0:
479,224,102855,2,0,L|471:275,1,48,10|0,0:0|0:0,0:0:0:0:
512,360,103201,5,4,3:2:0:0:
256,192,103288,12,0,105976,0:0:0:0:
