osu file format v14

[General]
AudioFilename: audio.mp3
AudioLeadIn: 0
PreviewTime: 66785
Countdown: 0
SampleSet: Soft
StackLeniency: 0.4
Mode: 0
LetterboxInBreaks: 0
WidescreenStoryboard: 1

[Editor]
DistanceSpacing: 1.2
BeatDivisor: 4
GridSize: 16
TimelineZoom: 1.7

[Metadata]
Title:Tokimeki * Decoration
TitleUnicode:ときめき*Decoration
Artist:KyoKa
ArtistUnicode:KyoKa
Creator:StaroaX
Version:Crissa's Hard * Days
Source:あまいろショコラータ2
Tags:あまショコ amachoco amairo chocolata Chocolate op opening short ver. version visual novel japanese video game size pop j-pop jpop Eroge Visual Novel My Favorite KEMOMIMI Adventure cabbage soft きゃべつそふと しらたま Shiratama 梱枝りこ korie riko 原瀬今日香 Harase Kyouka Crissa [-Crissaegrim-] Eula- Kyutei -Magic-
BeatmapID:2932474
BeatmapSetID:1416947

[Difficulty]
HPDrainRate:4.5
CircleSize:4
OverallDifficulty:7.2
ApproachRate:8
SliderMultiplier:1.4
SliderTickRate:1

[Events]
//Background and Video events
0,0,"Hand-edited bg cuz no decent quality cgs sadge.png",0,0
Video,0,"amachoco-op-but-sh1t-qual.mp4"
//Break Periods
//Storyboard Layer 0 (Background)
//Storyboard Layer 1 (Fail)
//Storyboard Layer 2 (Pass)
//Storyboard Layer 3 (Foreground)
//Storyboard Layer 4 (Overlay)
//Storyboard Sound Samples

[TimingPoints]
543,346.820809248555,4,2,12,60,1,0
543,-100,4,2,12,60,0,0
5571,-100,4,2,12,50,0,0
5745,-100,4,2,13,50,0,0
6005,-100,4,2,13,5,0,0
6092,-83.3333333333333,4,2,12,70,0,0
8779,-83.3333333333333,4,2,12,5,0,0
8866,-83.3333333333333,4,2,12,70,0,0
9126,-83.3333333333333,4,2,12,5,0,0
9213,-83.3333333333333,4,2,12,70,0,0
9300,-100,4,2,12,70,0,0
9386,-100,4,2,12,70,0,0
9473,-100,4,2,12,70,0,0
9560,-100,4,2,12,70,0,0
9647,-100,4,2,12,70,0,0
9733,-100,4,2,12,70,0,0
9820,-100,4,2,12,70,0,0
9907,-100,4,2,12,70,0,0
9993,-100,4,2,12,70,0,0
10080,-100,4,2,12,70,0,0
10167,-100,4,2,12,70,0,0
10253,-100,4,2,12,70,0,0
11121,-100,4,2,12,55,0,0
11641,-83.3333333333333,4,2,12,70,0,0
16843,-83.3333333333333,4,2,13,70,0,0
17016,-83.3333333333333,4,2,12,70,0,0
22392,-83.3333333333333,4,2,12,70,0,0
22652,-100,4,2,12,5,0,0
22739,-100,4,2,12,50,0,0
27768,-100,4,2,12,55,0,0
27941,-100,4,2,13,55,0,0
28115,-100,4,2,12,50,0,0
28288,-100,4,2,12,60,0,0
32450,-100,4,2,12,55,0,0
33490,-100,4,2,12,55,0,0
33751,-100,4,2,12,5,0,0
33837,-90.9090909090909,4,2,12,60,0,0
39040,-90.9090909090909,4,2,13,60,0,0
39213,-90.9090909090909,4,2,12,60,0,0
43548,-90.9090909090909,4,2,12,55,0,0
44155,-100,4,2,12,55,0,0
44242,-100,4,2,12,55,0,0
44936,-100,4,2,12,50,0,0
53259,-100,4,2,12,50,0,0
56034,-111.111111111111,4,2,11,45,0,0
56207,-111.111111111111,4,2,12,45,0,0
57074,-111.111111111111,4,2,11,45,0,0
57248,-111.111111111111,4,2,12,45,0,0
58462,-111.111111111111,4,2,11,45,0,0
58635,-111.111111111111,4,2,12,45,0,0
60196,-111.111111111111,4,2,11,50,0,0
60543,-111.111111111111,4,2,11,50,0,0
60889,-100,4,2,11,50,0,0
61063,-100,4,2,12,45,0,0
61236,-111.111111111111,4,2,12,45,0,0
61583,-100,4,2,12,60,0,0
64358,-90.9090909090909,4,2,12,60,0,0
65745,-90.9090909090909,4,2,12,55,0,0
66352,-90.9090909090909,4,2,12,55,0,0
66438,-90.9090909090909,4,2,12,55,0,0
67132,-90.9090909090909,4,2,12,80,0,1
67392,-90.9090909090909,4,2,12,5,0,1
67479,-90.9090909090909,4,2,12,80,0,1
68779,-90.9090909090909,4,2,12,5,0,1
68866,-90.9090909090909,4,2,12,80,0,1
70167,-90.9090909090909,4,2,12,5,0,1
70253,-90.9090909090909,4,2,12,80,0,1
72248,-90.9090909090909,4,2,12,5,0,1
72334,-90.9090909090909,4,2,13,80,0,1
72595,-90.9090909090909,4,2,13,5,0,1
72681,-90.9090909090909,4,2,12,80,0,1
78230,-90.9090909090909,4,2,12,60,0,0
78317,-90.9090909090909,4,2,12,5,0,0
78404,-90.9090909090909,4,2,12,80,0,1
78751,-90.9090909090909,4,2,12,80,0,1
79878,-90.9090909090909,4,2,12,5,0,1
79964,-90.9090909090909,4,2,12,80,0,1
81265,-90.9090909090909,4,2,12,5,0,1
81352,-90.9090909090909,4,2,12,80,0,1
83086,-90.9090909090909,4,2,13,85,0,1
83259,-90.9090909090909,4,2,12,80,0,1
83346,-90.9090909090909,4,2,12,5,0,1
83433,-90.9090909090909,4,2,12,80,0,1
83693,-90.9090909090909,4,2,12,5,0,1
83779,-90.9090909090909,4,2,12,80,0,1
85167,-76.9230769230769,4,2,12,80,0,1
86207,-90.9090909090909,4,2,12,80,0,1
90716,-90.9090909090909,4,2,12,80,0,0
90889,-100,4,2,12,60,0,1
91149,-100,4,2,12,5,0,1
91236,-100,4,2,12,60,0,1
91496,-100,4,2,12,5,0,1
91583,-100,4,2,12,60,0,1
92103,-100,4,2,12,70,0,0
97306,-100,4,2,13,70,0,0
97479,-100,4,2,12,70,0,0
102855,-100,4,2,12,70,0,0
103115,-100,4,2,12,5,0,0
103201,-100,4,2,11,80,0,0
103895,-100,4,2,12,60,0,0
104589,-100,4,2,12,40,0,0
105282,-100,4,2,12,20,0,0
105976,-100,4,2,12,5,0,0

[Colours]
Combo1 : 155,180,255
Combo2 : 230,230,230
Combo3 : 255,155,180

[HitObjects]
109,215,543,5,6,3:2:0:0:
178,261,716,2,0,P|224:247|259:240,1,70,2|8,0:0|0:0,0:0:0:0:
332,194,1063,2,0,P|293:174|265:152,1,70,2|0,3:2|0:0,0:0:0:0:
231,90,1410,1,2,3:2:0:0:
231,90,1583,1,8,0:0:0:0:
285,26,1756,6,0,P|319:20|359:17,1,70,2|2,3:2|0:1,0:0:0:0:
454,49,2103,2,0,P|407:84|389:102,1,70,2|8,3:2|0:0,0:0:0:0:
364,172,2450,1,10,0:0:0:0:
364,172,2537,1,8,0:0:0:0:
364,172,2623,1,0,3:2:0:0:
294,124,2797,1,2,3:1:0:0:
254,232,2970,1,8,0:0:0:0:
103,128,3317,5,6,3:2:0:0:
53,195,3490,2,0,P|64:248|73:276,1,70,2|8,0:0|0:0,0:0:0:0:
154,281,3837,1,2,3:2:0:0:
154,281,4011,1,0,3:2:0:0:
168,363,4184,2,0,P|205:367|241:378,1,70,2|8,0:0|0:0,0:0:0:0:
308,332,4531,5,2,3:1:0:0:
289,197,4878,1,2,3:1:0:0:
270,62,5225,1,2,3:1:0:0:
298,215,5571,2,0,L|288:267,2,35,4|4|4,0:3|0:3|0:3,0:0:0:0:
400,73,6092,6,0,P|412:113|423:164,1,83.9999974365235,6|0,3:2|0:0,0:0:0:0:
507,205,6438,2,0,P|489:259|473:292,1,83.9999974365235,10|0,0:0|0:0,0:0:0:0:
397,344,6785,1,10,0:0:0:0:
397,344,6959,2,0,P|354:340|336:290,1,83.9999974365235,2|10,3:2|0:0,0:0:0:0:
347,207,7306,6,0,P|324:172|284:170,1,83.9999974365235,2|10,3:2|0:1,0:0:0:0:
205,233,7652,1,2,3:2:0:0:
284,170,7826,1,8,0:0:0:0:
223,89,7999,2,0,P|182:83|136:69,1,83.9999974365235,2|8,3:2|0:0,0:0:0:0:
62,8,8346,1,2,3:1:0:0:
14,128,8519,1,10,0:0:0:0:
14,128,8866,6,0,P|75:126|72:231,1,167.999994873047,12|10,0:0|0:0,0:0:0:0:
7,263,9386,1,10,0:0:0:0:
7,263,9560,1,10,0:0:0:0:
75,325,9733,1,10,0:0:0:0:
167,274,9907,1,10,0:0:0:0:
232,363,10080,1,10,0:0:0:0:
232,363,11121,5,2,0:0:0:0:
224,279,11294,2,0,P|234:225|243:197,1,70,2|2,0:0|0:0,0:0:0:0:
320,316,11641,5,6,3:2:0:0:
392,259,11814,1,2,0:0:0:0:
331,188,11988,2,0,P|315:129|310:97,1,83.9999974365235,10|2,0:0|0:0,0:0:0:0:
405,148,12334,1,2,3:2:0:0:
446,65,12508,2,0,P|481:32|515:7,1,83.9999974365235,2|8,3:2|0:0,0:0:0:0:
377,19,12855,1,10,0:3:0:0:
377,19,12941,1,8,0:3:0:0:
377,19,13028,5,2,3:1:0:0:
292,56,13201,2,0,P|248:39|197:28,1,83.9999974365235,2|8,0:0|0:0,0:0:0:0:
125,134,13548,2,0,P|169:117|220:106,1,83.9999974365235,2|0,0:0|3:2,0:0:0:0:
234,196,13895,1,2,3:1:0:0:
145,227,14069,2,0,L|131:327,1,83.9999974365235,10|2,0:0|0:0,0:0:0:0:
191,381,14415,5,2,3:1:0:0:
225,294,14589,1,2,0:0:0:0:
300,346,14762,2,0,P|349:356|391:360,1,83.9999974365235,10|2,0:0|0:0,0:0:0:0:
301,247,15109,1,2,3:2:0:0:
379,199,15282,2,0,P|425:184|481:172,1,83.9999974365235,2|8,3:2|0:0,0:0:0:0:
287,157,15629,1,10,0:3:0:0:
287,157,15716,1,8,0:3:0:0:
287,157,15803,5,2,3:1:0:0:
234,81,15976,2,0,P|248:25|283:15,1,83.9999974365235,2|8,0:0|0:0,0:0:0:0:
360,13,16323,2,0,P|412:37|439:55,1,83.9999974365235,2|0,0:0|3:2,0:0:0:0:
458,141,16670,1,6,3:2:0:0:
374,180,16843,2,0,P|355:225|373:269,1,83.9999974365235,14|2,0:0|0:0,0:0:0:0:
485,316,17190,6,0,B|427:324|427:324|414:339|414:339|314:355,2,167.999994873047,6|8|0,3:1|0:0|3:2,0:0:0:0:
419,135,18230,2,0,L|394:232,1,83.9999974365235,10|8,0:0|0:3,0:0:0:0:
385,260,18490,1,8,0:3:0:0:
385,260,18577,6,0,B|309:306|305:228|221:268,1,167.999994873047,2|8,3:1|0:0,0:0:0:0:
48,208,19271,2,0,P|108:204|129:223,1,83.9999974365235,2|2,3:2|3:1,0:0:0:0:
143,307,19618,1,8,0:0:0:0:
224,141,19964,6,0,P|216:84|125:115,2,167.999994873047,2|8|0,3:1|0:0|3:2,0:0:0:0:
143,307,21005,1,10,3:2:0:0:
220,256,21178,1,2,0:0:0:0:
321,302,21352,5,6,3:2:0:0:
321,302,21525,2,0,P|332:358|334:395,1,83.9999974365235,2|10,0:0|0:0,0:0:0:0:
425,294,21872,2,0,P|433:236|337:150,1,167.999994873047,6|2,3:1|3:2,0:0:0:0:
324,153,22306,1,0,3:2:0:0:
324,153,22392,2,0,P|290:101|376:85,1,167.999994873047,10|6,0:0|3:1,0:0:0:0:
460,270,23086,6,0,B|388:282|401:226|327:239,2,140,2|2|2,3:2|3:2|3:2,0:0:0:0:
503,333,23953,1,6,0:3:0:0:
451,107,24473,6,0,P|381:113|371:175,2,140,2|2|2,3:2|3:2|3:2,0:0:0:0:
512,168,25340,1,6,0:3:0:0:
512,168,25427,1,4,0:3:0:0:
512,168,25514,1,2,3:1:0:0:
404,277,25860,6,0,L|257:237,2,140,2|2|2,3:2|3:2|3:2,0:0:0:0:
271,357,26901,2,0,L|146:265,1,140,2|2,3:1|3:2,0:0:0:0:
79,304,27421,2,0,L|69:222,1,70,6|4,0:3|3:0,0:0:0:0:
55,132,27768,1,12,0:0:0:0:
70,234,27941,1,12,0:0:0:0:
147,194,28115,1,0,3:2:0:0:
147,194,28201,1,0,3:2:0:0:
147,194,28288,6,0,B|213:163|216:221|285:192,1,140,6|8,3:2|0:0,0:0:0:0:
179,59,28982,2,0,P|229:95|305:104,1,140,2|8,3:2|0:0,0:0:0:0:
382,70,29502,1,14,0:3:0:0:
382,70,29589,1,8,0:3:0:0:
382,70,29675,6,0,P|422:79|396:173,2,140,2|8|0,3:2|0:0|3:2,0:0:0:0:
305,125,30543,1,8,0:2:0:0:
234,65,30716,2,0,P|195:53|157:43,1,70,10|6,0:0|0:3,0:0:0:0:
91,108,31063,6,0,P|136:112|168:195,1,140,2|10,3:2|0:0,0:0:0:0:
113,254,31583,2,0,P|88:284|69:316,1,70,6|0,0:3|3:2,0:0:0:0:
123,377,31930,1,6,0:3:0:0:
206,316,32103,2,0,P|241:308|282:303,1,70,8|6,0:0|0:3,0:0:0:0:
373,350,32450,6,0,B|363:312|363:312|367:296|367:296|344:212,1,140,6|8,3:2|0:0,0:0:0:0:
425,122,32970,2,0,B|407:153|407:153|438:263,1,140,6|0,3:1|3:2,0:0:0:0:
452,297,33404,1,0,3:2:0:0:
452,297,33490,1,14,0:0:0:0:
296,360,33837,6,0,B|240:349|240:349|230:357|230:357|144:343,1,154.000004699707,6|10,3:1|0:0,0:0:0:0:
12,215,34531,2,0,B|38:235|38:235|164:191,1,154.000004699707,2|10,3:2|0:0,0:0:0:0:
205,121,35051,1,14,0:3:0:0:
205,121,35138,1,8,0:3:0:0:
205,121,35225,6,0,L|188:279,1,154.000004699707,0|10,3:2|0:0,0:0:0:0:
369,310,35918,1,2,3:2:0:0:
366,220,36092,1,8,0:0:0:0:
366,220,36265,2,0,P|408:207|453:197,1,77.0000023498536,10|6,0:0|0:3,0:0:0:0:
486,219,36525,1,0,0:0:0:0:
486,219,36612,1,0,3:2:0:0:
399,55,36959,6,0,P|344:50|298:127,2,154.000004699707,10|2|10,0:0|3:2|0:0,0:0:0:0:
482,115,37826,1,12,0:3:0:0:
482,115,37912,1,8,0:3:0:0:
482,115,37999,6,0,P|475:181|469:197,1,77.0000023498536,2|4,3:2|0:3,0:0:0:0:
389,233,38346,1,10,0:0:0:0:
417,320,38519,2,0,P|389:348|346:372,1,77.0000023498536,6|0,0:3|3:2,0:0:0:0:
243,366,38866,1,12,0:0:0:0:
283,258,39040,1,12,0:0:0:0:
128,358,39386,6,0,P|115:304|67:186,1,154.000004699707,6|8,3:1|0:0,0:0:0:0:
264,191,40080,2,0,P|217:151|129:100,1,154.000004699707,2|8,3:2|0:0,0:0:0:0:
58,79,40600,1,14,0:3:0:0:
58,79,40687,1,8,0:3:0:0:
58,79,40774,6,0,P|105:83|95:175,2,154.000004699707,0|8|0,3:2|0:0|3:2,0:0:0:0:
0,167,41641,1,8,0:0:0:0:
56,262,41814,2,0,P|65:302|66:349,1,77.0000023498536,10|6,0:0|0:3,0:0:0:0:
166,380,42161,6,0,P|158:320|234:265,1,154.000004699707,2|10,3:2|0:0,0:0:0:0:
314,288,42681,2,0,P|355:273|397:256,1,77.0000023498536,6|0,0:3|3:2,0:0:0:0:
462,198,43028,2,0,P|421:183|379:166,1,77.0000023498536,6|8,0:3|0:0,0:0:0:0:
317,112,43375,1,6,0:3:0:0:
418,36,43548,6,0,L|250:3,1,154.000004699707,6|8,3:2|0:0,0:0:0:0:
155,58,44069,1,6,3:1:0:0:
215,116,44242,6,0,L|227:173,2,46.6666666666667,8|8|8,0:0|0:0|0:0,0:0:0:0:
259,82,44589,2,0,L|249:36,2,46.6666666666667,0|0|0,3:2|3:2|3:2,0:0:0:0:
309,105,44936,6,0,B|380:122|369:64|442:81,1,140,6|8,3:2|0:0,0:0:0:0:
507,141,45456,1,2,0:0:0:0:
507,141,45629,2,0,P|497:185|421:161,1,140,2|0,3:2|0:0,0:0:0:0:
441,81,46149,1,10,0:0:0:0:
371,32,46323,6,0,B|316:24|316:24|299:29|299:29|217:18,1,140,2|8,0:0|0:0,0:0:0:0:
153,37,46843,1,2,0:0:0:0:
153,37,47016,2,0,B|132:66|132:66|150:110,1,70,2|0,3:2|3:2,0:0:0:0:
201,175,47363,1,8,0:0:0:0:
221,170,47450,1,8,0:0:0:0:
241,165,47537,1,10,0:0:0:0:
261,160,47623,1,8,0:0:0:0:
281,155,47710,6,0,B|300:181|300:181|286:219,1,70,2|2,3:2|0:0,0:0:0:0:
218,265,48057,2,0,B|199:291|199:291|213:329,1,70,10|2,0:0|0:0,0:0:0:0:
285,368,48404,2,0,L|423:340,1,140,2|2,3:2|0:0,0:0:0:0:
506,343,48924,6,0,P|448:331|450:245,1,140,10|2,0:0|3:2,0:0:0:0:
494,197,49444,1,10,0:0:0:0:
438,133,49618,2,0,L|293:112,1,140,2|2,0:0|3:2,0:0:0:0:
227,157,50138,1,10,0:0:0:0:
232,177,50225,1,8,0:0:0:0:
237,197,50311,1,10,0:0:0:0:
243,217,50398,1,8,0:0:0:0:
249,237,50485,6,0,P|194:281|147:227,2,140,6|8|0,3:2|0:0|3:2,0:0:0:0:
227,157,51352,1,0,3:2:0:0:
283,95,51525,2,0,P|307:55|322:25,1,70,2|8,0:0|0:0,0:0:0:0:
235,14,51872,6,0,P|171:22|91:44,2,140,2|10|2,0:0|0:0|3:2,0:0:0:0:
317,34,52739,1,0,3:2:0:0:
349,111,52912,1,10,0:0:0:0:
364,125,52999,1,8,0:0:0:0:
384,129,53086,1,8,0:0:0:0:
404,124,53173,1,8,0:0:0:0:
420,111,53259,6,0,P|429:58|351:45,2,140,6|8|2,3:2|0:0|3:2,0:0:0:0:
340,139,54126,1,4,3:1:0:0:
384,210,54300,2,0,L|391:261,2,35,12|8|8,0:0|0:0|0:3,0:0:0:0:
340,139,54647,6,0,B|282:131|282:131|255:142|255:142|176:129,1,140,10|8,3:2|0:0,0:0:0:0:
154,65,55167,1,8,0:3:0:0:
89,144,55340,5,0,3:0:0:0:
97,227,55514,1,0,3:0:0:0:
107,310,55687,2,0,L|188:332,1,70,0|2,3:0|3:0,0:0:0:0:
287,377,56034,6,0,P|304:339|252:274,1,125.999996154785,6|4,3:1|3:0,0:0:0:0:
291,208,56554,1,2,0:0:0:0:
291,208,56727,2,0,P|248:165|263:106,1,125.999996154785,6|4,3:0|3:0,0:0:0:0:
374,50,57248,5,2,0:0:0:0:
374,50,57421,2,0,B|465:71|465:71|428:89,1,125.999996154785,6|4,3:0|3:0,0:0:0:0:
376,131,57941,1,2,0:0:0:0:
376,131,58115,2,0,B|346:145|346:145|437:166,1,125.999996154785,6|4,3:0|3:0,0:0:0:0:
507,227,58635,1,6,0:3:0:0:
446,298,58808,6,0,B|421:318|421:318|380:311,1,62.9999980773926,6|0,3:0|0:0,0:0:0:0:
331,265,59155,2,0,B|300:259|300:259|275:279,1,62.9999980773926,6|0,3:0|0:0,0:0:0:0:
214,360,59502,2,0,L|193:288,1,62.9999980773926,6|0,3:0|0:0,0:0:0:0:
169,228,59849,2,0,L|148:156,1,62.9999980773926,6|0,3:0|0:0,0:0:0:0:
108,62,60196,6,0,P|161:84|217:39,1,125.999996154785,6|6,3:0|3:0,0:0:0:0:
287,7,60716,2,0,P|305:37|303:73,1,62.9999980773926,2|4,0:3|3:0,0:0:0:0:
271,146,61063,1,0,3:2:0:0:
271,146,61149,1,0,3:2:0:0:
271,146,61236,2,0,P|264:184|277:216,1,62.9999980773926,4|2,3:1|0:0,0:0:0:0:
340,280,61583,6,0,B|389:268|389:268|417:277|417:277|492:260,2,140,6|10|2,3:2|0:0|3:2,0:0:0:0:
288,346,62450,1,0,3:2:0:0:
210,314,62623,2,0,L|192:242,1,70,10|0,0:0|0:0,0:0:0:0:
200,162,62970,6,0,P|195:206|104:208,1,140,2|8,3:2|0:0,0:0:0:0:
195,71,63664,2,0,P|254:80|304:163,1,140,2|8,3:2|0:0,0:0:0:0:
277,221,64184,1,2,0:0:0:0:
368,235,64358,6,0,B|407:242|407:242|441:214,1,77.0000023498536,6|0,3:2|0:0,0:0:0:0:
412,129,64704,2,0,B|373:122|373:122|339:150,1,77.0000023498536,8|0,0:0|0:0,0:0:0:0:
277,221,65051,1,8,3:0:0:0:
273,240,65138,1,8,0:3:0:0:
269,259,65225,1,8,0:3:0:0:
266,277,65311,1,8,0:3:0:0:
262,295,65398,2,0,L|271:340,3,38.5000011749268,8|8|8|8,3:2|0:0|0:0|0:0,0:0:0:0:
246,363,65745,6,0,L|160:349,1,77.0000023498536,4|0,3:2|0:0,0:0:0:0:
93,360,66092,2,0,L|107:274,1,77.0000023498536
96,207,66438,2,0,L|182:221,1,77.0000023498536,4|0,3:2|0:0,0:0:0:0:
237,285,66785,1,2,0:0:0:0:
332,212,66959,1,2,0:0:0:0:
332,212,67132,6,0,B|343:259|343:259|329:275|329:275|350:365,1,154.000004699707,6|10,3:2|0:0,0:0:0:0:
437,382,67652,2,0,B|418:300|418:300|432:283|432:283|420:236,1,154.000004699707,2|0,0:0|3:2,0:0:0:0:
487,171,68173,1,10,0:0:0:0:
465,90,68346,1,10,0:3:0:0:
465,90,68433,1,8,0:3:0:0:
465,90,68519,6,0,L|304:64,1,154.000004699707,2|10,3:1|0:0,0:0:0:0:
219,63,69040,2,0,P|264:56|295:153,1,154.000004699707,2|2,0:0|3:1,0:0:0:0:
217,176,69560,1,10,0:0:0:0:
278,245,69733,1,2,0:0:0:0:
218,315,69907,6,0,B|145:343|145:343|70:294,1,154.000004699707,2|10,3:1|0:0,0:0:0:0:
7,245,70427,2,0,L|28:155,1,77.0000023498536,2|0,0:0|3:2,0:0:0:0:
100,116,70774,2,0,L|117:190,1,77.0000023498536,2|8,3:2|0:0,0:0:0:0:
186,106,71121,1,10,0:3:0:0:
186,106,71207,1,0,0:0:0:0:
186,106,71294,6,0,B|246:98|246:98|260:109|260:109|342:98,1,154.000004699707,2|8,3:1|0:0,0:0:0:0:
424,63,71814,1,0,0:0:0:0:
424,63,71901,1,0,0:0:0:0:
424,63,71988,2,0,L|412:145,1,77.0000023498536,6|0,3:2|0:0,0:0:0:0:
337,192,72334,2,0,L|349:274,1,77.0000023498536,14|0,0:0|0:0,0:0:0:0:
449,346,72681,6,0,B|396:334|396:334|362:353|362:353|283:336,1,154.000004699707,6|8,3:2|0:0,0:0:0:0:
215,370,73201,1,0,0:0:0:0:
149,304,73375,2,0,L|138:219,1,77.0000023498536,2|0,3:2|3:2,0:0:0:0:
62,175,73722,2,0,L|52:251,1,77.0000023498536,10|8,0:0|0:3,0:0:0:0:
1,118,74069,5,2,3:1:0:0:
74,62,74242,2,0,P|133:69|152:81,1,77.0000023498536,2|10,0:0|0:0,0:0:0:0:
186,161,74589,2,0,P|182:102|262:46,1,154.000004699707,2|2,0:0|3:1,0:0:0:0:
342,56,75109,1,10,0:0:0:0:
320,145,75282,1,2,0:0:0:0:
407,115,75456,6,0,P|424:79|432:31,1,77.0000023498536,2|0,3:1|0:0,0:0:0:0:
342,56,75803,2,0,P|321:88|294:115,1,77.0000023498536,10|0,0:0|0:0,0:0:0:0:
228,179,76149,2,0,P|209:145|196:89,1,77.0000023498536,2|0,3:2|3:2,0:0:0:0:
158,25,76496,2,0,P|120:76|111:105,1,77.0000023498536,10|0,0:0|0:0,0:0:0:0:
31,162,76843,6,0,P|87:169|132:253,1,154.000004699707,6|8,3:2|0:0,0:0:0:0:
139,344,77363,2,0,P|141:276|220:247,1,154.000004699707,6|10,3:1|0:1,0:0:0:0:
292,293,77884,1,0,3:2:0:0:
370,241,78057,1,0,3:2:0:0:
370,241,78144,1,0,3:2:0:0:
370,241,78230,1,2,3:1:0:0:
423,323,78404,5,4,3:2:0:0:
423,323,78577,2,0,B|459:333|459:333|503:301,1,77.0000023498536,10|2,0:0|0:0,0:0:0:0:
509,218,78924,2,0,L|480:59,1,154.000004699707,0|10,3:2|0:0,0:0:0:0:
411,5,79444,1,10,0:3:0:0:
356,79,79618,6,0,B|325:106|325:106|197:84,1,154.000004699707,2|10,3:1|0:0,0:0:0:0:
153,16,80138,2,0,L|175:184,1,154.000004699707,2|2,0:0|3:1,0:0:0:0:
184,260,80658,1,10,0:0:0:0:
192,167,80832,1,2,0:0:0:0:
268,267,81005,6,0,B|234:370|234:370|200:324,1,154.000004699707,2|10,3:1|0:0,0:0:0:0:
169,240,81525,2,0,L|198:145,1,77.0000023498536,2|0,0:0|3:2,0:0:0:0:
218,88,81872,2,0,P|187:144|110:120,1,154.000004699707,2|10,3:2|0:3,0:0:0:0:
81,94,82306,1,0,0:0:0:0:
81,94,82392,6,0,P|15:105|11:190,1,154.000004699707,2|8,3:1|0:0,0:0:0:0:
71,245,82912,1,0,0:0:0:0:
155,205,83086,2,0,P|195:194|246:200,1,77.0000023498536,6|0,3:2|0:0,0:0:0:0:
322,190,83433,2,0,P|300:144|270:115,1,77.0000023498536,12|0,0:2|0:0,0:0:0:0:
203,81,83779,6,0,P|242:104|314:33,1,154.000004699707,4|8,3:1|0:0,0:0:0:0:
130,12,84473,2,0,P|122:50|119:99,1,77.0000023498536,2|0,3:2|3:2,0:0:0:0:
171,173,84820,2,0,P|187:138|208:105,1,77.0000023498536,10|8,0:0|0:3,0:0:0:0:
299,88,85167,6,0,B|285:49|234:64|213:99|236:141|276:132|294:153|288:182,1,181.999991668702,2|10,3:1|0:0,0:0:0:0:
327,96,85687,2,0,B|358:69|394:107|395:148|354:172|324:146|298:155|288:182,1,181.999991668702,2|2,0:0|3:1,0:0:0:0:
291,281,86207,1,10,0:0:0:0:
385,314,86381,1,2,0:0:0:0:
453,241,86554,6,0,B|490:308|490:308|444:400,2,154.000004699707,2|8|0,3:1|0:0|3:2,0:0:0:0:
370,198,87421,1,0,3:2:0:0:
323,117,87595,2,0,P|322:77|332:38,1,77.0000023498536,10|0,0:0|0:0,0:0:0:0:
228,149,87941,6,0,P|274:182|301:192,1,77.0000023498536,6|0,3:2|0:0,0:0:0:0:
325,276,88288,2,0,P|279:292|243:308,1,77.0000023498536,10|4,0:0|3:1,0:0:0:0:
171,346,88635,2,0,B|135:277|202:272|166:198,1,154.000004699707,0|10,0:0|0:0,0:0:0:0:
10,299,89329,6,0,P|1:256|96:246,1,154.000004699707,4|8,3:2|0:0,0:0:0:0:
150,301,89849,1,0,0:0:0:0:
234,257,90022,1,8,0:0:0:0:
234,257,90109,1,8,0:0:0:0:
234,257,90196,1,0,3:2:0:0:
296,327,90369,2,0,B|370:344|370:344|442:293,1,154.000004699707,12|0,0:1|0:0,0:0:0:0:
501,249,90889,6,0,P|477:217|454:178,1,70,10|0,0:0|0:0,0:0:0:0:
422,108,91236,2,0,P|397:150|382:169,1,70,10|0,0:0|0:0,0:0:0:0:
311,201,91583,1,10,0:0:0:0:
311,201,91670,1,8,0:0:0:0:
311,201,91756,2,0,P|294:227|304:269,1,70,2|2,3:2|3:2,0:0:0:0:
363,319,92103,5,6,3:2:0:0:
301,377,92277,1,2,0:0:0:0:
222,352,92450,2,0,P|186:314|169:286,1,70,10|2,0:0|0:0,0:0:0:0:
132,384,92797,1,2,3:2:0:0:
82,316,92970,2,0,P|92:268|106:240,1,70,2|8,3:2|0:0,0:0:0:0:
147,179,93317,1,10,0:3:0:0:
147,179,93404,1,8,0:3:0:0:
147,179,93490,5,2,3:1:0:0:
99,109,93664,2,0,P|127:88|172:82,1,70,2|8,0:0|0:0,0:0:0:0:
233,125,94011,2,0,B|304:139|289:82|366:94,1,140,2|2,0:0|3:1,0:0:0:0:
438,53,94531,2,0,P|459:81|461:138,1,70,10|2,0:0|0:0,0:0:0:0:
423,187,94878,5,2,3:1:0:0:
486,241,95051,1,2,0:0:0:0:
441,312,95225,2,0,P|408:325|360:332,1,70,10|2,0:0|0:0,0:0:0:0:
371,247,95571,1,2,3:2:0:0:
290,221,95745,2,0,P|256:201|225:177,1,70,2|8,3:2|0:0,0:0:0:0:
163,118,96092,1,10,0:3:0:0:
163,118,96178,1,8,0:3:0:0:
163,118,96265,5,2,3:1:0:0:
109,182,96438,2,0,L|127:270,1,70,2|8,0:0|0:0,0:0:0:0:
53,340,96785,2,0,B|103:329|103:329|114:333|114:333|200:317,1,140,2|6,0:0|3:2,0:0:0:0:
263,376,97306,1,14,0:0:0:0:
309,306,97479,1,2,0:0:0:0:
241,218,97652,6,0,P|230:180|310:151,2,140,6|8|0,3:1|0:0|3:2,0:0:0:0:
407,193,98693,1,10,0:0:0:0:
467,265,98866,1,8,0:3:0:0:
467,265,98953,1,8,0:3:0:0:
467,265,99040,6,0,P|506:232|497:127,2,140,2|8|2,3:1|0:0|3:2,0:0:0:0:
361,323,99907,1,2,3:1:0:0:
288,280,100080,2,0,P|239:273|208:273,1,70,8|0,0:0|0:0,0:0:0:0:
141,306,100427,6,0,B|107:242|172:238|137:173,2,140,2|8|0,3:1|0:0|3:2,0:0:0:0:
78,363,101294,1,0,3:2:0:0:
23,299,101467,2,0,P|12:248|2:222,1,70,10|2,3:2|0:0,0:0:0:0:
60,167,101814,5,6,3:2:0:0:
3,104,101988,1,2,0:0:0:0:
33,25,102161,1,10,0:0:0:0:
116,18,102334,2,0,B|159:26|159:26|171:35|171:35|258:18,1,140,6|2,3:1|3:2,0:0:0:0:
295,32,102768,1,0,3:2:0:0:
295,32,102855,2,0,B|306:52|306:52|284:107,1,70,10|0,0:0|0:0,0:0:0:0:
228,201,103201,5,4,3:2:0:0:
256,192,103288,12,0,105976,0:0:0:0:
