osu file format v14

[General]
AudioFilename: audio.mp3
AudioLeadIn: 0
PreviewTime: 52190
Countdown: 0
SampleSet: Normal
StackLeniency: 0.7
Mode: 1
LetterboxInBreaks: 0
WidescreenStoryboard: 1

[Editor]
Bookmarks: 6941,23157,25079,47781
DistanceSpacing: 1.3
BeatDivisor: 4
GridSize: 32
TimelineZoom: 2.2

[Metadata]
Title:Ouran Romancia
TitleUnicode:桜爛ロマンシア
Artist:KyoKa
ArtistUnicode:KyoKa
Creator:kanpakyin
Version:Muzukashii
Source:さくらの雲*スカアレットの恋
Tags:Sakura no Kumo * Scarlet no Koi Cabbage Soft きゃべつそふと visual novel vn eroge galgame opening op video game japanese
BeatmapID:3626395
BeatmapSetID:1771441

[Difficulty]
HPDrainRate:6.5
CircleSize:5
OverallDifficulty:4
ApproachRate:5
SliderMultiplier:1.4
SliderTickRate:1

[Events]
//Background and Video events
Video,0,"ouran.mp4"
0,0,"BG.jpg",0,40
//Break Periods
//Storyboard Layer 0 (Background)
//Storyboard Layer 1 (Fail)
//Storyboard Layer 2 (Pass)
//Storyboard Layer 3 (Foreground)
//Storyboard Layer 4 (Overlay)
//Storyboard Sound Samples

[TimingPoints]
2377,405.405405405405,4,1,1,70,1,0
8762,-100,4,1,1,70,0,0
25079,405.405405405405,4,1,1,70,1,0
25180,-100,4,1,1,40,0,0
37950,-100,4,1,1,65,0,0
52646,405.405405405405,4,1,1,75,1,1
65618,-100,4,1,1,75,0,0
67139,-100,4,1,1,75,0,0
68862,-100,4,1,1,75,0,1
78591,-100,4,1,1,70,0,0

[HitObjects]
408,121,8255,5,0,0:0:0:0:
408,121,8458,1,12,0:0:0:0:
407,112,8863,1,4,0:0:0:0:
404,113,9066,1,8,0:0:0:0:
404,113,9167,1,0,0:0:0:0:
399,114,9471,1,8,0:0:0:0:
392,103,9876,1,8,0:0:0:0:
390,109,9978,1,8,0:0:0:0:
394,111,10079,1,8,0:0:0:0:
384,103,10282,1,8,0:0:0:0:
385,108,10485,1,0,0:0:0:0:
413,117,10687,1,8,0:0:0:0:
385,107,10789,1,0,0:0:0:0:
385,107,11093,1,8,0:0:0:0:
385,107,11295,1,0,0:0:0:0:
407,90,11498,1,8,0:0:0:0:
436,111,12106,1,4,0:0:0:0:
436,111,12309,1,8,0:0:0:0:
429,102,12410,1,0,0:0:0:0:
436,111,12613,1,8,0:0:0:0:
436,111,12714,1,0,0:0:0:0:
430,103,12917,1,8,0:0:0:0:
429,103,13221,1,8,0:0:0:0:
429,102,13322,1,0,0:0:0:0:
434,104,13525,1,8,0:0:0:0:
431,101,13728,1,8,0:0:0:0:
430,103,13931,1,0,0:0:0:0:
431,101,14032,1,8,0:0:0:0:
418,95,14235,1,8,0:0:0:0:
409,97,14336,1,8,0:0:0:0:
429,103,14437,1,8,0:0:0:0:
431,101,14741,1,4,0:0:0:0:
430,103,14944,1,4,0:0:0:0:
435,102,15349,1,4,0:0:0:0:
438,105,15654,1,0,0:0:0:0:
438,105,15755,1,8,0:0:0:0:
438,105,15958,1,0,0:0:0:0:
438,105,16363,1,0,0:0:0:0:
438,105,16566,1,8,0:0:0:0:
438,105,16768,1,0,0:0:0:0:
428,106,16971,1,8,0:0:0:0:
429,103,17275,1,0,0:0:0:0:
429,101,17376,1,8,0:0:0:0:
429,101,17579,1,0,0:0:0:0:
429,101,17782,1,0,0:0:0:0:
429,101,18187,1,8,0:0:0:0:
410,98,18289,1,8,0:0:0:0:
410,98,18390,1,8,0:0:0:0:
410,98,18593,1,4,0:0:0:0:
406,96,18897,1,8,0:0:0:0:
406,96,19201,1,8,0:0:0:0:
410,98,19302,1,8,0:0:0:0:
410,98,19404,1,8,0:0:0:0:
406,96,19708,1,8,0:0:0:0:
406,96,19910,1,0,0:0:0:0:
406,96,20012,1,8,0:0:0:0:
406,96,20214,1,8,0:0:0:0:
410,98,20518,1,8,0:0:0:0:
387,103,20721,1,0,0:0:0:0:
402,99,20822,1,8,0:0:0:0:
402,99,21025,1,8,0:0:0:0:
402,99,21431,1,8,0:0:0:0:
402,99,21633,1,8,0:0:0:0:
402,99,21836,1,4,0:0:0:0:
394,106,22241,1,8,0:0:0:0:
396,106,22647,1,0,0:0:0:0:
383,106,23052,1,0,0:0:0:0:
383,106,23255,1,8,0:0:0:0:
374,105,23356,1,8,0:0:0:0:
374,105,23458,1,8,0:0:0:0:
378,95,23863,1,0,0:0:0:0:
378,95,24066,1,8,0:0:0:0:
378,95,24167,1,8,0:0:0:0:
378,95,24268,1,8,0:0:0:0:
378,95,24471,1,0,0:0:0:0:
378,95,24674,1,8,0:0:0:0:
406,89,24775,1,8,0:0:0:0:
378,95,24876,1,8,0:0:0:0:
378,95,24978,1,8,0:0:0:0:
378,95,25079,1,8,0:0:0:0:
365,91,25889,1,8,0:0:0:0:
365,91,26700,1,0,0:0:0:0:
354,101,27511,1,8,0:0:0:0:
358,101,28322,1,0,0:0:0:0:
358,101,29133,1,8,0:0:0:0:
330,87,29538,1,8,0:0:0:0:
344,94,29943,1,8,0:0:0:0:
344,94,30754,1,0,0:0:0:0:
344,94,31362,1,8,0:0:0:0:
344,94,31464,1,8,0:0:0:0:
344,94,31565,1,8,0:0:0:0:
339,89,31970,1,8,0:0:0:0:
339,89,32376,1,0,0:0:0:0:
339,89,33187,1,8,0:0:0:0:
339,89,33592,1,8,0:0:0:0:
339,89,33997,1,0,0:0:0:0:
339,89,34808,1,0,0:0:0:0:
334,81,35619,1,8,0:0:0:0:
334,81,36430,1,0,0:0:0:0:
342,84,36835,1,8,0:0:0:0:
342,84,37241,1,8,0:0:0:0:
342,84,37646,1,8,0:0:0:0:
336,78,37849,1,8,0:0:0:0:
351,115,38051,5,4,0:0:0:0:
346,119,38862,1,12,0:0:0:0:
346,119,39673,1,4,0:0:0:0:
333,97,39876,1,0,0:0:0:0:
333,97,40078,1,0,0:0:0:0:
319,89,40180,1,0,0:0:0:0:
327,102,40281,1,0,0:0:0:0:
318,89,40484,1,8,0:0:0:0:
337,94,40687,1,8,0:0:0:0:
309,79,40788,1,8,0:0:0:0:
337,94,40889,1,8,0:0:0:0:
328,96,41295,1,4,0:0:0:0:
308,83,41700,1,8,0:0:0:0:
320,95,41903,1,8,0:0:0:0:
319,95,42004,1,8,0:0:0:0:
316,95,42106,1,8,0:0:0:0:
321,97,42308,1,8,0:0:0:0:
321,97,42511,1,0,0:0:0:0:
325,106,42714,1,8,0:0:0:0:
325,106,42916,1,8,0:0:0:0:
344,115,43322,1,0,0:0:0:0:
344,115,43524,1,8,0:0:0:0:
344,115,43626,1,8,0:0:0:0:
344,115,43727,1,8,0:0:0:0:
350,114,43930,1,8,0:0:0:0:
350,114,44133,1,0,0:0:0:0:
344,115,44538,1,4,0:0:0:0:
317,115,44943,1,8,0:0:0:0:
331,114,45146,1,8,0:0:0:0:
331,114,45247,1,8,0:0:0:0:
331,114,45349,1,8,0:0:0:0:
330,93,45551,1,8,0:0:0:0:
351,115,45754,1,0,0:0:0:0:
305,114,45957,1,8,0:0:0:0:
316,129,46058,1,8,0:0:0:0:
346,130,46160,1,8,0:0:0:0:
325,123,46565,1,0,0:0:0:0:
325,123,46768,1,8,0:0:0:0:
325,123,46869,1,8,0:0:0:0:
325,123,46970,1,8,0:0:0:0:
325,123,47173,1,8,0:0:0:0:
325,123,47376,1,0,0:0:0:0:
320,122,47781,1,12,0:0:0:0:
318,116,48187,1,8,0:0:0:0:
304,127,48389,1,0,0:0:0:0:
278,126,48491,1,0,0:0:0:0:
323,118,48592,1,0,0:0:0:0:
319,116,48795,1,0,0:0:0:0:
318,116,48997,1,8,0:0:0:0:
319,116,49403,1,0,0:0:0:0:
297,116,49606,1,8,0:0:0:0:
297,111,49808,1,0,0:0:0:0:
291,111,49910,1,0,0:0:0:0:
342,124,50011,1,0,0:0:0:0:
313,108,50214,1,8,0:0:0:0:
326,118,50619,1,0,0:0:0:0:
326,118,50822,1,8,0:0:0:0:
326,118,51024,1,4,0:0:0:0:
392,101,51430,5,8,0:0:0:0:
380,106,51531,1,8,0:0:0:0:
380,106,51734,1,8,0:0:0:0:
380,106,51835,1,8,0:0:0:0:
380,106,52038,1,8,0:0:0:0:
388,93,52139,1,8,0:0:0:0:
392,101,52241,1,8,0:0:0:0:
392,101,52443,1,0,0:0:0:0:
392,101,52646,1,4,0:0:0:0:
381,100,53254,1,8,0:0:0:0:
381,100,53456,1,0,0:0:0:0:
381,100,53659,1,8,0:0:0:0:
381,100,53760,1,8,0:0:0:0:
381,100,53862,1,8,0:0:0:0:
381,100,54064,1,8,0:0:0:0:
381,100,54267,1,0,0:0:0:0:
381,100,54470,1,8,0:0:0:0:
381,100,54673,1,8,0:0:0:0:
381,100,54875,1,8,0:0:0:0:
381,100,55078,1,0,0:0:0:0:
381,100,55483,1,8,0:0:0:0:
381,100,55686,1,8,0:0:0:0:
381,100,55889,1,4,0:0:0:0:
381,100,56294,1,8,0:0:0:0:
381,100,56700,1,0,0:0:0:0:
393,111,56902,1,8,0:0:0:0:
393,111,57004,1,8,0:0:0:0:
391,111,57105,1,8,0:0:0:0:
389,110,57308,1,8,0:0:0:0:
388,109,57510,1,0,0:0:0:0:
382,113,58118,1,8,0:0:0:0:
382,113,58220,1,8,0:0:0:0:
382,113,58321,1,8,0:0:0:0:
382,113,58524,1,8,0:0:0:0:
382,113,58727,1,0,0:0:0:0:
382,113,58929,1,8,0:0:0:0:
382,113,59132,1,4,0:0:0:0:
382,113,59740,1,8,0:0:0:0:
382,113,59943,1,0,0:0:0:0:
382,113,60145,1,8,0:0:0:0:
382,113,60348,1,8,0:0:0:0:
382,113,60551,1,8,0:0:0:0:
382,113,60754,1,0,0:0:0:0:
382,113,60956,1,8,0:0:0:0:
382,113,61058,1,8,0:0:0:0:
382,113,61159,1,8,0:0:0:0:
382,113,61362,1,8,0:0:0:0:
382,113,61564,1,0,0:0:0:0:
382,113,61970,1,8,0:0:0:0:
382,113,62071,1,8,0:0:0:0:
382,113,62173,1,8,0:0:0:0:
382,113,62375,1,4,0:0:0:0:
382,113,62578,1,0,0:0:0:0:
382,113,62781,1,8,0:0:0:0:
382,113,63186,1,0,0:0:0:0:
382,113,63389,1,0,0:0:0:0:
382,113,63591,1,8,0:0:0:0:
382,113,63997,1,8,0:0:0:0:
382,113,64098,1,8,0:0:0:0:
382,113,64301,1,8,0:0:0:0:
382,113,64504,1,8,0:0:0:0:
382,113,64605,1,8,0:0:0:0:
382,113,64808,1,0,0:0:0:0:
382,113,65010,1,0,0:0:0:0:
341,96,65112,1,0,0:0:0:0:
382,113,65213,1,0,0:0:0:0:
358,108,65314,1,0,0:0:0:0:
382,113,65416,1,0,0:0:0:0:
382,113,65618,1,12,0:0:0:0:
387,110,66429,1,4,0:0:0:0:
387,110,67240,1,8,0:0:0:0:
369,103,67443,1,0,0:0:0:0:
369,103,67544,1,0,0:0:0:0:
369,103,67645,1,0,0:0:0:0:
369,103,67747,1,0,0:0:0:0:
369,103,67848,1,0,0:0:0:0:
369,103,68051,1,12,0:0:0:0:
369,103,68456,1,8,0:0:0:0:
356,106,68558,1,8,0:0:0:0:
356,106,68659,1,8,0:0:0:0:
364,108,68862,1,4,0:0:0:0:
345,114,69064,1,8,0:0:0:0:
339,114,69267,1,0,0:0:0:0:
345,113,69470,1,8,0:0:0:0:
345,113,69673,1,8,0:0:0:0:
346,119,69875,1,8,0:0:0:0:
346,119,69977,1,8,0:0:0:0:
346,119,70078,1,8,0:0:0:0:
346,119,70281,1,8,0:0:0:0:
347,119,70483,1,0,0:0:0:0:
346,119,71091,1,8,0:0:0:0:
347,119,71193,1,8,0:0:0:0:
346,119,71294,1,8,0:0:0:0:
347,119,71497,1,0,0:0:0:0:
347,119,71700,1,0,0:0:0:0:
346,119,71902,1,8,0:0:0:0:
346,119,72105,1,4,0:0:0:0:
347,119,72510,1,0,0:0:0:0:
347,119,72713,1,8,0:0:0:0:
346,119,72916,1,0,0:0:0:0:
346,119,73017,1,0,0:0:0:0:
346,119,73118,1,0,0:0:0:0:
346,119,73321,1,8,0:0:0:0:
347,119,73524,1,8,0:0:0:0:
347,119,73727,1,0,0:0:0:0:
346,119,73929,1,8,0:0:0:0:
346,119,74031,1,8,0:0:0:0:
346,119,74132,1,8,0:0:0:0:
347,119,74335,1,8,0:0:0:0:
347,119,74537,1,8,0:0:0:0:
346,119,75145,1,0,0:0:0:0:
347,119,75348,1,4,0:0:0:0:
347,119,75551,1,8,0:0:0:0:
347,119,75754,1,0,0:0:0:0:
346,119,75855,1,8,0:0:0:0:
332,126,76058,1,8,0:0:0:0:
332,126,76159,1,0,0:0:0:0:
332,126,76362,1,8,0:0:0:0:
332,126,76564,1,0,0:0:0:0:
332,125,76970,1,0,0:0:0:0:
332,120,77173,1,0,0:0:0:0:
332,120,77375,1,8,0:0:0:0:
332,120,77477,1,8,0:0:0:0:
332,120,77578,1,8,0:0:0:0:
332,120,77781,1,8,0:0:0:0:
332,120,77983,1,0,0:0:0:0:
332,120,78085,1,0,0:0:0:0:
332,120,78186,1,0,0:0:0:0:
332,120,78389,1,8,0:0:0:0:
332,120,78591,1,4,0:0:0:0:
332,120,78794,1,8,0:0:0:0:
332,120,78895,1,0,0:0:0:0:
332,120,79200,1,8,0:0:0:0:
332,120,79605,1,8,0:0:0:0:
332,120,79706,1,8,0:0:0:0:
332,120,79808,1,8,0:0:0:0:
332,120,80010,1,8,0:0:0:0:
332,120,80213,1,0,0:0:0:0:
338,132,80416,1,8,0:0:0:0:
332,120,80517,1,8,0:0:0:0:
332,120,80618,1,8,0:0:0:0:
322,119,80821,1,8,0:0:0:0:
331,127,81024,1,0,0:0:0:0:
338,132,81227,1,8,0:0:0:0:
338,132,81835,1,4,0:0:0:0:
337,129,82037,1,8,0:0:0:0:
338,132,82139,1,8,0:0:0:0:
338,132,82443,1,8,0:0:0:0:
338,132,82645,1,0,0:0:0:0:
337,129,82848,1,8,0:0:0:0:
337,129,82950,1,8,0:0:0:0:
338,132,83254,1,8,0:0:0:0:
338,132,83456,1,0,0:0:0:0:
337,129,83760,1,8,0:0:0:0:
337,129,83862,1,0,0:0:0:0:
337,129,84064,1,0,0:0:0:0:
338,132,84166,1,8,0:0:0:0:
330,115,84470,1,4,0:0:0:0:
330,114,84673,1,4,0:0:0:0:
330,114,85078,1,4,0:0:0:0:
330,115,85382,1,0,0:0:0:0:
330,115,85483,1,8,0:0:0:0:
330,114,85686,1,0,0:0:0:0:
330,114,86091,1,0,0:0:0:0:
330,115,86294,1,8,0:0:0:0:
364,114,86497,1,8,0:0:0:0:
316,114,86598,1,8,0:0:0:0:
330,114,86700,1,8,0:0:0:0:
330,114,87004,1,0,0:0:0:0:
330,114,87105,1,8,0:0:0:0:
330,115,87308,1,0,0:0:0:0:
330,114,87510,1,8,0:0:0:0:
330,114,88118,1,0,0:0:0:0:
330,115,88220,1,0,0:0:0:0:
330,115,88321,1,0,0:0:0:0:
330,114,88625,1,8,0:0:0:0:
330,114,88929,1,8,0:0:0:0:
330,114,89031,1,8,0:0:0:0:
330,114,89132,1,8,0:0:0:0:
330,115,89436,1,8,0:0:0:0:
330,114,89740,1,8,0:0:0:0:
330,114,89943,1,0,0:0:0:0:
330,115,90247,1,8,0:0:0:0:
330,114,90551,1,8,0:0:0:0:
330,114,90754,1,8,0:0:0:0:
330,114,90956,1,0,0:0:0:0:
330,115,91159,1,8,0:0:0:0:
330,115,91362,1,8,0:0:0:0:
330,115,91463,1,8,0:0:0:0:
330,114,91564,1,8,0:0:0:0:
330,114,91970,1,0,0:0:0:0:
305,101,92274,1,8,0:0:0:0:
328,121,92375,1,0,0:0:0:0:
330,114,92578,1,0,0:0:0:0:
339,121,92781,1,8,0:0:0:0:
330,114,92983,1,0,0:0:0:0:
330,115,93186,1,8,0:0:0:0:
339,121,93490,1,8,0:0:0:0:
339,121,93591,1,0,0:0:0:0:
333,128,93794,5,8,0:0:0:0:
333,128,93997,1,0,0:0:0:0:
342,130,94200,1,0,0:0:0:0:
342,130,94402,1,8,0:0:0:0:
342,130,94605,1,0,0:0:0:0:
