osu file format v14

[General]
AudioFilename: audio.mp3
AudioLeadIn: 0
PreviewTime: 52190
Countdown: 0
SampleSet: Normal
StackLeniency: 0.7
Mode: 1
LetterboxInBreaks: 0
WidescreenStoryboard: 1

[Editor]
Bookmarks: 6941,23157,25079,47781
DistanceSpacing: 1.3
BeatDivisor: 2
GridSize: 32
TimelineZoom: 0.9

[Metadata]
Title:Ouran Romancia
TitleUnicode:桜爛ロマンシア
Artist:KyoKa
ArtistUnicode:KyoKa
Creator:kanpakyin
Version:Kantan
Source:さくらの雲*スカアレットの恋
Tags:Sakura no Kumo * Scarlet no Koi Cabbage Soft きゃべつそふと visual novel vn eroge galgame opening op video game japanese
BeatmapID:3626394
BeatmapSetID:1771441

[Difficulty]
HPDrainRate:7.5
CircleSize:5
OverallDifficulty:3
ApproachRate:5
SliderMultiplier:1.4
SliderTickRate:1

[Events]
//Background and Video events
Video,0,"ouran.mp4"
0,0,"BG.jpg",0,40
//Break Periods
//Storyboard Layer 0 (Background)
//Storyboard Layer 1 (Fail)
//Storyboard Layer 2 (Pass)
//Storyboard Layer 3 (Foreground)
//Storyboard Layer 4 (Overlay)
//Storyboard Sound Samples

[TimingPoints]
2377,405.405405405405,4,1,1,70,1,0
8762,-100,4,1,1,70,0,0
25079,405.405405405405,4,1,1,70,1,0
25180,-100,4,1,1,40,0,0
37950,-100,4,1,1,65,0,0
52646,405.405405405405,4,1,1,75,1,1
65618,-100,4,1,1,75,0,0
67139,-100,4,1,1,75,0,0
68862,-100,4,1,1,75,0,1
78591,-100,4,1,1,70,0,0

[HitObjects]
408,121,8458,1,12,0:0:0:0:
407,112,8863,1,4,0:0:0:0:
399,114,9471,1,8,0:0:0:0:
394,111,10079,1,0,0:0:0:0:
385,108,10485,1,8,0:0:0:0:
385,107,11093,1,8,0:0:0:0:
436,111,12106,1,4,0:0:0:0:
436,111,12917,1,8,0:0:0:0:
431,101,13728,1,8,0:0:0:0:
418,95,14336,1,0,0:0:0:0:
430,103,14741,1,12,0:0:0:0:
435,102,15349,1,4,0:0:0:0:
438,105,15755,1,8,0:0:0:0:
438,105,16566,1,8,0:0:0:0:
428,106,16971,1,0,0:0:0:0:
429,101,17376,1,8,0:0:0:0:
429,101,18187,1,8,0:0:0:0:
410,98,18593,1,4,0:0:0:0:
406,96,19404,1,8,0:0:0:0:
406,96,20214,1,8,0:0:0:0:
402,99,21025,1,0,0:0:0:0:
402,99,21431,1,8,0:0:0:0:
402,99,21836,1,4,0:0:0:0:
383,106,23052,1,8,0:0:0:0:
374,105,23458,1,8,0:0:0:0:
378,95,24268,1,8,0:0:0:0:
378,95,24674,1,8,0:0:0:0:
378,95,25079,1,4,0:0:0:0:
365,91,26700,1,0,0:0:0:0:
354,101,27511,1,8,0:0:0:0:
358,101,28322,1,0,0:0:0:0:
344,94,29943,1,0,0:0:0:0:
344,94,30754,1,8,0:0:0:0:
344,94,31565,1,8,0:0:0:0:
339,89,32376,1,0,0:0:0:0:
339,89,33187,1,8,0:0:0:0:
339,89,33997,1,0,0:0:0:0:
339,89,34808,1,0,0:0:0:0:
334,81,36430,1,0,0:0:0:0:
342,84,37241,1,8,0:0:0:0:
342,84,37646,1,8,0:0:0:0:
351,115,38051,5,4,0:0:0:0:
346,119,38862,1,12,0:0:0:0:
346,119,39673,1,4,0:0:0:0:
333,97,40078,1,0,0:0:0:0:
318,89,40484,1,0,0:0:0:0:
337,94,40889,1,8,0:0:0:0:
328,96,41295,1,4,0:0:0:0:
308,83,41700,1,8,0:0:0:0:
321,97,42511,1,8,0:0:0:0:
325,106,42916,1,0,0:0:0:0:
344,115,43322,1,8,0:0:0:0:
344,115,43727,1,8,0:0:0:0:
350,114,44133,1,0,0:0:0:0:
344,115,44538,1,4,0:0:0:0:
351,115,45754,1,8,0:0:0:0:
346,130,46160,1,0,0:0:0:0:
325,123,46565,1,0,0:0:0:0:
325,123,46970,1,8,0:0:0:0:
325,123,47376,1,0,0:0:0:0:
320,122,47781,1,12,0:0:0:0:
318,116,48997,1,8,0:0:0:0:
319,116,49403,1,0,0:0:0:0:
313,108,50214,1,8,0:0:0:0:
326,118,51024,1,4,0:0:0:0:
380,106,51835,1,8,0:0:0:0:
392,101,52241,1,8,0:0:0:0:
392,101,52646,1,4,0:0:0:0:
381,100,53254,1,8,0:0:0:0:
381,100,53862,1,8,0:0:0:0:
381,100,54267,1,0,0:0:0:0:
381,100,54673,1,8,0:0:0:0:
381,100,55078,1,0,0:0:0:0:
381,100,55889,1,4,0:0:0:0:
393,111,56700,1,8,0:0:0:0:
391,111,57105,1,8,0:0:0:0:
388,109,57510,1,0,0:0:0:0:
382,113,58727,1,8,0:0:0:0:
382,113,59132,1,4,0:0:0:0:
382,113,59740,1,8,0:0:0:0:
382,113,60348,1,8,0:0:0:0:
382,113,60754,1,0,0:0:0:0:
382,113,61159,1,8,0:0:0:0:
382,113,61564,1,0,0:0:0:0:
382,113,62375,1,4,0:0:0:0:
382,113,62781,1,8,0:0:0:0:
382,113,63591,1,8,0:0:0:0:
382,113,63997,1,8,0:0:0:0:
382,113,65618,1,12,0:0:0:0:
387,110,66429,1,4,0:0:0:0:
387,110,67240,1,8,0:0:0:0:
369,103,67645,1,0,0:0:0:0:
369,103,68051,1,12,0:0:0:0:
364,108,68862,1,4,0:0:0:0:
339,114,69267,1,8,0:0:0:0:
345,113,69673,1,8,0:0:0:0:
346,119,70078,1,0,0:0:0:0:
347,119,70483,1,8,0:0:0:0:
347,119,71700,1,0,0:0:0:0:
346,119,72105,1,12,0:0:0:0:
347,119,72510,1,0,0:0:0:0:
346,119,72916,1,8,0:0:0:0:
346,119,73321,1,8,0:0:0:0:
347,119,73727,1,0,0:0:0:0:
347,119,74537,1,8,0:0:0:0:
347,119,75348,1,4,0:0:0:0:
346,119,75754,1,8,0:0:0:0:
332,126,76159,1,8,0:0:0:0:
332,125,76970,1,0,0:0:0:0:
332,120,77375,1,8,0:0:0:0:
332,120,77781,1,8,0:0:0:0:
332,120,78591,1,4,0:0:0:0:
332,120,79200,1,8,0:0:0:0:
332,120,80213,1,8,0:0:0:0:
331,127,81024,1,0,0:0:0:0:
338,132,81835,1,4,0:0:0:0:
338,132,82645,1,8,0:0:0:0:
338,132,83456,1,0,0:0:0:0:
337,129,84470,1,12,0:0:0:0:
330,114,85078,1,4,0:0:0:0:
330,114,85686,1,8,0:0:0:0:
330,115,86294,1,8,0:0:0:0:
330,114,86700,1,0,0:0:0:0:
330,114,87510,1,8,0:0:0:0:
330,115,88321,1,4,0:0:0:0:
330,114,89132,1,8,0:0:0:0:
330,114,89943,1,0,0:0:0:0:
330,114,90754,1,8,0:0:0:0:
330,115,91159,1,8,0:0:0:0:
330,114,91564,1,4,0:0:0:0:
339,121,92781,1,8,0:0:0:0:
326,115,93591,1,8,0:0:0:0:
342,130,93997,1,0,0:0:0:0:
342,130,94402,1,8,0:0:0:0:
