osu file format v14

[General]
AudioFilename: audio.mp3
AudioLeadIn: 0
PreviewTime: 52231
Countdown: 0
SampleSet: Soft
StackLeniency: 0.2
Mode: 0
LetterboxInBreaks: 0
WidescreenStoryboard: 1

[Editor]
DistanceSpacing: 1
BeatDivisor: 4
GridSize: 4
TimelineZoom: 2.1

[Metadata]
Title:Ouran Romancia
TitleUnicode:桜爛ロマンシア
Artist:KyoKa
ArtistUnicode:KyoKa
Creator:Seolv
Version:Insane
Source:さくらの雲*スカアレットの恋
Tags:Sakura no Kumo * Scarlet no Koi Cabbage Soft きゃべつそふと visual novel vn eroge opening pop rock op video game japanese krt kazato asa shizuku- shikibe mayu lukas [_l_u_k_a_s_] -atri- KuranteMelodii firis mistlud
BeatmapID:3129873
BeatmapSetID:1530166

[Difficulty]
HPDrainRate:5
CircleSize:4.2
OverallDifficulty:7
ApproachRate:9
SliderMultiplier:1.6
SliderTickRate:1

[Events]
//Background and Video events
0,0,"bg.png",0,0
//Break Periods
//Storyboard Layer 0 (Background)
//Storyboard Layer 1 (Fail)
//Storyboard Layer 2 (Pass)
//Storyboard Layer 3 (Foreground)
//Storyboard Layer 4 (Overlay)
//Storyboard Sound Samples

[TimingPoints]
2367,405.405405405405,4,2,2,40,1,0
3988,-125,4,2,2,40,0,0
8448,-125,4,2,2,60,0,0
8853,-66.6666666666667,4,2,1,80,0,0
14934,-100,4,2,1,80,0,0
15339,-83.3333333333333,4,2,1,80,0,0
21421,-83.3333333333333,4,2,2,80,0,0
25475,-83.3333333333333,4,2,0,40,0,0
25880,-125,4,2,0,40,0,0
31556,-133.333333333333,4,2,0,40,0,0
38042,-100,4,2,2,60,0,0
40475,-100,4,2,1,60,0,0
40880,-100,4,2,2,60,0,0
50812,-100,4,2,2,60,0,0
51015,-100,4,2,1,60,0,0
51826,-100,4,2,1,70,0,0
52029,-83.3333333333333,4,2,1,70,0,0
52637,-66.6666666666667,4,2,1,80,0,1
65610,-83.3333333333333,4,2,1,80,0,1
68042,-66.6666666666667,4,2,1,80,0,1
78583,-66.6666666666667,4,2,1,80,0,0
84664,-100,4,2,1,80,0,0
85069,-83.3333333333333,4,2,1,80,0,0
91758,-83.3333333333333,4,2,2,80,0,0

[Colours]
Combo1 : 200,142,66
Combo2 : 255,255,128
Combo3 : 255,174,64

[HitObjects]
125,315,2367,5,2,0:0:0:0:
156,383,2671,1,0,0:0:0:0:
164,383,2772,1,0,0:0:0:0:
125,315,2975,1,0,0:0:0:0:
156,242,3177,1,2,0:0:0:0:
235,230,3380,1,2,0:0:0:0:
298,187,3583,1,0,0:0:0:0:
321,110,3785,1,0,0:0:0:0:
296,37,3988,6,0,P|264:35|238:54,1,64,2|2,0:0|0:0,0:0:0:0:
167,39,4394,2,0,P|150:65|153:96,1,64
115,159,4799,1,2,0:0:0:0:
115,159,5204,1,2,0:0:0:0:
190,225,5407,1,0,0:0:0:0:
180,326,5610,1,2,0:0:0:0:
251,367,5914,5,0,0:0:0:0:
254,359,6015,1,2,0:0:0:0:
180,326,6218,1,0,0:0:0:0:
190,225,6421,2,0,L|262:236,1,64,2|0,0:0|0:0,0:0:0:0:
402,259,6826,2,0,L|338:249,1,64,2|0,0:0|0:0,0:0:0:0:
265,48,7231,5,2,0:0:0:0:
253,128,7434,1,0,0:0:0:0:
300,73,7637,5,2,0:0:0:0:
224,102,7840,1,0,0:0:0:0:
293,114,8042,5,2,0:0:0:0:
229,62,8245,1,8,0:0:0:0:
227,54,8346,1,8,0:0:0:0:
226,46,8448,1,0,0:0:0:0:
10,234,8853,6,0,P|82:234|110:291,1,120.000004577637,4|8,3:2|1:2,0:0:0:0:
161,197,9157,2,0,P|197:259|161:312,1,120.000004577637,2|0,0:0|0:0,0:0:0:0:
130,380,9461,2,0,B|122:348|169:343|169:343|228:335|228:335|271:331|258:288,1,180.000006866455,8|0,1:2|0:0,0:0:0:0:
179,298,9866,5,8,1:2:0:0:
334,335,10069,1,0,0:0:0:0:
489,372,10272,1,8,1:2:0:0:
456,157,10475,6,0,B|435:162|435:162|440:200,1,60.0000022888184,2|0,3:2|0:0,0:0:0:0:
402,264,10677,1,8,1:2:0:0:
402,264,10779,2,0,L|417:384,1,120.000004577637,2|0,0:0|3:0,0:0:0:0:
334,335,11083,2,0,L|328:275,1,60.0000022888184,10|0,1:2|0:0,0:0:0:0:
440,200,11285,1,2,3:2:0:0:
301,144,11488,6,0,P|308:173|297:200,1,60.0000022888184,10|0,1:2|0:0,0:0:0:0:
225,138,11691,2,0,P|215:165|221:194,1,60.0000022888184
253,266,11894,1,0,1:0:0:0:
67,365,12096,6,0,B|57:298|57:298|59:297|59:297|51:247,1,120.000004577637,4|8,0:0|1:2,0:0:0:0:
99,186,12400,2,0,L|103:126,1,60.0000022888184,2|0,0:0|0:0,0:0:0:0:
103,126,12603,1,0,1:0:0:0:
103,126,12704,1,0,0:0:0:0:
241,28,12907,2,0,B|316:52|273:76|342:99,1,120.000004577637,2|8,1:2|3:2,0:0:0:0:
335,96,13211,1,2,1:0:0:0:
335,96,13312,1,0,0:0:0:0:
241,17,13515,1,8,1:2:0:0:
110,140,13718,6,0,P|128:200|217:162,1,180.000006866455,2|0,1:0|3:0,0:0:0:0:
221,172,14123,2,0,P|241:151|271:151,1,60.0000022888184,0|0,1:0|1:0,0:0:0:0:
297,233,14326,2,0,P|276:253|246:253,1,60.0000022888184,0|0,1:0|1:0,0:0:0:0:
475,168,14731,1,2,1:0:0:0:
472,179,14833,1,0,0:0:0:0:
469,191,14934,2,0,L|455:54,1,120,2|0,1:0|0:1,0:0:0:0:
486,9,15339,6,0,B|466:33|465:51|465:51|369:40,1,143.999995605469,6|0,0:0|3:0,0:0:0:0:
371,32,15745,2,0,L|268:54,1,95.9999970703126,2|2,1:1|0:0,0:0:0:0:
131,44,16150,1,0,3:0:0:0:
134,36,16252,1,0,1:0:0:0:
138,26,16353,1,0,0:0:0:0:
200,121,16556,6,0,L|210:167,1,47.9999985351563,2|0,1:0|0:0,0:0:0:0:
298,177,16758,1,0,3:0:0:0:
298,177,16860,1,0,0:0:0:0:
298,177,16961,2,0,B|209:197|266:232|170:247,1,143.999995605469,8|0,3:2|0:0,0:0:0:0:
127,182,17366,5,2,1:0:0:0:
256,250,17569,1,2,0:2:0:0:
138,339,17772,1,8,0:0:0:0:
137,333,17873,1,0,1:0:0:0:
136,327,17975,1,0,0:0:0:0:
307,369,18177,5,2,1:0:0:0:
340,375,18279,1,0,1:0:0:0:
372,358,18380,1,0,1:0:0:0:
385,329,18481,1,0,1:0:0:0:
376,294,18583,2,0,B|383:231|383:231|385:228|385:228|393:137,1,143.999995605469,4|2,3:2|3:1,0:0:0:0:
381,146,18988,2,0,P|394:127|415:116,1,47.9999985351563,0|0,0:0|3:0,0:0:0:0:
447,51,19191,2,0,P|470:52|490:65,1,47.9999985351563,0|0,1:0|0:0,0:0:0:0:
466,237,19394,6,0,L|460:286,1,47.9999985351563,6|0,3:2|0:0,0:0:0:0:
396,217,19596,1,0,1:0:0:0:
395,225,19698,1,0,1:0:0:0:
394,233,19799,2,0,L|388:282,1,47.9999985351563,2|0,3:2|0:0,0:0:0:0:
320,221,20002,2,0,L|314:270,1,47.9999985351563,8|0,1:2|0:0,0:0:0:0:
167,272,20204,6,0,P|118:225|76:228,1,95.9999970703126,12|0,1:2|3:0,0:0:0:0:
55,286,20508,2,0,P|82:323|128:334,1,95.9999970703126,0|0,1:0|3:0,0:0:0:0:
173,278,20812,1,0,1:0:0:0:
52,147,21015,5,2,1:1:0:0:
51,138,21116,1,0,3:0:0:0:
50,128,21218,1,0,3:1:0:0:
49,117,21319,1,0,3:0:0:0:
32,106,21421,2,0,L|77:91,1,47.9999985351563,0|0,1:0|1:0,0:0:0:0:
162,22,21623,5,0,1:0:0:0:
162,22,21725,1,0,1:0:0:0:
162,22,21826,2,0,P|216:71|281:49,1,143.999995605469,4|0,3:2|0:0,0:0:0:0:
284,66,22231,2,0,P|338:35|384:44,2,95.9999970703126,8|2|0,0:0|0:0|3:0,0:0:0:0:
372,169,22839,1,2,0:0:0:0:
374,162,22941,1,2,0:0:0:0:
377,155,23042,1,8,0:0:0:0:
233,223,23245,6,0,L|245:284,1,47.9999985351563,2|0,0:0|0:0,0:0:0:0:
312,319,23448,2,0,L|155:299,1,143.999995605469,0|0,3:0|0:0,0:0:0:0:
168,307,23853,1,8,0:0:0:0:
234,359,24056,1,2,0:0:0:0:
346,206,24258,6,0,P|387:201|435:238,1,95.9999970703126,2|2,3:2|3:2,0:0:0:0:
512,360,24664,1,8,0:0:0:0:
488,361,24765,1,8,0:0:0:0:
464,363,24866,1,8,0:0:0:0:
440,364,24968,1,8,0:0:0:0:
416,366,25069,1,4,3:2:0:0:
134,153,25880,6,0,B|120:159|120:159|83:116|113:85,2,96,2|2|2,0:0|0:0|0:0,0:0:0:0:
174,46,26691,2,0,L|69:20,2,96,2|2|2,0:0|0:0|0:0,0:0:0:0:
240,136,27502,1,2,0:0:0:0:
240,136,28110,5,2,0:0:0:0:
299,93,28312,2,0,P|345:69|388:84,2,96,2|2|2,0:0|0:0|0:0,0:0:0:0:
243,209,29123,2,0,B|233:276|267:259|247:338,2,128,2|2|2,0:0|0:0|0:0,0:0:0:0:
133,169,30542,1,2,0:0:0:0:
133,169,30745,1,2,0:0:0:0:
73,315,31353,5,2,0:0:0:0:
22,367,31556,2,0,P|92:376|112:385,2,90.0000034332277,2|2|2,0:0|0:0|0:0,0:0:0:0:
73,315,32366,1,2,0:0:0:0:
326,378,32975,5,2,0:0:0:0:
374,317,33177,2,0,P|403:310|432:314,2,60.0000022888184,2|2|2,0:0|0:0|0:0,0:0:0:0:
315,270,33785,1,2,0:0:0:0:
315,270,33988,1,2,0:0:0:0:
446,86,34596,5,2,0:0:0:0:
383,124,34799,2,0,P|344:108|353:68,2,90.0000034332277,2|2|2,0:0|0:0|0:0,0:0:0:0:
446,86,35610,1,2,0:0:0:0:
446,86,36015,1,2,0:0:0:0:
290,231,36421,6,0,P|251:211|206:206,2,90.0000034332277,2|2|2,0:0|0:0|0:0,0:0:0:0:
330,295,37231,1,2,0:0:0:0:
343,371,37434,1,2,0:0:0:0:
405,334,37637,1,2,0:0:0:0:
479,333,37839,1,2,0:0:0:0:
436,164,38042,6,0,B|394:76|394:76|432:213,1,240,4|0,3:2|0:0,0:0:0:0:
501,271,38853,2,0,L|344:239,1,160,4|2,3:1|3:2,0:0:0:0:
402,286,39461,1,2,0:0:0:0:
309,120,39664,6,0,P|272:131|253:165,1,80,6|2,1:2|0:2,0:0:0:0:
195,275,40069,1,2,0:2:0:0:
195,275,40171,2,0,P|157:264|138:230,1,80
143,220,40475,2,0,L|134:186,3,26.6666666666667,0|0|0|0,3:0|0:0|0:0|0:0,0:0:0:0:
103,61,40880,1,12,0:0:0:0:
62,300,41285,6,0,B|153:310|122:348|215:362,1,160,4|8,3:2|0:0,0:0:0:0:
324,271,41894,2,0,P|348:257|370:256,2,40,0|0|0,0:0|0:0|3:0,0:0:0:0:
392,341,42299,1,0,0:0:0:0:
310,282,42502,1,8,0:0:0:0:
382,184,42704,6,0,P|393:150|323:114,1,120
326,118,43110,1,0,0:0:0:0:
205,26,43312,2,0,L|199:109,1,80,8|0,0:0|0:0,0:0:0:0:
209,116,43616,1,0,0:0:0:0:
218,124,43718,1,0,3:0:0:0:
138,200,43921,2,0,P|101:188|88:151,2,80,0|8|0,0:0|0:0|0:0,0:0:0:0:
148,197,44427,1,0,0:0:0:0:
152,191,44529,6,0,L|134:326,1,120,4|0,3:2|0:0,0:0:0:0:
174,378,44934,2,0,P|202:350|241:343,1,80,8|0,0:0|0:0,0:0:0:0:
250,348,45238,1,0,0:0:0:0:
259,360,45339,1,0,3:0:0:0:
137,301,45542,1,0,0:0:0:0:
245,213,45745,1,8,0:0:0:0:
290,143,45948,6,0,L|277:100,2,40,0|0|0,0:0|0:0|3:0,0:0:0:0:
349,194,46353,1,0,0:0:0:0:
494,255,46556,1,8,0:0:0:0:
435,305,46758,5,0,0:0:0:0:
441,313,46860,1,0,0:0:0:0:
429,318,46961,2,0,P|410:277|422:243,2,80,0|0|8,3:0|0:0|0:0,0:0:0:0:
294,377,47569,2,0,L|250:366,1,40
407,384,47772,6,0,B|429:364|429:364|381:379,1,80,4|0,3:2|0:0,0:0:0:0:
254,376,48177,1,8,0:0:0:0:
418,384,48380,2,0,L|429:304,2,80,0|0|0,0:0|3:0|0:0,0:0:0:0:
292,269,48988,1,8,0:0:0:0:
292,269,49191,1,0,2:0:0:0:
440,93,49394,6,0,L|446:132,1,40,4|0,3:2|0:0,0:0:0:0:
456,206,49596,1,0,3:0:0:0:
308,109,49799,1,0,0:0:0:0:
308,109,49900,1,0,0:0:0:0:
308,109,50002,2,0,P|292:111|264:134,1,40,2|0,0:0|0:0,0:0:0:0:
186,61,50204,2,0,P|170:59|142:36,1,40,2|0,0:0|0:0,0:0:0:0:
94,90,50407,1,0,0:0:0:0:
215,260,50610,5,0,0:0:0:0:
215,260,50711,1,0,0:0:0:0:
215,260,50812,2,0,P|234:298|235:311,1,40,2|0,0:0|0:0,0:0:0:0:
223,309,51015,2,0,L|134:293,1,80,2|0,0:0|0:0,0:0:0:0:
259,184,51421,1,0,0:0:0:0:
295,188,51522,1,0,0:0:0:0:
323,217,51623,1,0,0:0:0:0:
333,253,51725,1,0,0:0:0:0:
349,291,51826,6,0,P|371:311|398:313,1,40,0|0,1:0|1:0,0:0:0:0:
451,288,52029,2,0,L|458:226,1,47.9999985351563,0|0,1:0|1:0,0:0:0:0:
466,157,52231,2,0,L|473:90,1,47.9999985351563,2|0,1:2|1:0,0:0:0:0:
358,22,52434,5,8,1:0:0:0:
358,22,52535,1,0,1:0:0:0:
358,22,52637,1,4,3:2:0:0:
192,129,52839,2,0,P|220:116|317:109,1,120.000004577637,8|8,1:0|3:2,0:0:0:0:
317,117,53144,1,0,0:0:0:0:
317,117,53245,2,0,B|347:125|377:133|377:133|408:114|395:79,2,120.000004577637,8|2|8,1:0|1:0|0:1,0:0:0:0:
174,57,53853,2,0,P|165:26|155:-5,1,60.0000022888184,2|0,3:1|0:0,0:0:0:0:
142,4,54056,1,8,0:1:0:0:
62,137,54258,6,0,B|53:126|53:126|84:120|94:139,1,60.0000022888184,2|0,1:0|0:0,0:0:0:0:
174,57,54461,2,0,B|184:48|184:48|190:79|171:89,1,60.0000022888184,8|0,0:1|3:1,0:0:0:0:
251,176,54664,1,10,1:2:0:0:
251,176,54765,1,0,0:0:0:0:
251,176,54866,2,0,B|259:186|259:186|228:192|218:173,1,60.0000022888184,8|0,0:1|0:0,0:0:0:0:
140,253,55069,2,0,B|129:261|129:261|123:230|142:220,1,60.0000022888184,2|0,1:0|0:0,0:0:0:0:
197,338,55272,2,0,P|140:318|80:314,1,120.000004577637,8|8,0:1|1:2,0:0:0:0:
74,320,55576,1,0,0:0:0:0:
70,333,55677,1,8,0:1:0:0:
278,278,55880,5,12,3:2:0:0:
401,382,56083,2,0,L|382:263,1,120.000004577637,8|2,0:1|3:1,0:0:0:0:
512,209,56488,1,8,1:0:0:0:
380,69,56691,2,0,L|369:139,1,60.0000022888184,2|0,3:2|0:0,0:0:0:0:
435,191,56894,1,8,1:0:0:0:
436,184,56995,1,0,0:0:0:0:
435,178,57096,2,0,B|358:157|383:212|302:185,1,120.000004577637,2|10,3:1|1:0,0:0:0:0:
174,99,57502,5,2,3:1:0:0:
278,260,57704,2,0,P|275:200|251:145,1,120.000004577637,8|2,1:0|3:1,0:0:0:0:
249,138,58008,1,0,0:0:0:0:
251,126,58110,2,0,L|262:61,1,60.0000022888184,8|0,1:0|0:0,0:0:0:0:
163,199,58312,2,0,L|37:228,1,120.000004577637,4|8,3:2|1:0,0:0:0:0:
43,237,58718,5,0,1:2:0:0:
79,245,58819,1,0,1:2:0:0:
109,273,58921,1,8,1:0:0:0:
112,314,59022,1,8,1:0:0:0:
96,351,59123,1,4,1:0:0:0:
257,316,59326,5,8,1:0:0:0:
248,329,59427,2,0,B|219:354|219:354|309:322,1,120.000004577637
347,273,59731,2,0,L|430:290,1,60.0000022888184,8|0,0:1|0:0,0:0:0:0:
313,167,59934,2,0,P|262:191|268:247,2,120.000004577637,8|8|2,1:2|0:1|1:0,0:0:0:0:
330,173,60441,1,0,0:0:0:0:
341,189,60542,1,8,1:0:0:0:
458,182,60745,6,0,P|447:140|446:115,1,60.0000022888184,2|0,1:1|0:0,0:0:0:0:
478,42,60948,2,0,P|436:53|411:54,1,60.0000022888184,8|0,1:0|0:0,0:0:0:0:
334,19,61150,2,0,P|345:61|346:86,1,60.0000022888184,8|0,3:2|0:0,0:0:0:0:
313,167,61353,2,0,P|355:156|380:155,1,60.0000022888184,8|0,1:0|0:0,0:0:0:0:
458,182,61556,5,8,3:2:0:0:
346,77,61758,1,10,1:0:0:0:
222,169,61961,1,0,3:0:0:0:
228,179,62062,1,0,0:0:0:0:
231,189,62164,1,8,0:1:0:0:
141,328,62366,6,0,B|98:287|58:302|57:323|69:333|89:334|109:320|111:316,1,120.000004577637,4|0,3:1|3:0,0:0:0:0:
280,361,62772,2,0,P|308:347|344:347,2,60.0000022888184,0|0|0,1:0|0:0|0:0,0:0:0:0:
144,337,63177,2,0,B|123:271|172:298|143:218,2,120.000004577637,8|0|0,3:2|3:0|1:0,0:0:0:0:
165,144,63785,1,0,0:0:0:0:
344,243,63988,5,8,1:2:0:0:
378,259,64089,1,8,1:2:0:0:
165,144,64292,1,8,1:2:0:0:
255,61,64495,5,8,1:2:0:0:
255,112,64596,1,8,1:2:0:0:
134,259,64799,5,0,1:0:0:0:
347,144,65002,2,0,P|372:123|408:123,1,60.0000022888184,0|0,3:0|3:0,0:0:0:0:
468,85,65204,2,0,L|475:25,2,60.0000022888184,0|0|0,1:0|3:0|3:0,0:0:0:0:
445,289,65610,6,0,B|379:387|302:346|267:342|261:293|281:257|355:265|343:332,1,287.999991210938,4|0,3:2|0:0,0:0:0:0:
137,380,66421,1,4,3:1:0:0:
144,377,67231,6,0,L|152:310,1,47.9999985351563,8|0,1:0|3:0,0:0:0:0:
171,217,67434,2,0,L|179:150,1,47.9999985351563,0|0,3:0|3:0,0:0:0:0:
52,259,67637,6,0,L|119:267,1,47.9999985351563,8|0,1:0|3:0,0:0:0:0:
226,286,67840,2,0,L|293:294,1,47.9999985351563,0|0,3:0|3:0,0:0:0:0:
88,180,68042,5,10,1:1:0:0:
88,180,68245,1,0,1:1:0:0:
88,180,68448,1,8,1:0:0:0:
66,148,68549,1,8,1:0:0:0:
60,98,68650,1,8,1:0:0:0:
92,50,68752,1,8,1:0:0:0:
139,33,68853,2,0,P|224:39|276:56,1,120.000004577637,4|8,3:2|0:1,0:0:0:0:
441,12,69258,6,0,L|457:71,2,60.0000022888184,2|0|8,1:1|0:0|1:0,0:0:0:0:
332,150,69664,1,2,1:0:0:0:
439,209,69866,1,8,0:1:0:0:
448,207,69968,1,0,3:1:0:0:
458,205,70069,2,0,L|467:145,1,60.0000022888184,2|0,3:2|0:0,0:0:0:0:
399,118,70272,1,8,0:1:0:0:
277,283,70475,6,0,B|204:304|246:338|158:359,2,120.000004577637,2|8|2,1:1|1:0|3:1,0:0:0:0:
277,283,70981,1,0,0:0:0:0:
277,283,71083,1,8,1:0:0:0:
133,220,71285,2,0,P|149:271|152:292,1,60.0000022888184,2|0,1:1|0:0,0:0:0:0:
158,276,71488,2,0,P|151:246|140:218,1,60.0000022888184,8|0,1:0|0:0,0:0:0:0:
63,171,71691,1,10,1:2:0:0:
200,37,71894,5,8,1:0:0:0:
200,37,71995,1,0,1:0:0:0:
200,37,72096,2,0,B|221:55|225:86|225:86|241:57|281:49,1,120.000004577637,4|8,1:2|0:1,0:0:0:0:
418,153,72502,2,0,P|447:152|477:156,1,60.0000022888184,8|0,3:2|0:0,0:0:0:0:
479,78,72704,2,0,P|449:78|419:74,1,60.0000022888184,8|0,1:0|0:0,0:0:0:0:
306,182,72907,6,0,P|295:238|334:282,1,120.000004577637,2|8,1:0|1:1,0:0:0:0:
343,287,73211,1,0,0:0:0:0:
353,286,73312,1,10,0:0:0:0:
251,346,73515,2,0,P|211:329|178:328,1,60.0000022888184,8|2,1:0|0:0,0:0:0:0:
151,384,73718,6,0,L|130:265,1,120.000004577637,8|8,1:2|1:0,0:0:0:0:
130,260,74022,1,0,0:0:0:0:
130,254,74123,1,2,1:0:0:0:
89,106,74326,2,0,L|77:172,1,60.0000022888184,8|0,0:1|0:0,0:0:0:0:
102,190,74529,2,0,B|173:206|134:236|217:249,2,120.000004577637,2|8|0,1:0|1:0|0:0,0:0:0:0:
210,255,75137,1,10,1:0:0:0:
318,137,75339,6,0,P|317:106|401:72,1,120.000004577637,6|8,1:0|1:1,0:0:0:0:
470,164,75745,1,0,1:0:0:0:
473,176,75846,1,10,0:1:0:0:
475,189,75948,1,0,0:0:0:0:
476,202,76049,1,0,1:0:0:0:
478,213,76150,1,14,1:2:0:0:
350,334,76353,5,0,3:0:0:0:
350,334,76454,2,0,B|360:374|310:348|300:302|368:256,1,120.000004577637,8|0,1:0|1:1,0:0:0:0:
403,227,76758,1,8,3:1:0:0:
291,199,76961,6,0,P|343:226|403:228,1,120.000004577637,4|8,1:1|1:0,0:0:0:0:
426,142,77265,1,8,1:0:0:0:
426,142,77366,2,0,P|373:114|313:112,1,120.000004577637,10|8,1:0|1:0,0:0:0:0:
178,240,77772,2,0,P|190:266|194:308,1,60.0000022888184,10|8,1:0|1:0,0:0:0:0:
203,296,77975,2,0,P|198:266|186:239,1,60.0000022888184,8|8,1:0|1:0,0:0:0:0:
130,176,78177,2,0,L|248:196,1,120.000004577637,8|8,1:0|1:0,0:0:0:0:
502,337,78583,6,0,P|430:337|402:280,1,120.000004577637,6|10,1:0|1:2,0:0:0:0:
351,374,78887,2,0,P|315:312|351:259,1,120.000004577637,2|0,3:2|3:2,0:0:0:0:
353,200,79191,2,0,B|356:178|385:182|380:232|347:241|249:228|243:229|221:260|265:277|269:243,1,180.000006866455,8|0,1:2|0:0,0:0:0:0:
332,272,79596,5,0,1:0:0:0:
302,143,79799,1,2,3:1:0:0:
273,20,80002,1,8,1:2:0:0:
160,103,80204,6,0,L|228:120,1,60.0000022888184,2|0,3:1|0:0,0:0:0:0:
314,157,80407,1,8,1:2:0:0:
314,157,80509,2,0,B|364:155|364:155|279:119,1,120.000004577637
232,208,80813,2,0,L|247:270,1,60.0000022888184,8|0,1:2|0:0,0:0:0:0:
269,345,81015,1,2,3:1:0:0:
74,278,81218,6,0,P|62:250|69:221,1,60.0000022888184,8|0,1:2|0:0,0:0:0:0:
143,221,81421,2,0,P|154:248|147:277,1,60.0000022888184,0|0,1:1|0:0,0:0:0:0:
108,340,81624,1,2,0:0:0:0:
0,136,81826,6,0,B|67:126|67:126|68:128|68:128|118:120,1,120.000004577637,12|0,1:2|1:0,0:0:0:0:
187,148,82130,2,0,P|192:119|185:88,1,60.0000022888184,8|0,1:2|0:0,0:0:0:0:
185,89,82333,1,2,1:0:0:0:
185,89,82434,1,0,1:0:0:0:
403,264,82637,6,0,B|336:254|336:254|335:256|335:256|285:248,1,120.000004577637,2|0,1:0|0:0,0:0:0:0:
285,248,82941,1,8,1:2:0:0:
285,248,83042,1,0,0:0:0:0:
356,206,83245,1,0,1:0:0:0:
173,243,83448,6,0,B|105:266|105:266|84:325|130:364,1,180.000006866455,8|0,0:0|3:0,0:0:0:0:
247,329,83853,2,0,L|188:318,1,60.0000022888184,0|0,1:0|1:0,0:0:0:0:
83,246,84056,2,0,L|24:235,1,60.0000022888184,0|0,1:0|1:0,0:0:0:0:
181,96,84461,1,8,1:2:0:0:
187,90,84563,1,0,0:0:0:0:
193,80,84664,2,0,P|257:64|293:113,1,120,8|0,1:2|0:0,0:0:0:0:
366,132,85069,6,0,B|327:154|327:154|358:59,1,143.999995605469,4|0,3:2|0:0,0:0:0:0:
354,49,85475,2,0,L|448:29,1,95.9999970703126,2|2,1:0|0:0,0:0:0:0:
277,0,85880,1,0,3:0:0:0:
273,10,85981,1,0,1:0:0:0:
270,18,86083,1,2,0:0:0:0:
198,104,86286,6,0,L|152:114,1,47.9999985351563,0|0,1:0|0:0,0:0:0:0:
152,196,86488,1,2,0:0:0:0:
152,196,86590,1,0,1:0:0:0:
152,196,86691,2,0,B|132:107|97:164|82:68,1,143.999995605469,2|2,3:1|0:0,0:0:0:0:
92,69,87096,5,0,1:1:0:0:
63,257,87299,1,2,0:0:0:0:
255,200,87502,1,8,3:2:0:0:
255,200,87603,1,0,1:0:0:0:
255,200,87705,1,0,0:0:0:0:
434,363,87907,5,0,1:0:0:0:
440,330,88009,1,0,1:0:0:0:
423,298,88110,1,0,1:0:0:0:
394,285,88211,1,0,1:0:0:0:
358,292,88313,2,0,B|295:285|295:285|292:283|292:283|201:275,1,143.999995605469,4|2,3:1|1:1,0:0:0:0:
207,281,88718,2,0,P|226:294|237:315,1,47.9999985351563
301,341,88921,2,0,P|300:364|287:384,1,47.9999985351563,0|0,1:0|0:0,0:0:0:0:
160,384,89124,6,0,L|111:378,1,47.9999985351563,2|0,1:0|0:0,0:0:0:0:
113,307,89326,1,0,3:0:0:0:
105,306,89428,1,2,1:1:0:0:
97,305,89529,2,0,L|48:299,1,47.9999985351563,0|0,0:0|3:0,0:0:0:0:
51,222,89732,2,0,L|2:216,1,47.9999985351563,0|0,1:0|0:0,0:0:0:0:
59,142,89934,6,0,P|104:152|132:190,1,95.9999970703126,4|0,1:2|0:2,0:0:0:0:
207,183,90238,2,0,P|217:137|254:109,1,95.9999970703126,0|0,1:0|3:0,0:0:0:0:
331,111,90542,1,0,1:0:0:0:
137,17,90745,5,2,1:0:0:0:
138,26,90846,1,0,1:0:0:0:
139,36,90948,1,0,1:0:0:0:
140,47,91049,1,0,1:0:0:0:
155,69,91151,2,0,L|110:84,3,47.9999985351563,2|0|0|0,1:0|1:0|1:0|1:0,0:0:0:0:
154,40,91556,6,0,B|200:91|200:91|273:67,1,143.999995605469,4|0,3:2|0:0,0:0:0:0:
277,48,91961,2,0,B|316:18|316:18|377:26,2,95.9999970703126,8|2|2,0:0|0:0|3:2,0:0:0:0:
372,169,92569,1,2,0:0:0:0:
374,162,92671,1,2,0:0:0:0:
377,155,92772,1,8,0:0:0:0:
352,241,92975,1,2,0:0:0:0:
246,200,93177,6,0,P|187:228|137:235,1,95.9999970703126,0|2,3:0|3:2,0:0:0:0:
133,232,93481,1,0,0:0:0:0:
116,215,93583,1,10,0:2:0:0:
50,310,93785,2,0,P|54:339|53:375,2,47.9999985351563,2|2|0,0:0|0:0|3:0,0:0:0:0:
246,200,94191,6,0,B|238:216|238:216|265:202,1,47.9999985351563,8|0,3:2|0:0,0:0:0:0:
377,162,94394,2,0,B|364:160|364:160|396:148,1,47.9999985351563,8|0,3:2|0:2,0:0:0:0:
512,133,94596,1,14,3:2:0:0:
