osu file format v14

[General]
AudioFilename: audio.mp3
AudioLeadIn: 0
PreviewTime: 55792
Countdown: 0
SampleSet: Soft
StackLeniency: 0.6
Mode: 0
LetterboxInBreaks: 0
WidescreenStoryboard: 1

[Editor]
Bookmarks: 75683,85683
DistanceSpacing: 1
BeatDivisor: 4
GridSize: 8
TimelineZoom: 1.3

[Metadata]
Title:Kirameki*Chocolaterie
TitleUnicode:きらめき*Chocolaterie
Artist:KyoKa
ArtistUnicode:KyoKa
Creator:-Atri-
Version:Normal
Source:あまいろショコラータ
Tags:Firis Mistlud KuranteMelodii krt Yusomi cabbage soft きゃべつそふと しらたま Shiratama 梱枝りこ Korie Riko 藤井稿太郎 Fujii Koutarou 原瀬今日香 Harase Kyouka あまショコ amachoco eroge amairo chocolata Chocolate op opening short ver. version visual novel japanese video game pop j-pop jpop
BeatmapID:2326009
BeatmapSetID:1113378

[Difficulty]
HPDrainRate:4
CircleSize:3.5
OverallDifficulty:4
ApproachRate:4
SliderMultiplier:1.20000000596046
SliderTickRate:0.5

[Events]
//Background and Video events
0,0,"normal.jpg",0,0
//Break Periods
//Storyboard Layer 0 (Background)
//Storyboard Layer 1 (Fail)
//Storyboard Layer 2 (Pass)
//Storyboard Layer 3 (Foreground)
//Storyboard Layer 4 (Overlay)
//Storyboard Sound Samples

[TimingPoints]
466,434.782608695652,4,2,3,45,1,0
466,-100,4,2,3,45,0,0
3944,-100,4,2,1,60,0,0
5683,-100,4,2,1,60,0,0
7422,-100,4,2,1,75,0,0
23074,-100,4,2,1,80,0,0
24379,-100,4,2,1,75,0,0
24813,-100,4,2,2,60,0,0
30900,-100,4,2,1,60,0,0
31335,-100,4,2,2,60,0,0
31552,-100,4,2,1,60,0,0
31770,-100,4,2,1,60,0,0
38726,-100,4,2,1,50,0,0
45683,-100,4,2,1,60,0,0
52639,-100,4,2,1,75,0,0
54379,-100,4,2,1,75,0,0
55683,-100,4,2,1,5,0,0
56118,-100,4,2,1,75,0,1
62857,-100,4,2,1,75,0,0
63074,-100,4,2,1,75,0,1
69813,-100,4,2,1,75,0,0
70031,-100,4,2,1,75,0,1
76987,-100,4,2,1,75,0,0
92639,-100,4,2,1,80,0,0

[Colours]
Combo1 : 193,192,199
Combo2 : 58,71,224

[HitObjects]
46,367,466,6,0,P|19:314|35:253,1,120.000000596046,2|0,0:0|0:0,0:0:0:0:
128,186,1335,2,0,P|187:189|232:233,1,120.000000596046,2|0,0:0|0:0,0:0:0:0:
314,313,2205,2,0,L|320:191,2,120.000000596046,2|2|2,0:0|0:0|0:0,0:0:0:0:
414,378,3509,1,2,0:0:0:0:
505,300,3944,6,0,P|492:247|503:175,1,120.000000596046,4|0,0:1|0:0,0:0:0:0:
393,127,4813,2,0,P|406:74|395:2,1,120.000000596046,4|0,0:1|0:0,0:0:0:0:
278,25,5683,2,0,B|209:32|209:32|196:53,2,90.0000004470345,8|8|8,1:0|1:0|1:0,0:0:0:0:
305,78,6552,1,8,1:0:0:0:
269,192,6987,1,8,0:3:0:0:
261,311,7422,6,0,P|319:291|368:306,2,90.0000004470345,6|2|10,1:2|1:2|0:0,0:0:0:0:
205,333,8292,2,0,P|154:354|92:321,1,120.000000596046,2|2,1:2|0:0,0:0:0:0:
38,222,9161,2,0,L|33:107,2,90.0000004470345,2|2|10,1:2|1:2|0:0,0:0:0:0:
95,240,10031,2,0,B|172:241|134:199|220:202,1,120.000000596046,2|2,1:2|0:0,0:0:0:0:
317,242,10900,5,2,1:2:0:0:
317,242,11118,2,0,B|299:203|299:203|304:115,1,120.000000596046,10|10,0:0|0:0,0:0:0:0:
339,77,11770,1,2,1:2:0:0:
339,77,11987,2,0,P|404:57|451:82,1,120.000000596046,10|10,0:0|0:0,0:0:0:0:
496,113,12639,2,0,L|505:19,2,90.0000004470345,2|0|10,1:2|1:2|0:0,0:0:0:0:
466,165,13509,2,0,L|455:289,1,120.000000596046,2|2,1:2|0:0,0:0:0:0:
352,346,14379,6,0,P|312:362|264:349,2,90.0000004470345,6|2|10,1:2|1:2|0:0,0:0:0:0:
349,286,15248,2,0,L|338:162,1,120.000000596046,2|2,1:2|0:0,0:0:0:0:
323,47,16118,2,0,P|366:36|407:52,2,90.0000004470345,2|2|10,1:2|1:2|0:0,0:0:0:0:
271,77,16987,2,0,B|192:80|226:59|152:56,1,120.000000596046,2|2,1:2|0:0,0:0:0:0:
34,51,17857,5,2,1:2:0:0:
34,51,18074,2,0,L|33:182,1,120.000000596046,10|10,0:0|0:0,0:0:0:0:
24,230,18726,2,0,P|91:241|139:214,1,120.000000596046,2|2,1:2|0:0,0:0:0:0:
161,165,19379,1,10,0:0:0:0:
161,165,19596,2,0,L|276:181,1,60.000000298023,2|10,1:2|0:0,0:0:0:0:
274,147,20031,2,0,P|306:181|312:214,1,60.000000298023,2|10,0:0|0:0,0:0:0:0:
321,251,20465,2,0,L|311:374,1,120.000000596046,2|8,1:2|0:3,0:0:0:0:
198,329,21335,5,0,1:0:0:0:
79,348,21770,1,0,1:0:0:0:
3,254,22205,1,0,1:0:0:0:
46,142,22639,1,0,1:0:0:0:
165,123,23074,6,0,L|241:120,1,60.000000298023,8|8,0:1|0:1,0:0:0:0:
279,146,23509,2,0,L|355:149,1,60.000000298023,8|8,0:1|0:1,0:0:0:0:
361,92,23944,2,0,B|388:70|388:70|435:59|476:75,1,120.000000596046,8|4,0:1|0:3,0:0:0:0:
498,190,24813,5,2,0:0:0:0:
498,190,25031,2,0,L|487:315,1,120.000000596046,8|8,3:2|3:2,0:0:0:0:
372,335,25900,2,0,B|309:328|337:360|256:357,1,120.000000596046,8|8,3:2|1:2,0:0:0:0:
213,314,26552,1,2,0:0:0:0:
213,314,26770,2,0,L|202:194,1,120.000000596046,8|8,3:2|3:2,0:0:0:0:
173,78,27639,2,0,P|111:50|59:83,1,120.000000596046,8|8,3:2|1:2,0:0:0:0:
37,123,28292,5,2,0:0:0:0:
37,123,28509,2,0,L|42:251,1,120.000000596046,8|8,3:2|3:2,0:0:0:0:
36,302,29161,1,2,0:2:0:0:
36,302,29379,2,0,P|98:274|150:307,1,120.000000596046,8|0,3:2|1:2,0:0:0:0:
181,339,30031,1,2,0:0:0:0:
181,339,30248,2,0,B|261:336|231:361|323:352,1,120.000000596046,8|8,3:2|3:2,0:0:0:0:
357,338,30900,1,8,3:0:0:0:
442,253,31335,2,0,L|440:190,1,60.000000298023,8|0,0:0|1:0,0:0:0:0:
424,134,31770,6,0,P|497:142|525:133,2,90.0000004470345,6|2|10,1:2|0:0|0:0,0:0:0:0:
372,102,32639,2,0,L|370:11,2,90.0000004470345,2|2|10,1:2|0:0|0:0,0:0:0:0:
318,129,33509,2,0,L|249:124,1,60.000000298023,2|8,1:2|0:0,0:0:0:0:
214,165,33944,2,0,L|145:160,1,60.000000298023,2|8,1:2|0:0,0:0:0:0:
127,106,34379,2,0,P|77:79|6:108,1,120.000000596046,2|0,1:2|0:0,0:0:0:0:
19,206,35248,6,0,L|27:336,1,120.000000596046,2|0,1:2|0:0,0:0:0:0:
75,360,35900,1,8,0:0:0:0:
75,360,36118,2,0,B|151:367|126:321|194:330,1,120.000000596046,2|0,1:2|0:0,0:0:0:0:
295,278,36987,2,0,P|304:340|299:374,2,90.0000004470345,8|8|8,1:0|1:0|1:0,0:0:0:0:
263,227,37857,2,0,L|142:222,1,120.000000596046,8|0,1:0|1:0,0:0:0:0:
40,159,38726,6,0,B|19:110|62:56|62:56|104:72|152:57,1,180.000000894069,4|0,0:0|1:0,0:0:0:0:
182,33,39596,1,0,1:0:0:0:
284,95,40031,2,0,L|348:90,1,60.000000298023,8|0,0:3|0:0,0:0:0:0:
397,117,40465,2,0,P|407:43|396:-1,2,120.000000596046,0|8|0,1:0|0:3|1:0,0:0:0:0:
346,226,41770,2,0,L|351:290,1,60.000000298023,8|2,0:3|0:0,0:0:0:0:
335,344,42205,6,0,P|430:365|476:301,1,180.000000894069,0|0,1:0|1:0,0:0:0:0:
458,250,43074,1,0,1:0:0:0:
493,135,43509,2,0,L|490:71,1,60.000000298023,8|0,0:0|0:0,0:0:0:0:
441,39,43944,2,0,B|381:37|397:68|320:67,1,120.000000596046,0|8,1:0|0:3,0:0:0:0:
267,52,44596,1,0,1:0:0:0:
267,52,44813,2,0,L|199:53,1,60.000000298023,0|8,1:0|0:3,0:0:0:0:
147,60,45248,1,8,0:3:0:0:
192,174,45683,6,0,P|246:154|298:180,1,120.000000596046,4|0,1:2|0:0,0:0:0:0:
341,223,46335,1,8,0:0:0:0:
341,223,46552,2,0,L|440:221,2,90.0000004470345,0|0|8,1:2|1:0|0:0,0:0:0:0:
320,279,47422,2,0,L|323:368,2,90.0000004470345,0|0|8,1:2|1:0|0:0,0:0:0:0:
266,252,48292,1,0,1:0:0:0:
171,325,48726,1,0,0:0:0:0:
74,255,49161,6,0,L|70:347,2,90.0000004470345,6|0|10,1:2|1:0|0:2,0:0:0:0:
84,195,50031,2,0,P|48:180|-5:191,2,90.0000004470345,2|0|10,1:2|1:0|0:2,0:0:0:0:
141,211,50900,2,0,L|127:84,1,120.000000596046,6|2,1:2|0:2,0:0:0:0:
153,37,51552,1,10,0:2:0:0:
153,37,51770,1,2,1:2:0:0:
255,99,52205,2,0,L|319:104,1,60.000000298023,2|10,0:2|0:2,0:0:0:0:
373,114,52639,6,0,P|385:49|373:10,2,90.0000004470345,12|8|8,0:1|0:1|1:2,0:0:0:0:
390,171,53509,2,0,P|378:236|390:275,2,90.0000004470345,8|8|8,0:1|0:1|1:2,0:0:0:0:
448,156,54379,5,12,1:1:0:0:
507,223,54705,1,8,1:1:0:0:
490,311,55031,1,8,1:0:0:0:
490,311,55248,2,0,B|422:311|455:348|372:351,1,120.000000596046,12|0,1:0|0:0,0:0:0:0:
273,294,56118,6,0,L|280:387,2,90.0000004470345,6|2|10,1:2|1:2|0:0,0:0:0:0:
255,236,56987,2,0,P|319:209|341:216,2,90.0000004470345,2|2|10,1:2|1:2|0:0,0:0:0:0:
208,197,57857,2,0,P|144:224|122:217,2,90.0000004470345,2|2|10,1:2|1:2|0:0,0:0:0:0:
207,137,58726,1,2,1:2:0:0:
141,36,59161,2,0,P|94:36|70:63,1,60.000000298023,2|10,0:0|0:0,0:0:0:0:
43,85,59596,6,0,L|31:208,1,120.000000596046,2|0,1:2|0:0,0:0:0:0:
59,321,60465,2,0,L|-4:316,2,60.000000298023,2|8|2,1:2|0:0|0:0,0:0:0:0:
105,359,61118,1,10,0:0:0:0:
105,359,61335,2,0,P|152:328|216:337,1,120.000000596046,2|2,1:2|0:0,0:0:0:0:
272,326,61987,1,10,0:0:0:0:
272,326,62205,2,0,P|319:357|383:348,1,120.000000596046,0|2,1:2|0:0,0:0:0:0:
469,269,63074,6,0,L|474:377,2,90.0000004470345,6|2|10,1:2|1:2|0:0,0:0:0:0:
433,220,63944,2,0,P|460:197|513:195,2,90.0000004470345,2|2|10,1:2|1:2|0:0,0:0:0:0:
378,194,64813,2,0,P|333:195|298:168,2,90.0000004470345,2|2|10,1:2|1:2|0:0,0:0:0:0:
404,139,65683,1,2,1:2:0:0:
462,34,66118,2,0,L|395:27,1,60.000000298023,2|10,0:0|0:0,0:0:0:0:
346,10,66552,6,0,B|276:13|310:45|221:49,1,120.000000596046,2|0,1:2|0:0,0:0:0:0:
174,43,67205,1,10,0:0:0:0:
174,43,67422,2,0,P|100:43|68:90,1,120.000000596046,2|2,1:2|0:0,0:0:0:0:
144,170,68292,2,0,L|239:163,2,90.0000004470345,2|2|10,1:2|1:2|0:0,0:0:0:0:
89,194,69161,2,0,L|83:266,1,60.000000298023,8|8,1:0|1:0,0:0:0:0:
130,291,69596,2,0,L|136:363,1,60.000000298023,8|8,1:0|1:0,0:0:0:0:
189,376,70031,6,0,B|258:376|234:335|302:336,1,120.000000596046,4|0,1:2|0:0,0:0:0:0:
352,307,70683,1,10,0:0:0:0:
352,307,70900,2,0,P|410:314|449:307,2,90.0000004470345,2|2|10,1:2|1:2|0:0,0:0:0:0:
349,246,71770,2,0,L|339:180,1,60.000000298023,2|0,1:2|0:0,0:0:0:0:
364,131,72205,2,0,L|354:65,1,60.000000298023,2|10,0:0|0:0,0:0:0:0:
342,13,72639,2,0,P|284:-2|231:22,1,120.000000596046,2|8,1:2|0:3,0:0:0:0:
122,72,73509,6,0,P|76:60|14:66,2,90.0000004470345,10|10|10,0:0|0:0|0:0,0:0:0:0:
170,108,74379,2,0,L|175:231,1,120.000000596046,6|6,0:0|0:0,0:0:0:0:
193,346,75248,1,0,1:0:0:0:
193,346,75465,2,0,P|140:353|84:319,1,120.000000596046,8|8,0:0|0:0,0:0:0:0:
64,268,76118,1,0,1:0:0:0:
64,268,76335,2,0,L|-3:263,2,60.000000298023,0|8|8,1:0|0:3|0:3,0:0:0:0:
82,210,76987,6,0,L|89:117,2,90.0000004470345,6|2|10,1:2|1:2|0:0,0:0:0:0:
139,228,77857,2,0,P|215:242|258:207,1,120.000000596046,2|2,1:2|0:0,0:0:0:0:
311,119,78726,2,0,L|318:26,2,90.0000004470345,2|2|10,1:2|1:2|0:0,0:0:0:0:
345,168,79596,2,0,B|354:228|309:225|328:286,1,120.000000596046,2|2,1:2|0:0,0:0:0:0:
414,372,80465,5,2,1:2:0:0:
414,372,80683,2,0,B|375:354|375:354|287:359,1,120.000000596046,10|10,0:0|0:0,0:0:0:0:
261,318,81335,1,2,1:2:0:0:
261,318,81552,2,0,B|222:336|222:336|134:331,1,120.000000596046,10|10,0:0|0:0,0:0:0:0:
96,295,82205,2,0,L|91:390,2,90.0000004470345,2|0|10,1:2|1:2|0:0,0:0:0:0:
115,238,83074,2,0,P|69:228|40:155,1,120.000000596046,2|2,1:2|0:0,0:0:0:0:
136,97,83944,6,0,L|131:2,2,90.0000004470345,6|2|10,1:2|1:2|0:0,0:0:0:0:
181,135,84813,2,0,P|235:130|289:166,1,120.000000596046,2|2,1:2|0:0,0:0:0:0:
377,245,85683,2,0,L|372:340,2,90.0000004470345,2|2|10,1:2|1:2|0:0,0:0:0:0:
418,201,86552,2,0,L|425:77,1,120.000000596046,2|2,1:2|0:0,0:0:0:0:
313,36,87422,5,2,1:2:0:0:
313,36,87639,2,0,P|241:17|201:48,1,120.000000596046,10|10,0:0|0:0,0:0:0:0:
155,67,88292,2,0,L|161:186,1,120.000000596046,2|2,1:2|0:0,0:0:0:0:
172,250,88944,1,10,0:0:0:0:
172,250,89161,2,0,L|236:247,1,60.000000298023,2|2,1:2|0:0,0:0:0:0:
263,195,89596,2,0,L|327:198,1,60.000000298023,2|10,0:0|0:0,0:0:0:0:
365,239,90031,2,0,P|447:269|482:250,1,120.000000596046,2|8,1:2|0:3,0:0:0:0:
505,141,90900,5,0,1:0:0:0:
437,41,91335,1,0,1:0:0:0:
345,118,91770,1,0,1:0:0:0:
263,29,92205,1,0,1:0:0:0:
157,85,92639,6,0,L|160:161,1,60.000000298023,8|8,0:1|0:1,0:0:0:0:
198,191,93074,2,0,L|195:267,1,60.000000298023,8|8,0:1|0:1,0:0:0:0:
157,297,93509,2,0,P|101:301|71:360,1,120.000000596046,8|4,0:1|0:3,0:0:0:0:
