osu file format v14

[General]
AudioFilename: audio.mp3
AudioLeadIn: 0
PreviewTime: 246
Countdown: 0
SampleSet: Soft
StackLeniency: 0.3
Mode: 0
LetterboxInBreaks: 0
WidescreenStoryboard: 0

[Editor]
DistanceSpacing: 0.9
BeatDivisor: 4
GridSize: 32
TimelineZoom: 1

[Metadata]
Title:Otoko no kunsho (tv size)
TitleUnicode:男の勲章 (tv size)
Artist:Kyo ore bando
ArtistUnicode:今日俺バンド
Creator:-Eriri-
Version:Insane
Source:今日から俺は!!
Tags:
BeatmapID:1844872
BeatmapSetID:882474

[Difficulty]
HPDrainRate:6
CircleSize:4
OverallDifficulty:8
ApproachRate:9
SliderMultiplier:1
SliderTickRate:1

[Events]
//Background and Video events
0,0,"53287599_p0_master1200.jpg",0,0
//Break Periods
//Storyboard Layer 0 (Background)
//Storyboard Layer 1 (Fail)
//Storyboard Layer 2 (Pass)
//Storyboard Layer 3 (Foreground)
//Storyboard Sound Samples

[TimingPoints]
413,333.333333333333,4,2,0,60,1,0
413,-200,4,2,0,60,0,0
11079,-66.6666666666667,4,2,0,60,0,1
19079,-66.6666666666667,4,2,0,60,0,0
21746,-66.6666666666667,4,2,0,60,0,1
29746,-66.6666666666667,4,2,0,60,0,0
32246,-66.6666666666667,4,2,0,5,0,0
32412,-80,4,2,0,60,0,0
49746,-66.6666666666667,4,2,0,60,0,0
52412,-66.6666666666667,4,2,0,60,0,1
61746,-66.6666666666667,4,2,0,60,0,0

[HitObjects]
357,39,413,6,0,L|384:238,1,200,4|0,0:0|0:0,0:0:0:0:
330,307,2412,2,0,L|323:365,1,50,2|0,0:0|0:0,0:0:0:0:
291,231,3079,6,0,P|222:207|103:255,1,200,4|0,0:0|0:0,0:0:0:0:
69,326,5079,2,0,L|67:379,1,50,0|2,0:0|0:0,0:0:0:0:
18,251,5746,6,0,B|36:200|36:200|18:72,1,175,4|0,0:0|0:0,0:0:0:0:
53,0,7079,2,0,B|17:52|17:52|28:145,1,150,4|0,0:0|0:0,0:0:0:0:
153,66,8412,2,0,P|244:51|354:70,1,200,4|0,0:0|0:0,0:0:0:0:
465,148,9912,5,2,0:0:0:0:
465,148,10079,1,2,0:0:0:0:
465,148,10246,1,2,0:0:0:0:
508,217,10412,5,2,0:0:0:0:
381,157,10579,1,2,0:0:0:0:
494,78,10746,1,0,0:0:0:0:
428,13,10912,1,0,0:0:0:0:
288,157,11079,6,0,B|282:214|328:239|328:239|366:223,1,112.500004291535,12|0,0:0|0:0,0:0:0:0:
431,218,11412,1,0,0:0:0:0:
377,376,11579,1,8,0:0:0:0:
512,317,11746,1,0,0:0:0:0:
512,317,11912,1,0,0:0:0:0:
341,233,12079,1,8,0:0:0:0:
341,233,12246,1,0,0:0:0:0:
241,298,12412,5,12,0:0:0:0:
435,177,12579,1,0,0:0:0:0:
435,177,12662,1,0,0:0:0:0:
435,177,12746,1,0,0:0:0:0:
225,148,12912,2,0,L|244:330,1,150.000005722046,12|0,0:0|0:0,0:0:0:0:
280,376,13412,1,8,0:0:0:0:
136,251,13579,1,0,0:0:0:0:
296,107,13746,6,0,P|371:114|435:179,1,150.000005722046,12|0,0:0|0:0,0:0:0:0:
462,248,14246,1,8,0:0:0:0:
212,113,14412,2,0,P|220:69|252:36,1,75.0000028610231
376,225,14746,2,0,L|367:312,1,75.0000028610231,8|0,0:0|0:0,0:0:0:0:
225,359,15079,6,0,P|191:316|191:261,1,112.500004291535,12|0,0:0|0:0,0:0:0:0:
282,287,15412,1,0,0:0:0:0:
152,73,15579,2,0,P|155:146|114:207,1,150.000005722046,4|0,0:0|0:0,0:0:0:0:
17,11,16079,1,8,0:0:0:0:
25,108,16246,1,0,0:0:0:0:
260,104,16412,5,12,0:0:0:0:
240,7,16579,1,0,0:0:0:0:
469,0,16746,1,0,0:0:0:0:
449,100,16912,1,8,0:0:0:0:
438,121,17246,6,0,L|451:209,1,75.0000028610231,8|0,0:0|0:0,0:0:0:0:
511,285,17579,6,0,B|479:309|438:297|438:297|385:283|349:313,1,150.000005722046,12|0,0:0|0:0,0:0:0:0:
268,376,18079,2,0,P|282:337|271:280,1,75.0000028610231,8|0,0:0|0:0,0:0:0:0:
117,151,18412,2,0,P|115:188|129:223,1,75.0000028610231,0|8,0:0|0:0,0:0:0:0:
199,320,18746,1,0,0:0:0:0:
45,266,18912,1,8,0:0:0:0:
193,176,19079,6,0,B|305:178,1,112.500004291535,4|0,0:0|0:0,0:0:0:0:
362,274,19412,1,8,0:0:0:0:
498,163,19579,1,0,0:0:0:0:
400,96,19746,1,0,0:0:0:0:
479,273,19912,1,8,0:0:0:0:
468,295,20246,5,8,0:0:0:0:
307,179,20412,2,0,L|171:177,1,112.500004291535,4|0,0:0|0:0,0:0:0:0:
104,118,20746,1,8,0:0:0:0:
56,245,20912,1,4,0:0:0:0:
77,231,21246,5,8,0:0:0:0:
194,177,21412,2,0,L|278:178,1,75.0000028610231,4|0,0:0|0:0,0:0:0:0:
360,82,21746,5,4,0:0:0:0:
346,256,21912,1,0,0:0:0:0:
421,207,22079,1,8,0:0:0:0:
277,102,22246,1,0,0:0:0:0:
255,254,22412,1,0,0:0:0:0:
495,163,22579,2,0,P|504:199|499:236,1,75.0000028610231,8|0,0:0|0:0,0:0:0:0:
450,301,22912,5,8,0:0:0:0:
256,83,23079,1,4,0:0:0:0:
256,83,23246,1,0,0:0:0:0:
417,29,23412,1,8,0:0:0:0:
257,286,23579,1,4,0:0:0:0:
95,29,23912,1,8,0:0:0:0:
74,116,24079,2,0,L|-19:110,1,75.0000028610231,0|8,0:0|0:0,0:0:0:0:
148,177,24412,6,0,P|154:231|127:280,1,112.500004291535,4|0,0:0|0:0,0:0:0:0:
40,333,24746,1,8,0:0:0:0:
62,215,24912,1,0,0:0:0:0:
182,355,25079,1,0,0:0:0:0:
243,218,25246,2,0,P|239:178|238:128,1,75.0000028610231,8|0,0:0|0:0,0:0:0:0:
247,43,25579,1,8,0:0:0:0:
427,166,25746,6,0,P|471:171|505:158,1,75.0000028610231,4|0,0:0|0:0,0:0:0:0:
457,82,26079,1,8,0:0:0:0:
372,242,26246,2,0,P|338:184|361:93,1,150.000005722046,4|0,0:0|0:0,0:0:0:0:
510,281,26746,1,8,0:0:0:0:
491,370,26912,1,0,0:0:0:0:
253,373,27079,5,2,0:0:0:0:
257,277,27246,1,0,0:0:0:0:
28,276,27412,1,8,0:0:0:0:
49,375,27579,1,2,0:0:0:0:
64,384,27912,6,0,L|137:367,1,75.0000028610231,8|0,0:0|0:0,0:0:0:0:
28,203,28412,6,0,P|16:148|67:74,1,150.000005722046,4|8,0:0|0:0,0:0:0:0:
265,48,28912,1,0,0:0:0:0:
208,121,29079,2,0,L|199:195,1,75.0000028610231,4|0,0:0|0:0,0:0:0:0:
253,273,29412,1,8,0:0:0:0:
104,155,29579,1,8,0:0:0:0:
389,101,29746,5,4,0:0:0:0:
256,192,29829,12,0,32246,0:0:0:0:
317,292,32412,6,0,L|463:274,1,125,4|2,0:0|0:0,0:0:0:0:
441,276,32912,1,8,0:0:0:0:
512,190,33079,2,0,P|511:152|494:118,1,62.5,0|2,0:0|0:0,0:0:0:0:
379,15,33412,2,0,P|378:46|389:75,1,62.5,8|0,0:0|0:0,0:0:0:0:
416,169,33746,2,0,P|353:167|290:170,1,125,2|8,0:0|0:0,0:0:0:0:
161,90,34246,2,0,L|308:77,1,125,8|2,0:0|0:0,0:0:0:0:
302,86,34746,5,8,0:0:0:0:
248,0,34912,1,2,0:0:0:0:
114,25,35079,2,0,P|77:80|105:148,1,125,12|2,0:0|0:0,0:0:0:0:
220,132,35579,1,8,0:0:0:0:
227,122,35746,1,0,0:0:0:0:
136,252,35912,2,0,L|65:244,1,62.5,8|0,0:0|0:0,0:0:0:0:
11,182,36246,1,2,0:0:0:0:
217,216,36412,6,0,P|223:278|187:330,1,125,6|8,0:0|0:0,0:0:0:0:
301,151,36912,2,0,P|295:89|331:37,1,125,6|8,0:0|0:0,0:0:0:0:
394,113,37412,1,2,0:0:0:0:
411,131,37746,6,0,L|401:278,1,125,4|2,0:0|0:0,0:0:0:0:
402,255,38246,1,8,0:0:0:0:
464,384,38412,2,0,L|453:320,1,62.5,2|0,0:0|0:0,0:0:0:0:
320,281,38746,2,0,L|328:211,1,62.5,8|2,0:0|0:0,0:0:0:0:
411,131,39079,6,0,P|344:144|273:105,1,125,6|8,0:0|0:0,0:0:0:0:
218,59,39579,1,8,0:0:0:0:
279,227,39746,1,2,0:0:0:0:
279,227,39912,2,0,L|273:307,1,62.5,8|0,0:0|0:0,0:0:0:0:
381,231,40246,1,2,0:0:0:0:
252,380,40412,6,0,P|200:350|193:266,1,125,4|8,0:0|0:0,0:0:0:0:
73,215,40912,2,0,B|113:226|140:214|140:214|166:196|224:208,1,125,4|8,0:0|0:0,0:0:0:0:
274,289,41412,2,0,L|277:220,1,62.5,8|0,0:0|0:0,0:0:0:0:
188,119,41746,6,0,L|127:108,1,62.5,4|0,0:0|0:0,0:0:0:0:
40,27,42079,2,0,L|101:16,1,62.5,8|8,0:0|0:0,0:0:0:0:
256,67,42412,1,2,0:0:0:0:
411,15,42579,1,8,0:0:0:0:
365,93,42746,2,0,L|356:165,1,62.5,2|8,0:0|0:0,0:0:0:0:
512,236,43079,6,0,P|461:215|382:250,1,125,12|2,0:0|0:0,0:0:0:0:
396,234,43579,1,8,0:0:0:0:
450,332,43746,1,2,0:0:0:0:
302,366,43912,2,0,P|307:308|308:241,1,125,8|2,0:0|0:0,0:0:0:0:
207,101,44412,2,0,P|214:170|214:242,1,125,6|8,0:0|0:0,0:0:0:0:
170,332,44912,1,8,0:0:0:0:
95,226,45079,2,0,L|13:218,1,62.5,2|0,0:0|0:0,0:0:0:0:
313,153,45412,1,8,0:0:0:0:
240,17,45746,6,0,P|177:13|124:49,1,125,4|8,0:0|0:0,0:0:0:0:
126,45,46246,1,8,0:0:0:0:
204,250,46412,2,0,L|214:175,1,62.5,4|0,0:0|0:0,0:0:0:0:
369,79,46746,1,8,0:0:0:0:
369,79,46829,1,0,0:0:0:0:
369,79,46912,6,0,L|425:94,2,31.25,8|0|4,0:0|0:0|0:0,0:0:0:0:
369,79,48579,5,0,0:0:0:0:
369,79,48746,1,2,0:0:0:0:
369,79,48912,1,0,0:0:0:0:
387,193,49079,5,2,0:0:0:0:
282,16,49246,1,0,0:0:0:0:
462,16,49412,1,2,0:0:0:0:
273,121,49579,1,0,0:0:0:0:
464,132,49746,5,4,0:0:0:0:
362,70,49912,1,8,0:0:0:0:
344,259,50079,2,0,P|320:240|307:192,1,75.0000028610231,2|8,0:0|0:0,0:0:0:0:
387,193,50412,1,2,0:0:0:0:
368,361,50579,1,8,0:0:0:0:
258,340,50746,1,2,0:0:0:0:
148,317,50912,1,2,0:0:0:0:
134,107,51079,5,12,0:0:0:0:
35,286,51246,1,2,0:0:0:0:
220,206,51412,1,2,0:0:0:0:
14,155,51579,1,12,0:0:0:0:
272,72,51746,5,8,0:0:0:0:
220,206,51912,1,0,0:0:0:0:
373,185,52079,1,4,0:0:0:0:
292,165,52246,1,10,0:0:0:0:
228,290,52412,6,0,P|165:272|137:192,1,150.000005722046,4|2,0:0|0:0,0:0:0:0:
272,72,52912,1,8,0:0:0:0:
220,206,53079,1,2,0:0:0:0:
220,206,53246,1,2,0:0:0:0:
167,87,53412,1,8,0:0:0:0:
373,185,53746,2,0,P|420:185|456:176,1,75.0000028610231,8|0,0:0|0:0,0:0:0:0:
512,132,54079,1,2,0:0:0:0:
325,104,54246,2,0,P|330:165|336:261,1,150.000005722046,8|0,0:0|0:0,0:0:0:0:
423,358,54746,2,0,P|424:308|416:279,1,75.0000028610231,8|0,0:0|0:0,0:0:0:0:
267,346,55079,5,4,0:0:0:0:
165,262,55246,2,0,P|172:179|107:139,1,150.000005722046,8|2,0:0|0:0,0:0:0:0:
14,292,55746,1,8,0:0:0:0:
99,219,55912,1,2,0:0:0:0:
29,106,56079,1,8,0:0:0:0:
85,34,56246,1,2,0:0:0:0:
180,73,56412,6,0,L|280:63,1,75.0000028610231,8|0,0:0|0:0,0:0:0:0:
439,46,56746,1,2,0:0:0:0:
342,18,56912,2,0,P|348:81|364:114,1,75.0000028610231,8|0,0:0|0:0,0:0:0:0:
443,221,57246,1,2,0:0:0:0:
504,156,57412,1,8,0:0:0:0:
504,156,57579,1,0,0:0:0:0:
339,244,57746,6,0,L|236:231,1,75.0000028610231,4|0,0:0|0:0,0:0:0:0:
93,246,58079,1,8,0:0:0:0:
179,183,58246,1,2,0:0:0:0:
171,14,58412,1,8,0:0:0:0:
85,77,58579,1,2,0:0:0:0:
273,158,58746,2,0,L|265:59,1,75.0000028610231,2|8,0:0|0:0,0:0:0:0:
311,13,59079,6,0,L|269:170,1,150.000005722046,4|8,0:0|0:0,0:0:0:0:
410,122,59579,1,2,0:0:0:0:
299,247,59746,2,0,B|302:297|308:338|308:338|327:320,1,112.500004291535,2|0,0:0|0:0,0:0:0:0:
388,229,60079,1,8,0:0:0:0:
220,293,60246,1,2,0:0:0:0:
462,285,60412,6,0,P|481:234|455:168,1,112.500004291535,4|0,0:0|0:0,0:0:0:0:
410,122,60746,1,8,0:0:0:0:
410,122,60912,1,8,0:0:0:0:
328,175,61079,1,2,0:0:0:0:
328,175,61246,1,2,0:0:0:0:
255,113,61412,1,8,0:0:0:0:
255,113,61746,5,4,0:0:0:0:
184,175,61912,1,8,0:0:0:0:
184,175,61996,1,8,0:0:0:0:
184,175,62079,1,8,0:0:0:0:
102,122,62246,1,8,0:0:0:0:
102,122,62329,1,8,0:0:0:0:
102,122,62412,1,8,0:0:0:0:
38,178,62579,1,8,0:0:0:0:
38,178,62662,1,8,0:0:0:0:
38,178,62746,5,8,0:0:0:0:
38,178,62912,1,2,0:0:0:0:
89,374,63079,6,0,P|115:313|62:224,1,150.000005722046,4|2,0:0|0:0,0:0:0:0:
84,239,63746,1,8,0:0:0:0:
234,267,63912,2,0,L|306:287,1,75.0000028610231
84,239,64246,1,8,0:0:0:0:
266,192,64412,2,0,L|410:232,1,150.000005722046
306,287,64912,2,0,L|450:327,1,150.000005722046,8|0,0:0|0:0,0:0:0:0:
410,232,65412,2,0,L|482:252,1,75.0000028610231,8|0,0:0|0:0,0:0:0:0:
258,97,65746,5,4,0:0:0:0:
150,221,66079,2,0,P|155:136|89:85,1,150.000005722046,8|0,0:0|0:0,0:0:0:0:
99,271,66579,2,0,P|138:244|152:186,1,75.0000028610231,8|0,0:0|0:0,0:0:0:0:
185,329,66913,1,0,0:0:0:0:
234,245,67079,2,0,P|177:211|156:109,1,150.000005722046,8|0,0:0|0:0,0:0:0:0:
367,300,67579,2,0,P|276:247|213:248,1,150.000005722046,8|0,0:0|0:0,0:0:0:0:
364,220,68079,2,0,P|343:246|286:250,1,75.0000028610231,8|2,0:0|0:0,0:0:0:0:
99,271,68412,5,4,0:0:0:0:
257,45,68746,2,0,L|258:146,1,75.0000028610231,8|0,0:0|0:0,0:0:0:0:
413,271,69079,1,0,0:0:0:0:
115,146,69246,1,8,0:0:0:0:
128,162,69579,1,0,0:0:0:0:
364,154,69746,5,8,0:0:0:0:
357,171,70079,1,0,0:0:0:0:
185,268,70246,1,8,0:0:0:0:
194,245,70579,1,0,0:0:0:0:
257,119,70746,1,8,0:0:0:0:
335,267,71079,5,4,0:0:0:0:
470,138,71412,2,0,P|480:88|402:10,1,150.000005722046,8|0,0:0|0:0,0:0:0:0:
249,19,71912,2,0,L|260:187,1,150.000005722046,8|0,0:0|0:0,0:0:0:0:
332,353,72412,5,4,0:0:0:0:
50,307,72746,2,0,L|61:211,1,75.0000028610231,8|0,0:0|0:0,0:0:0:0:
173,353,73079,1,2,0:0:0:0:
419,296,73246,2,0,L|407:190,1,75.0000028610231,8|0,0:0|0:0,0:0:0:0:
397,199,73579,1,2,0:0:0:0:
372,86,73746,6,0,P|358:128|329:145,1,75.0000028610231,4|0,0:0|0:0,0:0:0:0:
261,142,73996,1,2,0:0:0:0:
188,140,74079,1,8,0:0:0:0:
254,267,74246,6,0,P|224:233|224:200,1,75.0000028610231,4|0,0:0|0:0,0:0:0:0:
261,142,74496,1,2,0:0:0:0:
296,79,74579,1,8,0:0:0:0:
157,74,74746,6,0,P|200:65|229:81,1,75.0000028610231,4|0,0:0|0:0,0:0:0:0:
261,142,74996,1,2,0:0:0:0:
294,205,75079,1,8,0:0:0:0:
73,132,75246,6,0,P|63:76|122:-8,1,150.000005722046,12|2,0:0|0:0,0:0:0:0:
226,78,75746,1,8,0:0:0:0:
348,13,75912,1,2,0:0:0:0:
438,52,76079,1,8,0:0:0:0:
483,25,76246,1,6,0:0:0:0:
256,192,76412,12,4,79079,0:0:0:0:
