osu file format v14

[General]
AudioFilename: audio.mp3
AudioLeadIn: 0
PreviewTime: 59063
Countdown: 0
SampleSet: Soft
StackLeniency: 0.7
Mode: 0
LetterboxInBreaks: 0
WidescreenStoryboard: 0

[Editor]
Bookmarks: 500,18372,38784,59063,79648,88585,88664,88744,88824,88904,88984,89063,89143,89223
DistanceSpacing: 1.8
BeatDivisor: 4
GridSize: 32
TimelineZoom: 2.2

[Metadata]
Title:Vacancy (TV Size)
TitleUnicode:Vacancy (TV Size)
Artist:Kylee
ArtistUnicode:Kylee
Creator:Silent Rock
Version:Insane
Source:亡念のザムド
Tags:Saunders Xam'd: Lost Memories bounen no Xamdou Anime ending ed1 nature living English Rock
BeatmapID:3103578
BeatmapSetID:1515923

[Difficulty]
HPDrainRate:4.5
CircleSize:4
OverallDifficulty:8
ApproachRate:9
SliderMultiplier:1.1
SliderTickRate:1

[Events]
//Background and Video events
0,0,"bounen no Xamdou.jpg",0,0
Video,-141,"Boss God.mp4"
//Break Periods
//Storyboard Layer 0 (Background)
//Storyboard Layer 1 (Fail)
//Storyboard Layer 2 (Pass)
//Storyboard Layer 3 (Foreground)
//Storyboard Layer 4 (Overlay)
//Storyboard Sound Samples

[TimingPoints]
500,319.148936170213,4,2,1,80,1,0
500,-100,4,2,1,80,0,0
3053,-125,4,2,1,80,0,0
3691,-100,4,2,1,80,0,0
13265,-125,4,2,1,80,0,0
13904,-100,4,2,1,80,0,0
18372,-111.111111111111,4,2,1,70,0,0
27946,306.122448979592,4,2,1,70,1,8
27946,-111.111111111111,4,2,1,70,0,0
28405,361.44578313253,4,2,1,70,1,8
28405,-111.111111111111,4,2,1,70,0,0
28585,319.148936170213,4,2,1,70,1,8
28585,-111.111111111111,4,2,1,70,0,0
34010,294.117647058824,4,2,1,70,1,8
34010,-111.111111111111,4,2,1,70,0,0
34157,344.827586206897,4,2,1,70,1,8
34157,-111.111111111111,4,2,1,70,0,8
34329,319.148936170213,4,2,1,70,1,8
34329,-111.111111111111,4,2,1,70,0,0
37999,300,4,2,1,70,1,8
37999,-111.111111111111,4,2,1,70,0,8
38299,315.789473684211,4,2,1,70,1,8
38299,-111.111111111111,4,2,1,80,0,0
38614,340.909090909091,4,2,1,80,1,8
38614,-111.111111111111,4,2,1,80,0,8
38784,329.67032967033,4,2,1,80,1,8
38784,-100,4,2,1,80,0,0
39113,321.888412017167,4,2,1,80,1,8
39113,-100,4,2,1,80,0,0
39756,319.148936170213,4,2,1,80,1,8
39756,-100,4,2,1,80,0,0
43267,300,4,2,1,80,1,8
43267,-100,4,2,1,80,0,8
43867,344.827586206897,4,2,1,80,1,8
43867,-100,4,2,1,80,0,0
44211,320.855614973262,4,2,1,80,1,8
44211,-100,4,2,1,80,0,0
44852,329.67032967033,4,2,1,80,1,8
44852,-100,4,2,1,80,0,0
45182,319.148936170213,4,2,1,80,1,0
45182,-100,4,2,1,80,0,0
48373,291.26213592233,4,2,1,80,1,8
48373,-100,4,2,1,80,0,0
48664,333.333333333333,4,2,1,80,1,8
48664,-100,4,2,1,80,0,0
48997,331.491712707182,4,2,1,80,1,8
48997,-100,4,2,1,80,0,0
49329,315.789473684211,4,2,1,80,1,8
49329,-100,4,2,1,80,0,0
49960,327.868852459016,4,2,1,80,1,8
49960,-100,4,2,1,80,0,0
50287,319.148936170213,4,2,1,80,1,8
50287,-100,4,2,1,80,0,0
53478,300,4,2,1,80,1,8
53478,-100,4,2,1,80,0,0
53778,322.58064516129,4,2,1,80,1,8
53778,-100,4,2,1,80,0,0
54100,329.67032967033,4,2,1,80,1,8
54100,-100,4,2,1,80,0,0
54594,319.148936170213,4,2,1,80,1,8
54594,-100,4,2,1,80,0,0
56349,-125,4,2,1,80,0,0
56508,324.324324324324,4,2,1,80,1,8
56508,-100,4,2,1,80,0,0
56670,319.148936170213,4,2,1,80,1,0
56670,-100,4,2,1,80,0,0
59063,-125,4,2,1,90,0,1
59542,-62.5,4,2,1,100,0,0
64170,-125,4,2,1,100,0,1
64648,-62.5,4,2,1,100,0,0
66882,-55.5555555555556,4,2,1,100,0,0
67361,-50,4,2,1,100,0,0
67840,-55.5555555555556,4,2,1,100,0,0
68159,-62.5,4,2,1,100,0,0
69276,-125,4,2,1,100,0,1
69755,-62.5,4,2,1,100,0,0
74382,-125,4,2,1,100,0,1
74861,-62.5,4,2,1,100,0,0
79648,319.148936170213,7,2,1,80,1,0
79648,-76.9230769230769,7,2,1,80,0,0
88265,-142.857142857143,7,2,1,80,0,0
88585,-142.857142857143,7,2,1,5,0,0

[Colours]
Combo1 : 151,151,151
Combo2 : 188,186,88
Combo3 : 251,169,115
Combo4 : 213,53,65
Combo5 : 255,192,0
Combo6 : 202,128,213

[HitObjects]
192,303,500,6,0,P|215:288|235:270,1,55,6|0,3:2|3:0,0:0:0:0:
307,149,819,2,0,P|283:163|263:181,1,55,2|0,0:0|3:0,0:0:0:0:
64,204,1138,2,0,P|118:209|172:201,1,110,8|0,0:0|0:0,0:0:0:0:
415,86,1617,2,0,P|398:167|402:249,1,165,2|2,3:0|3:3,0:0:0:0:
410,256,2414,1,2,0:0:0:0:
290,263,2574,1,8,0:0:0:0:
178,309,2734,1,2,0:3:0:0:
85,165,3053,6,0,P|76:185|63:203,3,44,2|0|0|0,3:2|3:2|0:0|3:2,0:0:0:0:
81,75,3691,2,0,P|163:68|239:35,2,165,8|2|2,0:0|3:0|3:0,0:0:0:0:
71,75,4968,1,2,0:0:0:0:
40,191,5127,1,8,0:0:0:0:
50,310,5287,1,2,0:3:0:0:
268,373,5606,6,0,P|247:354|224:339,1,55,2|0,3:2|3:0,0:0:0:0:
235,243,5925,2,0,P|261:234|285:222,1,55,2|0,0:0|3:0,0:0:0:0:
356,333,6244,2,0,P|362:278|380:226,1,110,8|0,0:0|0:0,0:0:0:0:
372,94,6723,2,0,P|416:126|452:168,1,110,2|0,3:0|3:0,0:0:0:0:
295,50,7202,1,2,3:0:0:0:
285,58,7521,1,2,0:0:0:0:
169,27,7680,1,8,0:0:0:0:
49,37,7840,1,2,0:3:0:0:
186,234,8159,6,0,P|194:207|207:182,1,55,2|0,3:2|3:0,0:0:0:0:
72,361,8638,1,0,3:0:0:0:
72,361,8797,2,0,P|53:310|23:264,1,110,8|0,0:0|0:0,0:0:0:0:
261,310,9276,1,2,3:0:0:0:
261,310,9595,1,0,3:0:0:0:
261,310,9755,2,0,P|269:283|282:258,1,55,2|0,3:0|0:0,0:0:0:0:
356,158,10074,1,2,0:0:0:0:
387,274,10234,1,8,0:0:0:0:
455,372,10393,1,2,0:3:0:0:
451,6,10712,6,0,P|443:33|430:58,1,55,4|0,3:2|3:0,0:0:0:0:
356,158,11031,2,0,P|349:130|348:102,1,55,2|0,0:0|3:0,0:0:0:0:
238,9,11351,2,0,P|292:3|347:8,1,110,8|0,0:0|0:0,0:0:0:0:
166,70,11829,2,0,P|111:75|56:70,1,110,2|0,3:0|3:0,0:0:0:0:
201,157,12308,1,2,3:0:0:0:
198,166,12627,1,2,0:0:0:0:
314,135,12787,1,8,0:0:0:0:
433,145,12946,1,2,0:3:0:0:
405,289,13265,6,0,P|392:271|383:251,3,44,2|0|0|0,3:2|3:0|0:0|3:0,0:0:0:0:
421,384,13904,2,0,P|342:360|260:358,1,165,8|2,0:0|3:0,0:0:0:0:
65,298,14702,1,2,3:2:0:0:
118,360,14861,1,2,3:0:0:0:
109,369,15180,1,2,0:0:0:0:
140,253,15340,1,8,0:0:0:0:
208,154,15500,1,2,0:3:0:0:
0,14,15819,6,0,P|27:22|52:35,1,55,2|0,3:2|3:0,0:0:0:0:
119,101,16138,2,0,P|94:113|68:121,1,55,2|0,0:0|3:0,0:0:0:0:
202,51,16457,2,0,P|255:61|305:83,1,110,8|0,0:0|0:0,0:0:0:0:
372,156,16936,2,0,P|425:145|475:123,1,110,2|0,3:0|3:0,0:0:0:0:
484,28,17414,1,2,3:0:0:0:
475,23,17734,1,2,0:0:0:0:
416,128,17893,1,8,0:0:0:0:
396,246,18053,1,2,0:3:0:0:
405,251,18372,5,4,3:2:0:0:
231,182,18691,1,2,0:0:0:0:
231,182,18851,1,2,3:2:0:0:
266,263,19010,2,0,P|252:310|225:351,1,98.9999969787599,8|2,0:0|0:0,0:0:0:0:
138,332,19489,2,0,P|140:282|128:234,1,98.9999969787599,2|0,3:0|3:0,0:0:0:0:
41,216,19968,2,0,P|27:263|0:304,1,98.9999969787599,2|2,3:0|0:0,0:0:0:0:
101,150,20446,1,8,0:0:0:0:
73,65,20606,1,2,0:0:0:0:
73,65,20765,1,2,0:0:0:0:
145,12,20925,6,0,P|169:14|193:20,1,49.4999984893799,2|0,3:2|3:0,0:0:0:0:
360,84,21404,2,0,P|338:94|314:101,1,49.4999984893799,2|8,3:2|0:0,0:0:0:0:
145,12,21882,2,0,P|169:14|193:20,1,49.4999984893799,2|0,0:0|3:0,0:0:0:0:
232,223,22361,1,2,3:2:0:0:
232,223,22521,1,2,3:0:0:0:
232,223,22840,1,2,0:0:0:0:
146,248,23000,1,8,0:0:0:0:
73,300,23159,1,2,0:0:0:0:
279,367,23478,6,0,P|276:342|270:318,1,49.4999984893799,2|0,3:2|3:0,0:0:0:0:
360,299,23797,1,2,0:0:0:0:
360,299,23957,1,2,3:2:0:0:
445,324,24117,2,0,P|452:275|474:230,1,98.9999969787599,8|2,0:0|0:0,0:0:0:0:
419,160,24595,2,0,P|373:177|323:181,1,98.9999969787599,2|0,3:0|3:0,0:0:0:0:
235,194,25074,2,0,P|189:176|139:172,1,98.9999969787599,2|2,3:0|0:0,0:0:0:0:
290,265,25553,1,8,0:0:0:0:
323,181,25712,1,2,0:0:0:0:
188,55,26031,6,0,P|194:78|196:103,1,49.4999984893799,2|0,3:2|3:0,0:0:0:0:
139,172,26351,1,2,0:0:0:0:
139,172,26510,2,0,P|132:195|130:220,1,49.4999984893799,2|8,3:2|0:0,0:0:0:0:
188,289,26829,2,0,P|195:312|197:337,1,49.4999984893799,2|0,0:0|0:0,0:0:0:0:
203,343,27069,1,0,0:0:0:0:
210,348,27148,2,0,P|258:353|307:345,1,98.9999969787599,2|0,3:0|3:0,0:0:0:0:
384,300,27627,2,0,P|415:338|435:383,1,98.9999969787599,2|2,3:0|0:0,0:0:0:0:
307,256,28099,1,8,0:0:0:0:
398,176,28252,1,8,0:0:0:0:
318,85,28405,1,8,0:0:0:0:
227,165,28585,6,0,P|182:144|133:137,1,98.9999969787599,2|0,3:2|0:0,0:0:0:0:
53,175,29063,1,2,3:2:0:0:
59,85,29223,2,0,P|46:51|42:14,1,74.2499977340699,8|0,0:0|0:0,0:0:0:0:
318,85,29702,2,0,P|311:158|281:227,1,148.49999546814,2|2,3:2|3:0,0:0:0:0:
275,236,30500,1,2,0:0:0:0:
278,324,30659,1,8,0:0:0:0:
195,357,30819,2,0,P|172:351|147:349,1,49.4999984893799,2|0,0:3|0:0,0:0:0:0:
57,355,31138,5,2,3:2:0:0:
57,355,31297,2,0,P|36:310|29:261,1,98.9999969787599,0|0,3:0|3:0,0:0:0:0:
90,196,31776,2,0,P|110:151|117:102,1,98.9999969787599,8|0,0:0|0:0,0:0:0:0:
111,97,32175,1,0,0:0:0:0:
105,91,32255,2,0,P|149:70|198:63,1,98.9999969787599,2|0,3:0|3:0,0:0:0:0:
272,113,32734,2,0,P|295:120|320:122,1,49.4999984893799,2|0,3:0|0:0,0:0:0:0:
438,61,33053,2,0,P|420:78|406:98,1,49.4999984893799,2|8,0:0|0:0,0:0:0:0:
399,231,33372,2,0,P|393:206|383:184,1,49.4999984893799,2|0,0:3|0:0,0:0:0:0:
360,311,33691,6,0,P|383:318|408:320,2,49.4999984893799,2|0|2,3:2|3:0|0:0,0:0:0:0:
273,287,34157,1,2,0:0:0:0:
183,284,34329,2,0,P|138:302|89:309,1,98.9999969787599,8|0,0:0|0:0,0:0:0:0:
83,306,34728,1,0,0:0:0:0:
78,301,34808,2,0,P|84:252|103:206,1,98.9999969787599,2|0,3:2|3:0,0:0:0:0:
160,138,35286,1,2,3:0:0:0:
154,131,35606,1,2,0:0:0:0:
241,148,35765,1,8,0:0:0:0:
283,69,35925,2,0,P|279:45|271:22,1,49.4999984893799,2|0,0:3|0:0,0:0:0:0:
370,86,36244,6,0,P|361:109|357:133,1,49.4999984893799,2|0,3:2|3:0,0:0:0:0:
306,207,36563,2,0,P|324:223|340:241,1,49.4999984893799,2|0,0:0|3:0,0:0:0:0:
424,367,36882,1,8,0:0:0:0:
336,335,37042,1,2,0:3:0:0:
323,336,37122,1,2,0:3:0:0:
311,339,37202,1,2,0:3:0:0:
299,343,37281,1,2,0:3:0:0:
288,347,37361,2,0,P|263:342|240:334,1,49.4999984893799,2|0,3:3|0:0,0:0:0:0:
159,297,37680,2,0,P|134:301|111:309,1,49.4999984893799,2|0,3:0|0:0,0:0:0:0:
35,357,38000,1,2,3:2:0:0:
40,365,38299,5,0,3:0:0:0:
92,215,38456,1,12,0:0:0:0:
29,164,38614,1,0,3:0:0:0:
166,184,38784,6,0,P|194:184|221:178,1,55,4|0,3:1|0:0,0:0:0:0:
220,178,39273,2,0,P|206:154|187:134,2,55,8|0|0,0:0|3:0|3:0,0:0:0:0:
252,272,39756,2,0,P|265:295|284:315,1,55,8|0,0:0|0:0,0:0:0:0:
284,315,40235,2,0,P|297:291|305:264,2,55,8|0|0,0:0|3:0|3:0,0:0:0:0:
400,293,40714,2,0,P|399:265|393:238,1,55,8|0,0:0|0:0,0:0:0:0:
489,215,41033,2,0,P|475:191|456:171,1,55,8|0,0:0|3:0,0:0:0:0:
383,102,41352,6,0,P|396:78|415:58,1,55,12|0,0:0|0:0,0:0:0:0:
245,193,41831,2,0,P|258:169|277:149,2,55,8|0|0,0:0|3:0|3:0,0:0:0:0:
230,43,42309,2,0,P|243:19|262:0,1,55,8|0,0:0|0:0,0:0:0:0:
92,134,42788,2,0,P|105:110|124:90,2,55,8|0|0,0:0|3:0|3:0,0:0:0:0:
166,199,43267,2,0,P|193:199|220:205,1,55,8|0,0:0|3:0,0:0:0:0:
145,294,43567,5,8,0:0:0:0:
154,309,43667,5,0,3:0:0:0:
162,326,43767,5,0,3:0:0:0:
166,343,43867,6,0,P|189:329|215:321,1,55,12|0,0:0|0:0,0:0:0:0:
216,321,44371,2,0,P|216:348|209:375,2,55,8|0|0,0:0|3:0|3:0,0:0:0:0:
297,264,44852,2,0,P|320:250|346:242,1,55,8|0,0:0|0:0,0:0:0:0:
347,242,45341,2,0,P|347:269|340:296,2,55,8|0|0,0:0|3:0|3:0,0:0:0:0:
384,149,45820,2,0,P|407:162|427:182,1,55,12|0,0:0|3:0,0:0:0:0:
322,70,46139,2,0,P|345:56|372:49,1,55,12|0,0:1|3:0,0:0:0:0:
240,126,46458,6,0,P|213:118|189:105,1,55,12|0,0:0|0:0,0:0:0:0:
78,177,46937,2,0,P|51:169|27:156,2,55,8|0|0,0:0|3:0|3:0,0:0:0:0:
212,267,47415,2,0,P|185:259|161:246,1,55,8|0,0:0|0:0,0:0:0:0:
49,318,47894,2,0,P|23:310|0:297,2,55,8|0|0,0:0|3:0|3:0,0:0:0:0:
127,380,48373,2,0,P|150:366|177:359,1,55,8|0,0:0|0:0,0:0:0:0:
254,297,48664,5,8,0:0:0:0:
269,306,48775,5,0,3:0:0:0:
286,313,48886,5,0,3:0:0:0:
304,317,48997,6,0,P|295:290|280:267,1,55,12|0,0:0|0:0,0:0:0:0:
280,267,49486,2,0,P|298:246|310:222,2,55,8|0|0,0:0|3:0|3:0,0:0:0:0:
180,264,49960,2,0,P|171:237|156:214,1,55,8|0,0:0|0:0,0:0:0:0:
156,214,50447,2,0,P|174:193|186:169,2,55,8|0|0,0:0|3:0|3:0,0:0:0:0:
63,148,50925,2,0,P|89:139|113:125,1,55,8|0,0:0|3:0,0:0:0:0:
15,44,51244,2,0,P|42:50|70:49,1,55,12|0,0:1|3:0,0:0:0:0:
169,45,51563,6,0,P|189:26|213:14,1,55,14|0,0:0|0:0,0:0:0:0:
159,212,52042,2,0,P|179:193|203:181,2,55,8|0|0,0:0|3:0|3:0,0:0:0:0:
311,153,52520,2,0,P|331:134|355:122,1,55,8|0,0:0|0:0,0:0:0:0:
301,320,52999,2,0,P|321:301|345:289,2,55,8|0|0,0:0|3:0|3:0,0:0:0:0:
225,383,53478,2,0,P|204:364|180:352,1,55,8|0,0:0|3:0,0:0:0:0:
104,289,53778,5,8,0:0:0:0:
90,301,53885,5,0,3:0:0:0:
75,311,53993,5,0,3:0:0:0:
58,319,54100,6,0,P|39:298|27:274,1,55,12|0,0:0|0:0,0:0:0:0:
27,274,54595,2,0,P|21:246|22:219,2,55,8|0|0,0:0|3:0|3:0,0:0:0:0:
122,245,55072,2,0,P|130:218|145:195,1,55,8|0,0:0|0:0,0:0:0:0:
145,195,55552,2,0,P|165:176|190:163,2,55,8|0|0,0:0|3:0|3:0,0:0:0:0:
217,262,56031,2,0,P|244:256|271:257,1,55,8|0,0:0|3:0,0:0:0:0:
360,215,56349,2,0,P|381:234|402:245,1,44,8|0,0:3|3:0,0:0:0:0:
485,291,56670,1,6,0:0:0:0:
118,150,58425,5,0,3:0:0:0:
176,262,58585,2,0,P|174:289|167:315,1,55,8|0,0:0|3:0,0:0:0:0:
256,192,58904,1,8,0:0:0:0:
167,316,59063,2,0,P|209:304|252:303,1,88,4|0,3:1|3:0,0:0:0:0:
338,336,59542,6,0,P|377:354|421:362,1,88,8|0,0:0|0:0,0:0:0:0:
505,166,59861,2,0,P|461:173|421:192,1,88,2|0,0:0|3:0,0:0:0:0:
256,192,60180,2,0,P|274:152|282:108,1,88,8|0,0:0|3:0,0:0:0:0:
120,0,60500,5,2,0:0:0:0:
160,138,60659,1,0,3:0:0:0:
42,86,60819,5,8,0:0:0:0:
155,148,60978,1,0,0:0:0:0:
44,192,61138,5,2,3:2:0:0:
155,159,61297,1,0,3:0:0:0:
111,260,61457,5,8,0:0:0:0:
160,168,61617,1,0,3:0:0:0:
203,309,61776,6,0,P|164:331|133:363,1,88,2|0,0:0|3:0,0:0:0:0:
347,274,62095,2,0,P|391:274|434:286,1,88,8|0,0:0|0:0,0:0:0:0:
257,219,62414,1,2,3:2:0:0:
292,363,62574,1,0,3:0:0:0:
350,169,62734,2,0,P|354:125|348:81,1,88,8|0,0:0|3:0,0:0:0:0:
174,36,63053,2,0,P|209:61|250:78,1,88,2|0,0:0|3:0,0:0:0:0:
446,84,63372,1,8,0:0:0:0:
446,84,63691,5,2,3:0:0:0:
250,78,63851,1,8,0:0:0:0:
342,250,64010,1,8,0:1:0:0:
346,138,64170,6,0,P|305:154|270:180,1,88,4|0,3:1|3:0,0:0:0:0:
213,256,64648,6,0,P|172:240|137:214,1,88,8|0,0:0|0:0,0:0:0:0:
215,10,64968,2,0,P|221:53|216:96,1,88,2|0,3:2|3:0,0:0:0:0:
1,132,65287,2,0,P|35:104|75:87,1,88,8|0,0:0|3:0,0:0:0:0:
310,43,65606,5,2,0:0:0:0:
269,180,65765,1,0,3:0:0:0:
387,128,65925,5,8,0:0:0:0:
274,190,66084,1,0,0:0:0:0:
385,234,66244,5,2,3:2:0:0:
274,201,66403,1,0,3:0:0:0:
318,302,66563,5,8,0:0:0:0:
269,210,66723,1,0,3:0:0:0:
251,370,66882,6,0,P|157:338|59:331,1,197.99999395752,2|8,0:0|0:0,0:0:0:0:
0,223,67361,2,0,P|116:166|179:100,1,220,2|0,0:0|3:0,0:0:0:0:
79,0,67840,1,8,0:0:0:0:
193,79,68000,1,2,0:2:0:0:
327,114,68159,2,0,P|369:109|413:115,1,88,2|0,0:0|3:0,0:0:0:0:
244,211,68478,5,8,0:0:0:0:
244,211,68638,1,0,3:0:0:0:
261,5,68797,1,8,0:0:0:0:
261,5,68957,1,0,3:0:0:0:
369,182,69117,1,8,0:0:0:0:
178,102,69276,2,0,P|134:102|91:114,1,88,4|0,3:2|3:0,0:0:0:0:
57,200,69755,6,0,P|79:238|110:269,1,88,8|0,0:0|0:0,0:0:0:0:
181,373,70074,2,0,P|224:373|267:361,1,88,2|0,3:2|3:0,0:0:0:0:
392,352,70393,2,0,P|414:313|425:270,1,88,8|0,0:0|3:0,0:0:0:0:
508,95,70712,5,2,0:0:0:0:
404,193,70871,1,0,3:2:0:0:
396,65,71031,5,8,0:0:0:0:
392,193,71190,1,0,0:0:0:0:
303,114,71350,5,2,3:2:0:0:
382,198,71510,1,0,3:0:0:0:
273,205,71669,5,8,0:0:0:0:
376,206,71829,1,0,3:0:0:0:
272,308,71989,6,0,P|228:308|185:296,1,88,2|0,0:0|3:0,0:0:0:0:
58,195,72308,2,0,P|88:277|87:364,1,176,8|0,0:0|3:0,0:0:0:0:
0,286,72787,1,2,3:2:0:0:
164,189,72946,2,0,P|195:158|217:120,1,88,8|0,0:0|3:0,0:0:0:0:
79,0,73265,2,0,P|90:42|112:80,2,88,2|0|8,0:0|3:0|0:0,0:0:0:0:
412,96,73904,5,2,3:0:0:0:
335,276,74064,1,8,0:0:0:0:
217,120,74223,1,8,0:1:0:0:
321,164,74382,6,0,P|360:184|392:213,1,88,4|0,3:1|3:0,0:0:0:0:
470,177,74861,6,0,P|469:132|458:90,1,88,8|0,0:0|0:0,0:0:0:0:
414,319,75180,2,0,P|455:305|492:281,1,88,2|0,3:2|3:0,0:0:0:0:
261,309,75499,2,0,P|287:344|321:371,1,88,8|0,0:0|3:0,0:0:0:0:
223,160,75818,6,0,P|207:201|182:236,1,88,2|0,0:0|3:0,0:0:0:0:
1,290,76138,2,0,P|44:282|87:287,1,88,8|0,0:0|0:0,0:0:0:0:
87,178,76457,2,0,P|69:139|41:105,1,88,2|0,3:2|3:0,0:0:0:0:
0,0,76776,2,0,P|97:31|271:5,1,264,8|0,0:0|3:0,0:0:0:0:
315,85,77414,6,0,P|287:118|268:158,1,88,8|0,0:0|0:0,0:0:0:0:
431,265,77733,1,2,3:2:0:0:
388,153,77893,1,0,3:0:0:0:
238,274,78053,1,8,0:0:0:0:
338,340,78212,1,0,3:0:0:0:
268,158,78372,2,0,P|224:150|181:155,1,88,2|2,0:3|3:2,0:0:0:0:
0,206,78691,1,8,0:0:0:0:
88,278,78851,5,8,0:0:0:0:
91,269,78930,1,8,0:0:0:0:
94,260,79010,1,8,0:1:0:0:
269,158,79170,1,8,0:0:0:0:
468,122,79329,1,8,0:2:0:0:
480,133,79648,6,0,P|411:116|356:71,1,142.99999345398,14|0,0:0|0:0,0:0:0:0:
280,126,80127,1,8,0:0:0:0:
203,72,80286,2,0,P|170:87|145:112,1,71.4999967269899,2|0,3:2|3:0,0:0:0:0:
66,162,80606,6,0,P|124:202|159:263,1,142.99999345398,8|0,0:0|3:0,0:0:0:0:
169,356,81085,1,8,0:0:0:0:
244,302,81243,2,0,P|279:301|313:312,1,71.4999967269899,2|0,3:2|3:0,0:0:0:0:
393,359,81563,1,8,0:0:0:0:
338,283,81723,1,2,3:2:0:0:
393,207,81882,6,0,P|385:136|348:75,1,142.99999345398,12|0,0:0|3:0,0:0:0:0:
267,30,82361,1,8,0:0:0:0:
186,76,82520,2,0,P|150:73|117:58,1,71.4999967269899,2|0,3:2|3:0,0:0:0:0:
28,85,82839,6,0,P|26:155|55:220,1,142.99999345398,8|0,0:0|3:0,0:0:0:0:
30,310,83318,1,8,0:0:0:0:
116,342,83477,2,0,P|148:327|184:324,1,71.4999967269899,2|0,3:2|3:0,0:0:0:0:
251,260,83796,2,0,P|225:235|208:203,1,71.4999967269899,8|2,0:0|3:2,0:0:0:0:
140,140,84116,6,0,P|193:93|222:29,1,142.99999345398,12|0,0:0|3:0,0:0:0:0:
298,81,84594,1,8,0:0:0:0:
379,35,84754,2,0,P|414:38|446:54,1,71.4999967269899,2|0,3:2|3:0,0:0:0:0:
502,128,85074,6,0,P|438:159|395:216,1,142.99999345398,8|0,0:0|3:0,0:0:0:0:
380,308,85553,1,8,0:0:0:0:
307,365,85712,2,0,P|274:380|239:384,1,71.4999967269899,2|0,3:2|3:0,0:0:0:0:
98,306,86031,2,0,P|133:310|166:326,1,71.4999967269899,12|0,0:0|3:0,0:0:0:0:
36,236,86350,6,0,P|99:204|142:147,1,142.99999345398,12|0,0:0|3:0,0:0:0:0:
167,58,86829,1,8,0:0:0:0:
232,124,86989,2,0,P|267:120|299:104,1,71.4999967269899,2|0,3:2|3:0,0:0:0:0:
383,64,87308,6,0,P|446:95|489:152,1,142.99999345398,8|0,0:0|3:0,0:0:0:0:
483,245,87787,2,0,P|460:272|448:306,2,71.4999967269899,8|2|0,0:0|3:2|3:0,0:0:0:0:
405,193,88265,2,0,B|373:189|373:189|368:193|368:193|369:185|369:185|365:188|365:188|339:186,1,76.9999976501466,10|0,0:0|0:0,0:0:0:0:
