osu file format v14

[General]
AudioFilename: audio.mp3
AudioLeadIn: 0
PreviewTime: 62262
Countdown: 0
SampleSet: Soft
StackLeniency: 0.7
Mode: 0
LetterboxInBreaks: 0
WidescreenStoryboard: 0

[Editor]
Bookmarks: 32359,44666,56974
DistanceSpacing: 1
BeatDivisor: 4
GridSize: 32
TimelineZoom: 1.1

[Metadata]
Title:Daisukinanoni [TV Size]
TitleUnicode:大好きなのに [TV Size]
Artist:Kylee
ArtistUnicode:Kylee
Creator:Kyuukai
Version:Normal
Source:絶園のテンペスト
Tags:カイリー blade of zetsuen no tempest the civilization blaster opening sotarks yaleufeu left kin
BeatmapID:1282065
BeatmapSetID:606938

[Difficulty]
HPDrainRate:4
CircleSize:3.5
OverallDifficulty:4
ApproachRate:5
SliderMultiplier:1
SliderTickRate:1

[Events]
//Background and Video events
0,0,"tempest.jpg",0,0
//Break Periods
//Storyboard Layer 0 (Background)
//Storyboard Layer 1 (Fail)
//Storyboard Layer 2 (Pass)
//Storyboard Layer 3 (Foreground)
//Storyboard Sound Samples

[TimingPoints]
820,384.615384615385,4,2,22,32,1,0
1108,-100,4,2,22,5,0,0
1204,-100,4,2,22,32,0,0
1493,-100,4,2,22,5,0,0
1589,384.615384615385,4,2,22,42,1,0
10819,-100,4,2,22,62,0,0
13896,-100,4,2,22,62,0,0
20050,-100,4,2,22,52,0,0
32358,-100,4,2,22,52,0,0
44665,-100,4,2,22,52,0,0
56973,-100,4,2,22,52,0,0
60050,-100,4,2,22,52,0,0
60435,-100,4,2,22,52,0,0
60819,-100,4,2,22,52,0,0
61204,-100,4,2,22,52,0,0
63127,-100,4,2,22,72,0,1
73127,-100,4,2,22,82,0,1
73896,-100,4,2,22,92,0,1
75435,-100,4,2,22,82,0,1
75531,-100,4,2,22,72,0,1
87550,-100,4,2,22,72,0,0

[Colours]
Combo1 : 0,128,64
Combo2 : 0,128,255
Combo3 : 232,244,70
Combo4 : 175,97,97
SliderBorder : 255,248,255
SliderTrackOverride : 0,10,0

[HitObjects]
96,57,820,6,0,P|86:128|106:168,1,100,2|2,0:0|0:0,0:0:0:0:
184,106,1589,6,0,L|320:105,1,100,2|0,1:2|1:0,0:0:0:0:
371,56,2359,2,0,B|387:105|387:105|376:156,1,100,2|0,0:0|0:0,0:0:0:0:
292,206,3128,2,0,L|192:206,1,100,2|0,0:2|1:0,0:0:0:0:
102,249,3897,2,0,B|91:201|91:201|107:152,2,100,2|2|0,0:0|1:2|0:0,0:0:0:0:
182,307,5050,1,2,1:2:0:0:
266,360,5435,2,0,P|319:369|394:353,1,100,2|2,3:2|1:2,0:0:0:0:
444,303,6205,6,0,P|452:233|422:184,1,100,0|0,3:0|1:0,0:0:0:0:
382,126,6974,1,2,2:0:0:0:
324,207,7359,1,2,1:2:0:0:
256,133,7743,2,0,L|140:133,1,100,2|0,1:2|1:0,0:0:0:0:
65,91,8512,2,0,P|55:143|77:197,2,100,0|2|2,0:0|1:2|1:0,0:0:0:0:
140,25,9666,2,0,P|192:16|244:28,1,100,2|2,1:2|3:0,0:0:0:0:
327,70,10435,1,4,3:0:0:0:
370,160,10820,6,0,L|366:227,1,50,8|8,0:0|0:0,0:0:0:0:
277,254,11397,2,0,L|279:204,1,50,8|8,0:0|0:0,0:0:0:0:
188,163,11974,2,0,L|190:212,1,50,8|8,0:0|0:0,0:0:0:0:
107,268,12551,2,0,L|104:218,1,50,8|0,0:0|0:0,0:0:0:0:
100,168,12935,1,8,0:0:0:0:
107,118,13128,2,0,P|164:73|260:107,1,150,8|8,0:0|0:0,0:0:0:0:
277,113,13897,6,0,L|396:108,1,100,4|8,1:0|0:0,0:0:0:0:
455,169,14666,2,0,L|450:288,1,100,0|8,1:0|0:0,0:0:0:0:
380,339,15435,2,0,L|261:344,1,100,0|8,1:0|0:0,0:0:0:0:
182,318,16205,2,0,L|187:373,2,50,0|0|8,1:0|0:0|0:0,0:0:0:0:
171,218,16973,5,8,0:0:0:0:
91,278,17359,1,8,0:0:0:0:
82,178,17743,2,0,L|26:180,2,50,8|4|8,0:0|3:0|3:0,0:0:0:0:
119,144,18320,2,0,P|172:134|231:146,1,100,4|0,1:0|0:0,0:0:0:0:
259,167,18897,2,0,P|312:177|371:165,1,100,0|0,1:0|1:0,0:0:0:0:
401,146,19473,1,0,1:0:0:0:
436,109,19666,1,0,1:0:0:0:
490,193,20051,6,0,L|485:339,1,100,2|0,1:2|1:0,0:0:0:0:
409,357,20820,2,0,L|405:257,1,100,0|2,1:0|1:2,0:0:0:0:
357,170,21589,2,0,P|307:176|259:167,2,100,2|2|0,1:2|1:2|1:0,0:0:0:0:
436,109,22743,1,0,1:0:0:0:
357,46,23128,6,0,P|308:36|258:42,1,100,0|0,1:0|1:0,0:0:0:0:
181,105,23897,2,0,P|131:111|82:101,1,100,0|2,1:0|1:2,0:0:0:0:
13,173,24666,2,0,L|26:305,1,100,2|2,1:2|1:2,0:0:0:0:
121,291,25435,2,0,L|130:191,1,100,0|0,1:0|1:0,0:0:0:0:
181,105,26205,6,0,P|229:95|279:101,1,100,0|0,1:0|1:0,0:0:0:0:
365,51,26974,2,0,P|377:104|362:157,1,100,0|2,1:0|1:2,0:0:0:0:
282,203,27743,2,0,P|233:212|183:206,2,100,2|2|0,1:2|1:2|1:0,0:0:0:0:
368,253,28897,1,0,1:0:0:0:
452,199,29281,6,0,P|442:150|448:100,2,100,2|0|2,1:2|1:0|1:2,0:0:0:0:
498,287,30435,1,0,1:0:0:0:
423,354,30820,2,0,L|302:354,1,100,2|0,1:2|1:0,0:0:0:0:
282,323,31397,2,0,L|161:323,1,100,2|8,3:2|0:0,0:0:0:0:
152,282,31974,2,0,L|85:281,1,50,8|0,0:0|0:0,0:0:0:0:
58,257,32359,6,0,P|46:189|67:128,1,100,2|0,1:2|1:0,0:0:0:0:
102,73,33128,1,0,1:0:0:0:
186,126,33512,1,10,0:2:0:0:
271,73,33896,2,0,L|396:66,2,100,2|2|0,1:2|1:2|1:0,0:0:0:0:
186,19,35051,1,8,0:0:0:0:
102,73,35435,6,0,P|95:122|108:170,1,100,2|0,1:2|1:0,0:0:0:0:
68,262,36205,2,0,P|117:268|165:255,1,100,0|10,1:0|0:2,0:0:0:0:
242,191,36974,2,0,P|291:184|339:197,1,100,2|2,1:2|1:2,0:0:0:0:
398,277,37743,1,0,1:0:0:0:
480,220,38128,1,8,0:0:0:0:
422,138,38512,6,0,L|416:20,1,100,2|0,1:2|1:0,0:0:0:0:
318,20,39281,2,0,L|312:119,1,100,0|8,1:0|0:2,0:0:0:0:
242,191,40051,2,0,P|184:194|133:171,2,100,2|2|0,1:2|1:2|1:0,0:0:0:0:
301,271,41205,1,8,0:0:0:0:
372,200,41589,6,0,P|421:195|468:211,2,100,6|0|0,1:2|1:0|1:0,0:0:0:0:
312,119,42743,1,8,0:0:0:0:
242,191,43128,2,0,P|192:186|145:202,1,100,2|8,1:2|0:0,0:0:0:0:
103,230,43705,2,0,L|99:347,1,100,10|2,0:2|1:2,0:0:0:0:
97,380,44282,1,4,3:0:0:0:
187,336,44666,6,8,P|246:325|309:347,1,100,2|10,1:2|0:2,0:0:0:0:
325,362,45243,2,0,P|384:373|447:351,1,100,2|2,1:2|0:2,0:0:0:0:
468,344,45820,1,8,0:0:0:0:
485,245,46205,2,0,L|479:110,1,100,0|8,1:0|0:0,0:0:0:0:
452,103,46782,2,0,P|393:104|330:80,1,100,0|0,1:0|0:0,0:0:0:0:
313,63,47359,1,10,0:2:0:0:
221,102,47743,6,0,L|227:237,1,100,2|10,1:2|0:2,0:0:0:0:
254,244,48320,2,0,P|313:243|376:267,1,100,2|2,1:2|0:2,0:0:0:0:
393,284,48897,1,8,0:0:0:0:
336,366,49281,2,0,P|286:368|238:355,1,100,0|8,1:0|0:0,0:0:0:0:
212,312,49859,2,0,P|162:309|114:322,1,100,0|0,1:0|0:0,0:0:0:0:
70,346,50435,1,10,0:2:0:0:
19,259,50820,6,0,B|32:207|32:207|21:126,1,100,2|10,1:2|0:2,0:0:0:0:
16,111,51397,2,0,P|61:95|116:106,1,100,2|2,1:2|0:2,0:0:0:0:
154,129,51974,1,8,0:0:0:0:
227,197,52359,2,0,B|240:249|240:249|229:330,1,100,0|0,1:0|0:0,0:0:0:0:
224,345,52936,2,0,P|269:361|324:350,1,100,0|0,1:0|0:0,0:0:0:0:
362,327,53512,1,10,0:2:0:0:
436,260,53897,6,0,L|439:135,1,100,2|8,1:2|0:0,0:0:0:0:
420,113,54474,2,0,P|371:103|295:121,1,100,2|0,1:2|0:0,0:0:0:0:
279,136,55051,1,8,0:0:0:0:
221,217,55435,2,0,L|247:296,2,50,0|8|8,1:0|0:0|0:0,0:0:0:0:
203,169,56012,2,0,P|148:163|98:176,1,100,0|8,1:0|0:0,0:0:0:0:
64,203,56589,1,10,0:2:0:0:
55,103,56974,6,0,L|49:-1,2,100,4|8|0,3:0|3:0|0:0,0:0:0:0:
141,53,58128,2,0,L|245:47,1,100,4|0,1:0|0:0,0:0:0:0:
268,89,58704,1,0,1:0:0:0:
317,93,58896,2,0,L|392:96,1,50,8|8,0:0|3:0,0:0:0:0:
413,115,59282,2,0,P|428:161|419:210,1,100,8|0,3:0|0:0,0:0:0:0:
351,284,60050,6,0,P|416:310|461:302,2,100,8|2|8,0:0|0:0|0:0,0:0:0:0:
288,205,61205,2,0,P|206:195|139:206,1,150,8|8,0:0|0:0,0:0:0:0:
94,227,61974,1,8,0:0:0:0:
14,166,62359,2,0,L|11:56,1,100,10|0,0:2|0:0,0:0:0:0:
108,90,63128,6,0,P|160:97|236:79,1,100,2|8,1:2|0:0,0:0:0:0:
291,36,63897,2,0,P|343:29|419:47,1,100,2|10,1:2|0:2,0:0:0:0:
428,67,64473,1,0,0:0:0:0:
461,105,64666,2,0,L|456:204,1,100,2|8,1:2|0:0,0:0:0:0:
401,288,65435,2,0,P|442:305|508:292,2,100,2|10|2,1:2|0:2|1:2,0:0:0:0:
352,200,66589,6,0,P|325:178|294:168,1,50,10|0,0:2|0:0,0:0:0:0:
270,145,66973,2,0,L|170:147,1,100,2|10,1:2|0:2,0:0:0:0:
87,204,67743,2,0,P|69:157|76:108,1,100,2|8,1:2|0:0,0:0:0:0:
114,77,68319,1,0,0:0:0:0:
156,49,68512,2,0,L|268:46,1,100,2|14,1:2|0:2,0:0:0:0:
346,90,69282,6,0,L|445:92,1,100,2|0,1:2|0:0,0:0:0:0:
500,176,70051,2,0,P|486:239|496:291,1,100,2|10,1:2|0:2,0:0:0:0:
455,309,70627,1,0,0:0:0:0:
419,343,70820,2,0,P|356:357|304:347,1,100,2|10,1:2|0:2,0:0:0:0:
242,291,71589,2,0,P|192:287|144:300,1,100,2|10,1:2|0:2,0:0:0:0:
94,299,72166,1,2,0:2:0:0:
59,262,72359,6,0,P|43:197|60:153,1,100,6|0,1:2|0:0,0:0:0:0:
136,113,73128,2,0,P|152:159|143:208,1,100,6|10,1:2|0:2,0:0:0:0:
94,299,73897,2,0,P|140:313|189:301,1,100,6|14,1:2|0:2,0:0:0:0:
230,273,74473,1,2,0:2:0:0:
273,247,74666,2,0,P|319:233|368:245,1,100,6|14,1:2|0:2,0:0:0:0:
451,226,75435,6,0,L|442:91,1,100,6|8,1:2|0:0,0:0:0:0:
361,69,76205,2,0,L|354:168,1,100,2|10,1:2|0:2,0:0:0:0:
313,197,76781,1,0,0:0:0:0:
272,225,76974,2,0,P|226:239|177:227,1,100,2|8,1:2|0:0,0:0:0:0:
109,153,77742,2,0,P|114:96|141:56,1,100,2|10,1:2|0:2,0:0:0:0:
205,131,78512,6,0,L|326:122,2,100,2|10|2,1:2|0:2|1:2,0:0:0:0:
173,225,79665,2,0,P|142:197|117:184,1,50,10|0,0:2|0:0,0:0:0:0:
92,168,80051,2,0,P|77:220|100:289,2,100,0|8|0,1:0|0:0|1:0,0:0:0:0:
134,77,81204,2,0,P|166:80|193:94,1,50,14|0,0:2|0:0,0:0:0:0:
205,131,81589,6,0,L|326:122,1,100,2|8,1:2|0:0,0:0:0:0:
387,67,82359,2,0,P|404:114|384:185,1,100,2|10,1:2|0:2,0:0:0:0:
358,194,82935,1,0,0:0:0:0:
317,223,83128,2,0,L|217:215,2,100,2|10|0,1:2|0:2|0:0,0:0:0:0:
351,258,84089,1,8,0:0:0:0:
387,294,84282,1,10,0:2:0:0:
317,366,84666,6,0,L|267:368,1,50,8|8,0:0|0:0,0:0:0:0:
195,299,85243,2,0,L|145:301,1,50,8|8,0:0|0:0,0:0:0:0:
48,328,85820,2,0,L|45:278,1,50,8|8,0:0|0:0,0:0:0:0:
115,206,86396,2,0,L|112:156,1,50,8|8,0:0|0:0,0:0:0:0:
125,107,86781,1,8,0:0:0:0:
147,62,86973,2,0,L|197:65,2,50,8|8|8,0:0|0:0|0:0,0:0:0:0:
105,33,87550,5,8,0:0:0:0:
