osu file format v14

[General]
AudioFilename: audio.mp3
AudioLeadIn: 0
PreviewTime: 26593
Countdown: 0
SampleSet: Soft
StackLeniency: 0.3
Mode: 0
LetterboxInBreaks: 0
WidescreenStoryboard: 0

[Editor]
DistanceSpacing: 1.9
BeatDivisor: 4
GridSize: 8
TimelineZoom: 1

[Metadata]
Title:Cory in the House
TitleUnicode:Cory in the House
Artist:Kyle Massey
ArtistUnicode:Kyle Massey
Creator:fieryrage
Version:Hard
Source:Cory in the House
Tags:maiara walsh jason dolley that's so raven disney channel corey n1doking [toy]
BeatmapID:1078904
BeatmapSetID:429436

[Difficulty]
HPDrainRate:5
CircleSize:4
OverallDifficulty:7.2
ApproachRate:8.2
SliderMultiplier:1.8
SliderTickRate:1

[Events]
//Background and Video events
0,0,"listenup.jpg",0,0
Video,-100,"herewego.avi"
//Break Periods
//Storyboard Layer 0 (Background)
//Storyboard Layer 1 (Fail)
//Storyboard Layer 2 (Pass)
//Storyboard Layer 3 (Foreground)
//Storyboard Sound Samples

[TimingPoints]
238,560.747663551402,4,2,0,30,1,0
4723,-86.9565217391304,4,2,0,30,0,0
5565,-76.9230769230769,4,2,0,30,0,0
6686,-68.9655172413793,4,2,0,30,0,0
6966,-125,4,2,0,30,0,0
9209,-100,4,2,0,30,0,0
24910,-125,4,2,0,30,0,0
25191,-125,4,2,0,15,0,0
26593,-100,4,2,0,20,0,0
27153,-80,4,2,0,40,0,1
47200,-80,4,2,0,25,0,1
47340,-100,4,2,0,30,0,0
47621,-100,4,2,0,5,0,0

[Colours]
Combo1 : 128,128,128
Combo2 : 117,63,2
Combo3 : 251,214,181
Combo4 : 255,128,128

[HitObjects]
120,301,238,6,0,L|128:157,1,135,6|0,0:0|0:0,0:0:0:0:
133,85,798,1,8,0:0:0:0:
133,85,938,1,0,0:0:0:0:
291,167,1219,2,0,P|238:188|186:183,1,90
127,166,1639,1,4,0:3:0:0:
283,77,1920,1,8,0:0:0:0:
283,77,2060,2,0,L|292:185,1,90
381,294,2480,6,0,L|388:204,1,90
400,59,3041,1,8,0:0:0:0:
290,166,3322,1,0,0:0:0:0:
290,166,3462,1,0,0:0:0:0:
440,208,3742,1,0,0:0:0:0:
440,208,3882,1,4,0:3:0:0:
314,78,4163,1,8,0:0:0:0:
381,294,4443,2,0,L|400:348,1,45
302,334,4723,6,0,P|252:320|201:324,1,103.500001974106,6|0,0:0|0:0,0:0:0:0:
440,208,5284,1,8,0:0:0:0:
313,78,5565,5,6,0:0:0:0:
292,297,5845,2,0,L|304:171,1,116.999994644165,6|4,0:0|0:3,0:0:0:0:
317,51,6406,1,8,0:0:0:0:
126,110,6686,1,6,0:0:0:0:
444,205,6966,5,6,0:0:0:0:
462,217,7247,2,0,L|465:163,2,36,2|2|2,0:0|0:0|0:0,0:0:0:0:
461,343,7808,1,2,0:0:0:0:
461,343,7948,1,2,0:0:0:0:
378,303,8088,6,0,P|342:302|308:313,1,72,2|2,0:0|0:0,0:0:0:0:
227,360,8509,1,2,0:0:0:0:
227,360,8649,2,0,P|191:360|156:350,1,72,2|0,0:0|0:0,0:0:0:0:
239,142,9209,6,0,L|230:302,1,135,6|0,0:0|0:0,0:0:0:0:
227,360,9770,1,8,0:0:0:0:
124,266,10051,1,0,0:0:0:0:
257,218,10331,2,0,L|358:210,1,90,0|4,0:0|0:3,0:0:0:0:
227,360,10752,1,0,0:0:0:0:
227,360,10892,2,0,L|126:352,1,90,8|0,0:0|0:0,0:0:0:0:
41,304,11312,1,0,0:0:0:0:
41,304,11452,6,0,L|38:245,2,45
116,188,11873,1,0,0:0:0:0:
116,188,12013,2,0,L|118:143,2,45,8|0|0,0:0|0:0|0:0,0:0:0:0:
196,269,12434,1,0,0:0:0:0:
196,269,12574,6,0,B|215:268|215:268|239:275,1,45
311,213,12854,2,0,L|414:209,1,90,4|8,0:3|0:0,0:0:0:0:
499,140,13275,1,0,0:0:0:0:
499,140,13415,2,0,B|474:143|474:143|444:140,1,45
340,93,13695,5,6,0:0:0:0:
319,83,13976,2,0,L|223:78,2,90,0|8|0,0:0|0:0|0:0,0:0:0:0:
400,209,14677,1,0,0:0:0:0:
400,209,14817,2,0,B|356:264|356:264|232:291,1,180,0|8,0:0|0:0,0:0:0:0:
97,251,15658,1,0,0:0:0:0:
97,251,15798,1,0,0:0:0:0:
156,176,15938,6,0,B|190:128|190:128|206:37,1,135,6|0,0:0|0:0,0:0:0:0:
282,27,16499,2,0,L|327:23,2,45,8|0|0,0:0|0:0|0:0,0:0:0:0:
278,102,16920,1,0,0:0:0:0:
431,144,17200,1,0,0:0:0:0:
431,144,17340,2,0,L|425:195,1,45,4|0,0:3|0:0,0:0:0:0:
275,179,17621,6,0,B|302:175|302:175|335:177,1,45,8|0,0:0|0:0,0:0:0:0:
444,274,17901,2,0,B|426:275|426:275|399:271,1,45
271,314,18181,6,0,L|276:169,1,135,6|0,0:0|0:0,0:0:0:0:
279,97,18742,1,8,0:0:0:0:
106,138,19023,1,0,0:0:0:0:
106,138,19163,1,0,0:0:0:0:
117,224,19303,2,0,P|116:246|112:269,1,45
15,182,19583,2,0,P|6:138|12:94,1,90,4|8,0:3|0:0,0:0:0:0:
203,209,20144,2,0,L|262:207,1,45
112,268,20424,6,0,L|109:218,2,45
15,182,20845,1,0,0:0:0:0:
15,182,20985,2,0,B|47:147|47:147|96:135,1,90,8|0,0:0|0:0,0:0:0:0:
183,123,21406,1,0,0:0:0:0:
183,123,21546,6,2,L|325:118,1,135
399,114,22107,1,10,0:0:0:0:
391,282,22387,2,0,L|394:225,1,45
400,91,22667,5,6,0:0:0:0:
236,243,22948,1,0,0:0:0:0:
470,341,23228,1,8,0:0:0:0:
430,185,23509,1,0,0:0:0:0:
430,185,23649,1,0,0:0:0:0:
335,166,23789,6,0,L|232:153,1,90,0|4,0:0|0:3,0:0:0:0:
123,167,24350,1,8,0:0:0:0:
101,174,24630,1,0,0:0:0:0:
79,181,24910,6,0,P|65:265|82:331,1,144,6|0,0:0|0:0,0:0:0:0:
236,243,26032,2,0,P|250:159|233:93,1,144
133,39,26873,1,0,0:0:0:0:
342,8,27153,6,0,B|351:70|351:70|341:139,1,112.5,6|0,0:0|0:0,0:0:0:0:
317,246,27714,2,0,P|388:243|433:258,1,112.5,8|0,0:0|0:0,0:0:0:0:
224,360,28135,1,0,0:0:0:0:
224,360,28275,6,0,L|226:291,1,56.25
95,308,28555,2,0,L|93:251,1,56.25,4|0,0:3|0:0,0:0:0:0:
212,94,28836,2,0,P|236:144|234:211,1,112.5,8|0,0:0|0:0,0:0:0:0:
225,303,29256,1,0,0:0:0:0:
225,303,29396,6,0,L|84:310,1,112.5,6|0,0:0|0:0,0:0:0:0:
21,194,29957,1,8,0:0:0:0:
18,165,30238,2,0,L|21:100,1,56.25
25,16,30518,5,0,0:0:0:0:
25,16,30658,1,0,0:0:0:0:
122,51,30798,2,0,B|180:45|180:45|248:62,1,112.5,4|8,0:3|0:0,0:0:0:0:
400,106,31359,2,0,L|337:88,1,56.25
223,235,31639,6,0,P|240:172|284:129,1,112.5,6|0,0:0|0:0,0:0:0:0:
155,328,32200,2,0,P|119:285|107:230,1,112.5,8|0,0:0|0:0,0:0:0:0:
112,128,32621,1,0,0:0:0:0:
112,128,32761,6,0,L|115:45,1,56.25
218,122,33041,2,0,L|223:240,1,112.5,4|8,0:3|0:0,0:0:0:0:
384,309,33602,2,0,P|343:293|312:292,1,56.25
375,195,33882,6,0,B|432:181|432:181|499:187,1,112.5,6|0,0:0|0:0,0:0:0:0:
331,291,34443,1,8,0:0:0:0:
306,94,34723,1,0,0:0:0:0:
306,94,34864,1,0,0:0:0:0:
163,105,35004,6,0,P|189:96|217:94,1,56.25
118,187,35284,2,0,P|80:198|6:193,1,112.5,4|8,0:3|0:0,0:0:0:0:
158,49,35845,2,0,L|163:110,1,56.25
233,242,36125,6,0,L|241:127,1,112.5,6|0,0:0|0:0,0:0:0:0:
380,128,36546,1,0,0:0:0:0:
380,128,36686,2,0,B|348:133|348:133|311:128,2,56.25,8|0|0,0:0|0:0|0:0,0:0:0:0:
469,116,37107,2,0,B|480:169|480:169|476:239,1,112.5
348,290,37527,6,0,P|380:271|409:265,1,56.25,4|0,0:3|0:0,0:0:0:0:
489,367,37808,2,0,P|477:339|472:308,1,56.25,8|0,0:0|0:0,0:0:0:0:
476,227,38088,1,0,0:0:0:0:
476,227,38228,1,0,0:0:0:0:
350,189,38368,6,0,L|212:176,1,112.5,6|0,0:0|0:0,0:0:0:0:
108,150,38789,1,0,0:0:0:0:
108,150,38929,2,0,B|132:167|132:167|148:198,2,56.25,8|0|0,0:0|0:0|0:0,0:0:0:0:
31,78,39350,2,0,B|85:55|85:55|164:60,1,112.5
239,70,39770,5,4,0:3:0:0:
239,70,39910,1,0,0:0:0:0:
318,133,40051,1,8,0:0:0:0:
318,133,40191,1,0,0:0:0:0:
244,187,40331,2,0,L|200:222,1,56.25
375,55,40611,6,0,P|407:110|401:171,1,112.5,6|0,0:0|0:0,0:0:0:0:
293,339,41172,2,0,P|293:283|323:236,1,112.5,8|0,0:0|0:0,0:0:0:0:
405,157,41593,1,0,0:0:0:0:
405,157,41733,6,0,L|291:132,1,112.5,0|4,0:0|0:3,0:0:0:0:
174,53,42153,1,0,0:0:0:0:
174,53,42294,2,0,P|210:84|226:115,1,56.25,8|0,0:0|0:0,0:0:0:0:
161,224,42574,2,0,P|178:202|201:186,1,56.25
35,134,42854,6,0,B|21:209|21:209|33:327,1,168.75,6|0,0:0|0:0,0:0:0:0:
123,341,43415,1,8,0:0:0:0:
338,283,43695,2,0,L|263:301,1,56.25
405,216,43976,6,0,B|427:271|427:271|422:337,2,112.5,0|4|8,0:0|0:3|0:0,0:0:0:0:
266,107,44817,2,0,L|339:104,1,56.25
435,99,45097,6,0,L|261:108,1,168.75,6|0,0:0|0:0,0:0:0:0:
137,195,45658,2,0,L|274:203,1,112.5,8|0,0:0|0:0,0:0:0:0:
370,274,46079,1,0,0:0:0:0:
370,274,46219,6,0,B|346:252|346:252|326:220,1,56.25
474,92,46499,2,0,L|465:228,1,112.5,4|8,0:3|0:0,0:0:0:0:
206,337,47200,1,0,0:0:0:0:
206,337,47340,5,6,0:0:0:0:
256,192,48322,12,0,49794,0:0:0:0:
