osu file format v14

[General]
AudioFilename: audio.mp3
AudioLeadIn: 0
PreviewTime: 26593
Countdown: 0
SampleSet: Soft
StackLeniency: 0.3
Mode: 0
LetterboxInBreaks: 0
WidescreenStoryboard: 0

[Editor]
DistanceSpacing: 1.6
BeatDivisor: 8
GridSize: 4
TimelineZoom: 1.7

[Metadata]
Title:Cory in the House
TitleUnicode:Cory in the House
Artist:Kyle Massey
ArtistUnicode:Kyle Massey
Creator:fieryrage
Version:Extreme
Source:Cory in the House
Tags:maiara walsh jason dolley that's so raven disney channel corey n1doking [toy]
BeatmapID:1039164
BeatmapSetID:429436

[Difficulty]
HPDrainRate:6
CircleSize:5
OverallDifficulty:9
ApproachRate:9.4
SliderMultiplier:2.4
SliderTickRate:1

[Events]
//Background and Video events
0,0,"listenup.jpg",0,0
Video,-100,"herewego.avi"
//Break Periods
//Storyboard Layer 0 (Background)
//Storyboard Layer 1 (Fail)
//Storyboard Layer 2 (Pass)
//Storyboard Layer 3 (Foreground)
//Storyboard Sound Samples

[TimingPoints]
238,560.747663551402,4,2,0,30,1,0
5565,-86.9565217391304,4,2,0,30,0,0
6686,-76.9230769230769,4,2,0,30,0,0
7247,-133.333333333333,4,2,0,30,0,0
9209,-100,4,2,0,30,0,0
24910,-200,4,2,0,30,0,0
25191,-200,4,2,0,15,0,0
26593,-100,4,2,0,20,0,0
27153,-76.9230769230769,4,2,0,40,0,1
42854,-133.333333333333,4,2,0,40,0,1
43415,-76.9230769230769,4,2,0,40,0,1
45658,-86.9565217391304,4,2,0,40,0,1
46219,-100,4,2,0,40,0,1
46780,-125,4,2,0,40,0,1
47200,-125,4,2,0,25,0,1
47340,-100,4,2,0,30,0,0
47621,-100,4,2,0,5,0,0

[Colours]
Combo1 : 128,128,128
Combo2 : 117,63,2
Combo3 : 251,214,181
Combo4 : 255,128,128

[HitObjects]
210,240,238,6,0,B|193:137|193:137|198:55,1,180,6|0,0:0|0:0,0:0:0:0:
228,376,798,1,8,0:0:0:0:
101,325,938,1,0,0:0:0:0:
329,233,1219,6,0,L|210:240,1,120
85,193,1639,1,4,0:3:0:0:
349,98,1920,5,8,0:0:0:0:
329,233,2060,1,0,0:0:0:0:
157,142,2340,5,0,0:0:0:0:
349,98,2480,2,0,L|418:101,1,60
229,95,2761,1,0,0:0:0:0:
329,233,3041,6,0,L|210:240,1,120,8|0,0:0|0:0,0:0:0:0:
85,193,3462,1,0,0:0:0:0:
396,186,3742,5,0,0:0:0:0:
294,300,3882,1,4,0:3:0:0:
133,131,4163,1,8,0:0:0:0:
396,186,4443,1,0,0:0:0:0:
396,186,4583,1,0,0:0:0:0:
294,300,4723,6,0,B|226:317|226:317|164:304,1,120,6|0,0:0|0:0,0:0:0:0:
313,216,5284,2,0,P|349:232|366:254,1,60,8|0,0:0|0:0,0:0:0:0:
230,173,5565,6,0,L|224:66,1,69.0000013160706,6|0,0:0|0:0,0:0:0:0:
358,40,5845,2,0,L|355:109,1,69.0000013160706,6|0,0:0|0:0,0:0:0:0:
294,300,6125,1,4,0:3:0:0:
230,172,6266,1,0,0:0:0:0:
434,144,6406,2,0,L|503:138,1,69.0000013160706,8|0,0:0|0:0,0:0:0:0:
165,243,6686,6,0,P|135:189|166:99,1,155.999992858887,6|6,0:0|0:0,0:0:0:0:
332,76,7107,1,0,0:0:0:0:
276,233,7247,5,2,0:0:0:0:
276,233,7387,1,2,0:0:0:0:
161,103,7527,1,2,0:0:0:0:
399,159,7667,1,2,0:0:0:0:
188,193,7808,2,2,L|150:198,2,22.5000008583069
276,233,8088,5,2,0:0:0:0:
332,76,8228,1,2,0:0:0:0:
269,256,8368,1,2,0:0:0:0:
145,85,8509,1,2,0:0:0:0:
310,145,8649,2,0,B|356:143|356:143|412:112,1,90.0000034332277,2|0,0:0|0:0,0:0:0:0:
251,215,9069,1,0,0:0:0:0:
251,215,9209,6,0,P|222:154|236:82,1,120,6|0,0:0|0:0,0:0:0:0:
136,53,9630,1,0,0:0:0:0:
246,94,9770,2,0,L|332:98,1,60,8|0,0:0|0:0,0:0:0:0:
239,229,10051,2,0,L|153:233,1,60
398,158,10331,5,0,0:0:0:0:
398,158,10471,1,0,0:0:0:0:
362,331,10611,1,4,0:3:0:0:
239,229,10752,1,0,0:0:0:0:
480,193,10892,1,8,0:0:0:0:
220,242,11032,2,0,L|146:246,2,60
337,109,11452,5,0,0:0:0:0:
362,331,11593,1,0,0:0:0:0:
274,158,11733,1,0,0:0:0:0:
424,275,11873,1,0,0:0:0:0:
220,242,12013,5,8,0:0:0:0:
465,171,12153,1,0,0:0:0:0:
274,158,12294,5,0,0:0:0:0:
492,239,12434,1,0,0:0:0:0:
260,335,12574,6,0,L|183:332,2,60
386,339,12995,1,0,0:0:0:0:
284,216,13135,2,0,P|273:171|278:138,1,60,8|0,0:0|0:0,0:0:0:0:
511,252,13415,5,0,0:0:0:0:
260,335,13555,1,0,0:0:0:0:
287,72,13695,5,6,0:0:0:0:
278,97,13976,2,0,B|270:158|270:158|286:228,1,120,0|8,0:0|0:0,0:0:0:0:
207,351,14396,1,0,0:0:0:0:
207,351,14537,2,0,P|161:337|141:316,1,60
283,215,14817,6,0,L|372:212,1,60
511,252,15097,2,0,B|445:276|445:276|373:263,1,120,4|8,0:3|0:0,0:0:0:0:
207,163,15658,2,0,P|178:195|169:226,1,60
255,361,15938,6,0,L|259:232,1,120,6|0,0:0|0:0,0:0:0:0:
219,88,16359,1,0,0:0:0:0:
282,225,16499,2,0,P|326:270|412:274,1,120,8|0,0:0|0:0,0:0:0:0:
178,153,16920,1,0,0:0:0:0:
158,161,17200,5,0,0:0:0:0:
223,62,17340,1,4,0:3:0:0:
242,240,17480,1,0,0:0:0:0:
82,126,17621,5,8,0:0:0:0:
334,164,17761,1,0,0:0:0:0:
82,207,17901,5,0,0:0:0:0:
300,76,18041,1,0,0:0:0:0:
207,327,18181,6,0,P|162:336|212:301,1,180,6|0,0:0|0:0,0:0:0:0:
64,320,18742,2,0,P|82:244|141:205,1,120,8|0,0:0|0:0,0:0:0:0:
277,175,19163,1,0,0:0:0:0:
82,126,19303,5,0,0:0:0:0:
297,180,19443,1,0,0:0:0:0:
61,121,19583,1,4,0:3:0:0:
321,186,19723,1,0,0:0:0:0:
181,322,19864,2,0,B|113:332|113:332|51:317,1,120,8|0,0:0|0:0,0:0:0:0:
223,185,20284,1,0,0:0:0:0:
223,185,20424,6,0,P|226:223|216:258,1,60
98,181,20705,1,0,0:0:0:0:
284,126,20845,1,0,0:0:0:0:
73,188,20985,2,0,L|-5:187,1,60,8|0,0:0|0:0,0:0:0:0:
121,77,21266,1,0,0:0:0:0:
121,77,21406,1,0,0:0:0:0:
223,185,21546,6,0,B|256:201|291:196|291:196|311:214|311:214|356:201|396:227,1,180,2|2,0:0|0:0,0:0:0:0:
432,243,22037,1,2,0:0:0:0:
432,243,22107,2,0,P|454:207|455:175,1,60,10|0,0:0|0:0,0:0:0:0:
317,241,22387,2,0,P|319:278|332:306,1,60
447,165,22667,5,6,0:0:0:0:
454,146,22948,2,0,L|451:87,1,60
316,240,23228,2,0,L|320:181,1,60,8|0,0:0|0:0,0:0:0:0:
375,77,23509,5,0,0:0:0:0:
456,189,23649,1,0,0:0:0:0:
261,112,23789,1,0,0:0:0:0:
415,133,23929,1,0,0:0:0:0:
316,240,24069,2,0,B|241:251|241:251|178:232,2,120,4|8|0,0:3|0:0|0:0,0:0:0:0:
141,164,24910,6,0,P|119:190|114:279,1,120,6|0,0:0|0:0,0:0:0:0:
52,310,25611,2,0,L|56:369,1,60
111,272,26032,5,0,0:0:0:0:
76,130,26312,1,0,0:0:0:0:
137,194,26593,5,0,0:0:0:0:
153,0,26873,1,0,0:0:0:0:
198,274,27153,6,0,P|137:302|59:259,1,155.999992858887,6|0,0:0|0:0,0:0:0:0:
298,173,27574,1,0,0:0:0:0:
298,173,27714,2,0,L|303:265,1,77.9999964294435,8|0,0:0|0:0,0:0:0:0:
137,194,27995,2,0,L|141:116,1,77.9999964294435
386,163,28275,5,0,0:0:0:0:
156,121,28415,1,0,0:0:0:0:
406,167,28555,2,0,B|445:225|445:225|436:320,1,155.999992858887,4|8,0:3|0:0,0:0:0:0:
303,157,29116,2,0,P|329:98|365:79,1,77.9999964294435
379,229,29396,6,0,B|321:279|247:247|247:247|215:247|191:258|191:258|171:252|149:254,1,233.999989288331,6|0,0:0|0:0,0:0:0:0:
52,176,29957,1,8,0:0:0:0:
49,158,30238,5,0,0:0:0:0:
173,71,30378,1,0,0:0:0:0:
138,302,30518,1,0,0:0:0:0:
91,75,30658,1,0,0:0:0:0:
272,253,30798,1,4,0:3:0:0:
54,243,30938,1,0,0:0:0:0:
293,255,31079,6,0,L|389:247,1,77.9999964294435,8|0,0:0|0:0,0:0:0:0:
474,193,31359,1,0,0:0:0:0:
474,193,31499,1,0,0:0:0:0:
234,161,31639,6,0,P|179:222|182:295,1,155.999992858887,6|0,0:0|0:0,0:0:0:0:
324,372,32060,1,0,0:0:0:0:
324,372,32200,2,0,P|329:322|315:276,1,77.9999964294435,8|0,0:0|0:0,0:0:0:0:
234,84,32480,2,0,P|228:122|234:161,1,77.9999964294435
359,198,32761,5,0,0:0:0:0:
128,248,32901,1,0,0:0:0:0:
392,191,33041,2,0,B|463:176|463:176|503:215|475:257,1,155.999992858887,4|8,0:3|0:0,0:0:0:0:
313,126,33602,2,0,P|362:93|406:95,1,77.9999964294435
254,240,33882,6,0,B|127:248|127:248|156:221,1,155.999992858887,6|0,0:0|0:0,0:0:0:0:
40,205,34303,1,0,0:0:0:0:
40,205,34443,2,0,P|28:258|36:299,1,77.9999964294435,8|0,0:0|0:0,0:0:0:0:
188,371,34723,2,0,P|189:332|178:295,1,77.9999964294435
118,168,35004,5,0,0:0:0:0:
135,23,35144,1,0,0:0:0:0:
254,240,35284,1,4,0:3:0:0:
237,95,35424,1,0,0:0:0:0:
106,191,35565,6,0,P|63:214|12:216,1,77.9999964294435,8|0,0:0|0:0,0:0:0:0:
259,81,35845,2,0,P|297:88|330:108,1,77.9999964294435
240,354,36125,6,0,L|231:170,1,155.999992858887,6|0,0:0|0:0,0:0:0:0:
151,84,36546,1,0,0:0:0:0:
254,187,36686,2,0,P|330:196|404:136,1,155.999992858887,8|0,0:0|0:0,0:0:0:0:
305,84,37107,1,0,0:0:0:0:
280,274,37247,5,0,0:0:0:0:
229,108,37387,1,0,0:0:0:0:
453,155,37527,1,4,0:3:0:0:
189,211,37667,1,0,0:0:0:0:
381,60,37808,2,0,B|436:26|483:51|483:51|457:80|426:74,1,155.999992858887,8|0,0:0|0:0,0:0:0:0:
189,211,38228,1,0,0:0:0:0:
373,374,38368,6,0,L|363:188,1,155.999992858887,6|0,0:0|0:0,0:0:0:0:
243,120,38789,1,0,0:0:0:0:
243,120,38929,2,0,P|175:110|100:159,1,155.999992858887,8|0,0:0|0:0,0:0:0:0:
197,323,39350,1,0,0:0:0:0:
197,323,39490,2,0,P|206:261|199:223,1,77.9999964294435
126,73,39770,5,4,0:3:0:0:
274,37,39910,1,0,0:0:0:0:
182,121,40051,1,8,0:0:0:0:
385,76,40191,1,0,0:0:0:0:
238,168,40331,2,0,L|333:148,1,77.9999964294435
257,306,40611,6,0,P|173:291|124:223,1,155.999992858887,6|0,0:0|0:0,0:0:0:0:
234,90,41032,1,0,0:0:0:0:
234,90,41172,2,0,L|239:191,1,77.9999964294435,8|0,0:0|0:0,0:0:0:0:
45,289,41452,2,0,L|48:211,1,77.9999964294435
98,35,41733,5,0,0:0:0:0:
148,243,41873,1,0,0:0:0:0:
46,120,42013,1,4,0:3:0:0:
175,39,42153,1,0,0:0:0:0:
144,270,42294,2,0,L|130:358,2,77.9999964294435,8|0|0,0:0|0:0|0:0,0:0:0:0:
322,201,42714,1,0,0:0:0:0:
322,201,42854,6,0,P|396:204|447:244,1,135.000005149841,6|0,0:0|0:0,0:0:0:0:
254,317,43415,6,0,L|247:227,1,77.9999964294435,8|0,0:0|0:0,0:0:0:0:
340,99,43695,2,0,L|333:176,1,77.9999964294435
234,365,43976,6,0,L|227:275,1,77.9999964294435
360,54,44256,2,0,L|353:131,1,77.9999964294435,4|0,0:3|0:0,0:0:0:0:
149,249,44537,2,0,P|70:244|21:172,1,155.999992858887,8|0,0:0|0:0,0:0:0:0:
139,54,44957,1,0,0:0:0:0:
152,275,45097,6,0,L|158:363,2,77.9999964294435,6|0|0,0:0|0:0|0:0,0:0:0:0:
269,208,45518,1,0,0:0:0:0:
269,208,45658,6,0,L|263:302,2,69.0000013160706,8|0|0,0:0|0:0|0:0,0:0:0:0:
251,90,46079,1,0,0:0:0:0:
251,90,46219,6,0,P|218:75|184:72,1,60
363,135,46499,2,0,P|396:120|430:117,1,60,4|0,0:3|0:0,0:0:0:0:
264,276,46780,6,0,P|202:266|255:237,1,144,8|0,0:0|0:0,0:0:0:0:
493,286,47340,5,6,0:0:0:0:
256,192,48322,12,0,49794,0:0:0:0:
