osu file format v14

[General]
AudioFilename: audio.mp3
AudioLeadIn: 0
PreviewTime: 27118
Countdown: 0
SampleSet: Soft
StackLeniency: 0.7
Mode: 0
LetterboxInBreaks: 0
WidescreenStoryboard: 0

[Editor]
Bookmarks: 9174,24875,27118,45062,47305
DistanceSpacing: 1.5
BeatDivisor: 4
GridSize: 4
TimelineZoom: 1

[Metadata]
Title:Cory In The House (TV Size)
TitleUnicode:Cory In The House (TV Size)
Artist:Kyle Massey
ArtistUnicode:Kyle Massey
Creator:Mel
Version:Ultimate Reverberant Meme
Source:
Tags:anime
BeatmapID:1092844
BeatmapSetID:514485

[Difficulty]
HPDrainRate:6.5
CircleSize:4
OverallDifficulty:8
ApproachRate:9.6
SliderMultiplier:1.8
SliderTickRate:1

[Events]
//Background and Video events
0,0,"bg.png",0,0
//Break Periods
//Storyboard Layer 0 (Background)
//Storyboard Layer 1 (Fail)
//Storyboard Layer 2 (Pass)
//Storyboard Layer 3 (Foreground)
//Storyboard Sound Samples

[TimingPoints]
203,280.373831775701,4,2,0,65,1,0
203,-66.6666666666667,4,2,0,65,0,0
483,-100,4,2,0,65,0,0
4688,-80,4,2,0,65,0,0
8614,-100,4,2,0,65,0,0
27118,-66.6666666666667,4,2,0,65,0,1
47305,-66.6666666666667,4,2,0,65,0,0

[Colours]
Combo1 : 0,213,0
Combo2 : 241,46,202
Combo3 : 3,190,252
Combo4 : 255,130,4

[HitObjects]
48,180,203,6,0,P|120:156|224:248,1,202.500007724762
276,168,483,6,0,L|284:68,1,90
120,244,763,2,0,P|160:304|288:292,1,180
372,224,1184,1,0,0:0:0:0:
492,324,1324,1,0,0:0:0:0:
344,344,1464,1,0,0:0:0:0:
472,232,1604,2,0,P|480:176|464:80,1,135
388,44,1885,2,0,P|380:112|392:156,1,90
224,228,2165,1,0,0:0:0:0:
412,288,2305,1,0,0:0:0:0:
264,144,2445,6,0,P|216:132|172:144,1,90
60,272,2726,2,0,B|156:264|156:264|124:304,1,135
232,312,3006,2,0,B|207:342|207:342|303:334,1,135
448,312,3287,1,0,0:0:0:0:
336,144,3427,2,0,P|332:200|344:252,1,90
492,192,3707,1,0,0:0:0:0:
248,180,3847,6,0,L|104:172,1,135
48,228,4128,2,0,P|72:184|40:96,1,135
152,32,4408,2,0,P|148:56|148:80,1,45
324,208,4548,2,0,P|328:184|328:160,1,45
252,296,4688,6,0,B|304:328|368:308|368:308|432:288|480:328,1,225
400,104,5109,1,0,0:0:0:0:
186,169,5249,2,0,P|254:149|326:217,1,168.75
400,232,5530,2,0,L|520:228,1,112.5
244,232,5810,2,0,L|124:228,1,112.5
318,102,6090,6,0,P|338:166|318:214,1,112.5
64,284,6371,2,0,P|44:220|64:172,1,112.5
236,32,6651,2,0,L|232:152,1,112.5
408,292,6931,1,0,0:0:0:0:
220,340,7072,5,0,0:0:0:0:
220,340,7142,1,0,0:0:0:0:
220,340,7212,1,0,0:0:0:0:
328,152,7352,2,0,L|332:96,2,56.25
440,304,7632,1,0,0:0:0:0:
440,304,7703,1,0,0:0:0:0:
440,304,7773,5,0,0:0:0:0:
395,321,7843,1,0,0:0:0:0:
348,326,7913,1,0,0:0:0:0:
301,317,7983,1,0,0:0:0:0:
258,296,8053,1,0,0:0:0:0:
236,160,8193,1,0,0:0:0:0:
196,344,8333,1,0,0:0:0:0:
312,124,8474,1,0,0:0:0:0:
68,228,8614,2,0,P|124:216|196:252,1,135
236,160,8894,2,0,P|228:112|240:64,1,90
485,109,9174,6,0,B|435:94|397:118|397:118|359:142|301:120,1,180
156,68,9595,1,0,0:0:0:0:
76,164,9735,2,0,L|68:264,1,90
192,344,10016,1,0,0:0:0:0:
176,208,10156,1,0,0:0:0:0:
176,208,10296,1,0,0:0:0:0:
308,268,10436,5,0,0:0:0:0:
108,320,10576,1,0,0:0:0:0:
192,132,10717,1,0,0:0:0:0:
192,132,10857,2,0,L|184:256,1,90
311,357,11137,2,0,P|307:297|311:237,1,90
448,168,11417,6,0,P|396:180|304:132,1,135
264,96,11698,1,0,0:0:0:0:
400,48,11838,1,0,0:0:0:0:
308,268,11978,1,0,0:0:0:0:
172,140,12118,1,0,0:0:0:0:
172,140,12188,1,0,0:0:0:0:
172,140,12259,2,0,P|160:92|168:48,1,90
400,48,12539,5,0,0:0:0:0:
248,92,12679,1,0,0:0:0:0:
392,180,12819,2,0,P|456:176|492:180,1,90
312,252,13100,2,0,P|296:200|292:152,1,90
352,56,13380,1,0,0:0:0:0:
188,200,13520,1,0,0:0:0:0:
416,296,13660,6,0,P|360:280|240:332,1,180
76,264,14081,1,0,0:0:0:0:
172,360,14221,5,0,0:0:0:0:
224,152,14361,1,0,0:0:0:0:
40,188,14502,1,0,0:0:0:0:
252,320,14642,2,0,L|256:216,1,90
140,88,14922,1,0,0:0:0:0:
28,272,15062,2,0,P|80:296|184:276,1,135
255,230,15343,2,0,P|321:222|383:248,1,135
480,300,15623,2,0,L|484:196,1,90
257,53,15903,6,0,P|269:109|245:253,1,180
96,328,16324,1,0,0:0:0:0:
320,296,16464,1,0,0:0:0:0:
168,184,16604,1,0,0:0:0:0:
240,352,16745,1,0,0:0:0:0:
449,287,16885,6,0,P|401:275|309:303,1,135
256,232,17165,2,0,L|252:128,1,90
160,56,17445,1,0,0:0:0:0:
372,136,17586,1,0,0:0:0:0:
132,244,17726,1,0,0:0:0:0:
284,36,17866,1,0,0:0:0:0:
216,296,18006,1,0,0:0:0:0:
80,144,18146,6,0,P|144:140|172:144,1,90
352,208,18427,1,0,0:0:0:0:
216,296,18567,1,0,0:0:0:0:
264,72,18707,2,0,L|256:224,1,135
304,272,18988,1,0,0:0:0:0:
144,344,19128,2,0,P|132:284|148:236,1,90
368,144,19408,1,0,0:0:0:0:
305,303,19548,6,0,L|209:295,1,90
404,216,19829,2,0,L|500:208,1,90
248,72,20109,1,0,0:0:0:0:
312,216,20249,1,0,0:0:0:0:
412,112,20389,6,0,P|420:64|412:20,1,90
200,156,20670,1,0,0:0:0:0:
336,72,20810,1,0,0:0:0:0:
396,252,20950,1,0,0:0:0:0:
204,60,21090,1,0,0:0:0:0:
204,60,21160,1,0,0:0:0:0:
204,60,21231,1,0,0:0:0:0:
344,156,21371,1,0,0:0:0:0:
200,232,21511,6,0,P|152:240|92:220,1,90
204,60,21791,1,0,0:0:0:0:
292,264,21931,1,0,0:0:0:0:
292,264,22002,1,0,0:0:0:0:
292,264,22072,2,0,P|348:248|464:320,1,180
352,360,22492,1,0,0:0:0:0:
440,188,22632,6,0,L|448:40,1,135
352,28,22913,2,0,L|360:124,1,90
208,188,23193,1,0,0:0:0:0:
228,60,23333,1,0,0:0:0:0:
280,268,23474,1,0,0:0:0:0:
112,88,23614,2,0,P|72:76|96:156,1,180
320,192,24034,2,0,B|272:176|232:200|232:200|184:232|124:192,1,180
404,148,24595,2,0,L|400:252,1,90
184,128,24875,5,0,0:0:0:0:
316,44,25156,1,0,0:0:0:0:
316,44,25296,1,0,0:0:0:0:
316,44,25436,1,0,0:0:0:0:
316,44,25576,1,0,0:0:0:0:
340,240,25857,5,0,0:0:0:0:
340,240,25997,1,0,0:0:0:0:
256,192,26067,12,0,27048,0:0:0:0:
480,248,27118,6,0,B|412:224|356:260|356:260|280:300|200:232,1,270.000010299683
84,92,27539,1,0,0:0:0:0:
136,324,27679,1,0,0:0:0:0:
296,168,27819,1,0,0:0:0:0:
32,212,27960,2,0,P|112:196|160:240,1,135.000005149842
280,76,28240,5,0,0:0:0:0:
336,280,28380,1,0,0:0:0:0:
196,160,28520,2,0,P|264:192|380:148,1,202.500007724762
468,64,28801,2,0,L|464:204,1,135.000005149842
172,72,29081,1,0,0:0:0:0:
380,152,29221,1,0,0:0:0:0:
84,140,29361,6,0,P|60:76|84:0,1,135.000005149842
368,40,29642,1,0,0:0:0:0:
172,72,29782,1,0,0:0:0:0:
380,152,29922,2,0,P|392:224|368:280,1,135.000005149842
156,336,30203,5,0,0:0:0:0:
156,336,30343,1,0,0:0:0:0:
304,216,30483,1,0,0:0:0:0:
36,152,30623,1,0,0:0:0:0:
316,328,30763,1,0,0:0:0:0:
244,56,30903,1,0,0:0:0:0:
56,276,31044,5,0,0:0:0:0:
408,164,31184,1,0,0:0:0:0:
136,56,31324,1,0,0:0:0:0:
248,328,31464,1,0,0:0:0:0:
8,180,31604,6,0,B|70:146|130:201|130:201|175:176|175:176|214:208|288:192,1,270.000010299683
448,148,32025,1,0,0:0:0:0:
232,88,32165,1,0,0:0:0:0:
356,280,32305,1,0,0:0:0:0:
356,40,32445,2,0,L|348:184,1,135.000005149842
180,304,32726,1,0,0:0:0:0:
440,160,32866,1,0,0:0:0:0:
424,292,33006,6,0,P|352:316|236:244,1,202.500007724762
180,304,33287,2,0,L|40:300,1,135.000005149842
184,168,33567,1,0,0:0:0:0:
244,368,33707,1,0,0:0:0:0:
440,160,33847,6,0,L|444:16,1,135.000005149842
284,56,34128,1,0,0:0:0:0:
404,256,34268,1,0,0:0:0:0:
184,168,34408,1,0,0:0:0:0:
440,160,34548,1,0,0:0:0:0:
252,280,34688,1,0,0:0:0:0:
360,52,34829,6,0,P|368:120|352:200,1,135.000005149842
192,344,35109,1,0,0:0:0:0:
72,251,35249,2,0,P|164:227|264:300,1,202.500007724762
356,328,35530,2,0,L|496:324,1,135.000005149842
272,148,35810,2,0,P|196:152|128:128,1,135.000005149842
372,52,36090,6,0,P|408:124|324:260,1,202.500007724762
288,280,36371,1,0,0:0:0:0:
488,192,36511,1,0,0:0:0:0:
220,48,36651,1,0,0:0:0:0:
376,312,36791,1,0,0:0:0:0:
116,224,36931,1,0,0:0:0:0:
316,144,37072,2,0,P|240:132|176:152,1,135.000005149842
92,332,37352,5,0,0:0:0:0:
460,280,37492,1,0,0:0:0:0:
116,224,37632,1,0,0:0:0:0:
408,176,37773,2,0,P|448:116|333:136,1,270.000010299683
472,352,38193,1,0,0:0:0:0:
128,300,38333,6,0,B|200:272|256:308|256:308|324:348|404:308,1,270.000010299683
472,92,38754,1,0,0:0:0:0:
152,164,38894,1,0,0:0:0:0:
464,256,39034,1,0,0:0:0:0:
232,24,39174,1,0,0:0:0:0:
372,192,39315,2,0,L|364:332,1,135.000005149842
148,276,39595,5,0,0:0:0:0:
332,92,39735,1,0,0:0:0:0:
72,136,39875,1,0,0:0:0:0:
296,296,40016,1,0,0:0:0:0:
208,36,40156,1,0,0:0:0:0:
8,240,40296,2,0,P|96:252|160:216,1,135.000005149842
360,56,40576,6,0,L|352:204,1,135.000005149842
60,152,40857,1,0,0:0:0:0:
416,288,40997,1,0,0:0:0:0:
143,369,41137,2,0,L|135:221,1,135.000005149842
280,40,41417,1,0,0:0:0:0:
244,288,41558,1,0,0:0:0:0:
436,184,41698,1,0,0:0:0:0:
136,84,41838,1,0,0:0:0:0:
392,256,41978,6,0,P|316:240|248:256,1,135.000005149842
52,136,42259,2,0,P|144:176|236:112,1,202.500007724762
280,56,42539,1,0,0:0:0:0:
336,352,42679,1,0,0:0:0:0:
492,176,42819,6,0,L|340:164,1,135.000005149842
136,84,43100,1,0,0:0:0:0:
320,264,43240,1,0,0:0:0:0:
136,344,43380,2,0,P|124:276|136:200,1,135.000005149842
320,100,43660,1,0,0:0:0:0:
454,267,43801,2,0,L|310:263,1,135.000005149842
48,308,44081,5,0,0:0:0:0:
224,140,44221,2,0,P|240:216|216:280,1,135.000005149842
412,148,44502,2,0,P|400:76|416:12,1,135.000005149842
148,208,44782,2,0,L|8:200,1,135.000005149842
288,40,45062,5,0,0:0:0:0:
152,344,45203,1,0,0:0:0:0:
464,192,45343,1,0,0:0:0:0:
84,120,45483,1,0,0:0:0:0:
400,352,45623,1,0,0:0:0:0:
264,32,45763,5,0,0:0:0:0:
72,324,45903,1,0,0:0:0:0:
496,216,46044,1,0,0:0:0:0:
48,104,46184,1,0,0:0:0:0:
400,376,46324,1,0,0:0:0:0:
248,24,46464,5,0,0:0:0:0:
48,336,46604,1,0,0:0:0:0:
504,192,46745,1,0,0:0:0:0:
20,80,46885,1,0,0:0:0:0:
432,372,47025,1,0,0:0:0:0:
224,8,47165,1,0,0:0:0:0:
256,192,47305,5,0,0:0:0:0:
256,192,47375,12,0,48146,0:0:0:0:
256,192,48287,12,0,49688,0:0:0:0:
