osu file format v14

[General]
AudioFilename: audio.mp3
AudioLeadIn: 0
PreviewTime: 18330
Countdown: 0
SampleSet: Normal
StackLeniency: 0.7
Mode: 1
LetterboxInBreaks: 0
WidescreenStoryboard: 1

[Editor]
DistanceSpacing: 0.6
BeatDivisor: 4
GridSize: 32
TimelineZoom: 1.7

[Metadata]
Title:Temotemote~
TitleUnicode:てもてもて~♪
Artist:Kyatatsu
ArtistUnicode:脚立
Creator:icouldentthink
Version:Oni
Source:
Tags:lucky star konata 泉こなた izumi らき☆すた cartoons witch doctor ニコニコ動画 nico douga 音mad oto-mad otomad 音MAD 鬼畜 ytpmv anime novelty japanese english tag2 coop co-op compatible
BeatmapID:4202095
BeatmapSetID:2017857

[Difficulty]
HPDrainRate:6
CircleSize:2
OverallDifficulty:6
ApproachRate:10
SliderMultiplier:1.4
SliderTickRate:1

[Events]
//Background and Video events
0,0,"bg.jpg",0,70
//Break Periods
//Storyboard Layer 0 (Background)
//Storyboard Layer 1 (Fail)
//Storyboard Layer 2 (Pass)
//Storyboard Layer 3 (Foreground)
//Storyboard Layer 4 (Overlay)
//Storyboard Sound Samples

[TimingPoints]
4302,352.941176470588,4,1,0,60,1,8
5713,352.941176470588,4,1,0,60,1,0
5713,-111.111111111111,4,1,0,60,0,0
9943,-109.752728277386,4,1,0,60,0,0
10119,-108.434557117511,4,1,0,60,0,0
10207,-107.787274453941,4,1,0,60,0,0
10384,-106.508479120584,4,1,0,60,0,0
10560,-105.266644584299,4,1,0,60,0,0
10649,-104.649631190727,4,1,0,60,0,0
10825,-103.450520833333,4,1,0,60,0,0
11355,-100,4,1,0,60,0,0
17355,-117.647058823529,4,1,0,70,0,0
18418,-90.9090909090909,4,1,0,80,0,1
29712,-90.9090909090909,4,1,0,80,0,0
29752,-100,4,1,0,80,0,0
30590,-100,4,1,0,80,0,0
30766,-100,4,1,0,80,0,0
30943,-100,4,1,0,80,0,0
31124,-100,4,1,0,70,0,0
31158,-111.111111111111,4,1,0,70,0,0
33943,-95.2380952380952,4,1,0,70,0,0
33987,-111.111111111111,4,1,0,70,0,0
36766,-95.2380952380952,4,1,0,70,0,0
36810,-111.111111111111,4,1,0,70,0,0
39595,-90.9090909090909,4,1,0,80,0,1
49477,-90.9090909090909,4,1,0,80,0,0
49516,-111.111111111111,4,1,0,80,0,0
50889,-100,4,1,0,70,0,0
50928,-133.333333333333,4,1,0,70,0,0
59707,-129.638377158453,4,1,0,70,0,0
60060,-126.133026937316,4,1,0,70,0,0
60237,-124.445787988714,4,1,0,70,0,0
60413,-122.812251392204,4,1,0,70,0,0
60590,-121.212121212121,4,1,0,70,0,0
60766,-119.661846280551,4,1,0,70,0,0
60855,-118.892900120337,4,1,0,70,0,0
60943,-118.142249007509,4,1,0,70,0,0
61119,-116.669028387889,4,1,0,70,0,0
61296,-115.22403377417,4,1,0,70,0,0
61384,-114.518858520528,4,1,0,70,0,0
61472,-113.822262159858,4,1,0,70,0,0
61649,-112.446508240007,4,1,0,70,0,0
61737,-111.774821250792,4,1,0,70,0,0
61825,-111.111111111111,4,1,0,70,0,0
62183,-90.9090909090909,4,1,0,80,0,1
72771,-80,4,1,0,80,0,0

[HitObjects]
256,192,5713,5,0,0:0:0:0:
256,192,6065,5,2,0:0:0:0:
256,192,6418,1,0,0:0:0:0:
256,192,6595,1,2,0:0:0:0:
256,192,6771,1,2,0:0:0:0:
256,192,7124,5,2,0:0:0:0:
256,192,7477,1,2,0:0:0:0:
256,192,7830,1,2,0:0:0:0:
256,192,7918,1,2,0:0:0:0:
256,192,8007,1,0,0:0:0:0:
256,192,8183,1,2,0:0:0:0:
256,192,8360,1,2,0:0:0:0:
256,192,8536,5,0,0:0:0:0:
256,192,8889,1,2,0:0:0:0:
256,192,9242,1,0,0:0:0:0:
256,192,9418,1,2,0:0:0:0:
256,192,9595,1,2,0:0:0:0:
256,192,9771,1,0,0:0:0:0:
256,192,9948,5,2,0:0:0:0:
256,192,10124,1,0,0:0:0:0:
256,192,10212,1,0,0:0:0:0:
256,192,10389,1,2,0:0:0:0:
256,192,10565,1,2,0:0:0:0:
256,192,10654,1,2,0:0:0:0:
256,192,10830,12,0,11183,0:0:0:0:
256,192,11360,5,0,0:0:0:0:
256,192,11536,1,0,0:0:0:0:
256,192,11712,1,2,0:0:0:0:
256,192,12065,1,0,0:0:0:0:
256,192,12242,1,2,0:0:0:0:
256,192,12418,1,2,0:0:0:0:
256,192,12595,1,0,0:0:0:0:
256,192,12771,5,2,0:0:0:0:
256,192,13124,1,2,0:0:0:0:
256,192,13477,1,2,0:0:0:0:
256,192,13565,1,2,0:0:0:0:
256,192,13654,1,0,0:0:0:0:
256,192,13830,1,2,0:0:0:0:
256,192,14007,1,2,0:0:0:0:
256,192,14183,5,0,0:0:0:0:
256,192,14360,1,0,0:0:0:0:
256,192,14536,1,2,0:0:0:0:
256,192,14889,1,0,0:0:0:0:
256,192,15065,1,2,0:0:0:0:
256,192,15242,1,2,0:0:0:0:
256,192,15418,1,0,0:0:0:0:
256,192,15595,5,2,0:0:0:0:
256,192,15771,1,0,0:0:0:0:
256,192,15860,1,0,0:0:0:0:
256,192,15948,1,2,0:0:0:0:
256,192,16124,1,0,0:0:0:0:
256,192,16301,1,2,0:0:0:0:
256,192,16654,1,0,0:0:0:0:
256,192,17007,5,2,0:0:0:0:
256,192,17360,1,2,0:0:0:0:
256,192,17448,1,0,0:0:0:0:
256,192,17624,1,0,0:0:0:0:
256,192,17712,1,0,0:0:0:0:
256,192,17889,1,0,0:0:0:0:
256,192,18065,1,2,0:0:0:0:
256,192,18418,5,6,0:0:0:0:
256,192,18595,1,0,0:0:0:0:
256,192,18771,1,2,0:0:0:0:
256,192,18948,1,2,0:0:0:0:
256,192,19124,1,0,0:0:0:0:
256,192,19301,1,2,0:0:0:0:
256,192,19389,1,0,0:0:0:0:
256,192,19477,1,2,0:0:0:0:
256,192,19830,5,2,0:0:0:0:
256,192,20007,1,2,0:0:0:0:
256,192,20183,1,0,0:0:0:0:
256,192,20360,1,0,0:0:0:0:
256,192,20536,1,2,0:0:0:0:
256,192,20624,1,0,0:0:0:0:
256,192,20712,1,2,0:0:0:0:
256,192,20801,1,0,0:0:0:0:
256,192,20889,1,2,0:0:0:0:
256,192,21065,1,2,0:0:0:0:
256,192,21242,5,0,0:0:0:0:
256,192,21418,1,0,0:0:0:0:
256,192,21595,1,2,0:0:0:0:
256,192,21771,1,2,0:0:0:0:
256,192,21948,1,0,0:0:0:0:
256,192,22124,1,2,0:0:0:0:
256,192,22212,1,2,0:0:0:0:
256,192,22301,1,0,0:0:0:0:
256,192,22654,5,2,0:0:0:0:
256,192,22830,1,0,0:0:0:0:
256,192,22918,1,0,0:0:0:0:
256,192,23007,1,2,0:0:0:0:
256,192,23183,1,2,0:0:0:0:
256,192,23271,1,2,0:0:0:0:
256,192,23360,1,0,0:0:0:0:
256,192,23536,1,2,0:0:0:0:
256,192,23712,1,2,0:0:0:0:
256,192,24065,5,4,0:0:0:0:
256,192,24242,1,0,0:0:0:0:
256,192,24418,1,2,0:0:0:0:
256,192,24595,1,2,0:0:0:0:
256,192,24771,1,0,0:0:0:0:
256,192,24948,1,2,0:0:0:0:
256,192,25036,1,0,0:0:0:0:
256,192,25124,1,2,0:0:0:0:
256,192,25477,5,2,0:0:0:0:
256,192,25654,1,0,0:0:0:0:
256,192,25830,1,2,0:0:0:0:
256,192,26007,1,0,0:0:0:0:
256,192,26183,1,2,0:0:0:0:
256,192,26271,1,2,0:0:0:0:
256,192,26360,1,0,0:0:0:0:
256,192,26448,1,0,0:0:0:0:
256,192,26536,1,2,0:0:0:0:
256,192,26712,1,2,0:0:0:0:
256,192,26889,5,0,0:0:0:0:
256,192,27065,1,0,0:0:0:0:
256,192,27242,1,2,0:0:0:0:
256,192,27418,1,2,0:0:0:0:
256,192,27595,1,0,0:0:0:0:
256,192,27771,1,2,0:0:0:0:
256,192,27860,1,2,0:0:0:0:
256,192,27948,1,0,0:0:0:0:
256,192,28301,5,2,0:0:0:0:
256,192,28389,1,0,0:0:0:0:
256,192,28477,1,2,0:0:0:0:
256,192,28565,1,0,0:0:0:0:
256,192,28654,1,2,0:0:0:0:
256,192,28830,1,0,0:0:0:0:
256,192,29007,1,2,0:0:0:0:
256,192,29183,1,2,0:0:0:0:
256,192,29271,1,2,0:0:0:0:
256,192,29360,1,0,0:0:0:0:
256,192,29712,1,6,0:0:0:0:
256,192,30065,5,0,0:0:0:0:
256,192,30418,1,0,0:0:0:0:
256,192,30595,1,2,0:0:0:0:
256,192,30771,1,0,0:0:0:0:
256,192,30948,1,0,0:0:0:0:
256,192,31124,1,6,0:0:0:0:
256,192,31477,5,0,0:0:0:0:
256,192,31830,1,0,0:0:0:0:
256,192,31918,1,2,0:0:0:0:
256,192,32007,1,0,0:0:0:0:
256,192,32183,1,2,0:0:0:0:
256,192,32360,1,0,0:0:0:0:
256,192,32448,1,0,0:0:0:0:
256,192,32536,1,2,0:0:0:0:
256,192,32889,5,2,0:0:0:0:
256,192,33065,1,0,0:0:0:0:
256,192,33242,1,2,0:0:0:0:
256,192,33330,1,0,0:0:0:0:
256,192,33418,1,2,0:0:0:0:
256,192,33595,1,0,0:0:0:0:
256,192,33771,1,0,0:0:0:0:
256,192,33948,5,6,0:0:0:0:
256,192,34301,1,0,0:0:0:0:
256,192,34654,1,0,0:0:0:0:
256,192,34830,1,0,0:0:0:0:
256,192,35007,1,0,0:0:0:0:
256,192,35095,1,2,0:0:0:0:
256,192,35183,1,0,0:0:0:0:
256,192,35360,5,2,0:0:0:0:
256,192,35712,1,2,0:0:0:0:
256,192,35801,1,0,0:0:0:0:
256,192,35889,1,2,0:0:0:0:
256,192,36065,1,2,0:0:0:0:
256,192,36242,1,0,0:0:0:0:
256,192,36418,1,2,0:0:0:0:
256,192,36595,1,0,0:0:0:0:
256,192,36771,5,6,0:0:0:0:
256,192,37124,1,0,0:0:0:0:
256,192,37477,1,2,0:0:0:0:
256,192,37830,1,2,0:0:0:0:
256,192,38007,1,0,0:0:0:0:
256,192,38183,5,2,0:0:0:0:
256,192,38536,1,2,0:0:0:0:
256,192,38712,1,0,0:0:0:0:
256,192,38889,5,6,0:0:0:0:
256,192,39065,1,0,0:0:0:0:
256,192,39242,1,2,0:0:0:0:
256,192,39595,5,4,0:0:0:0:
256,192,39771,1,0,0:0:0:0:
256,192,39948,1,2,0:0:0:0:
256,192,40124,1,2,0:0:0:0:
256,192,40301,1,0,0:0:0:0:
256,192,40477,1,2,0:0:0:0:
256,192,40565,1,0,0:0:0:0:
256,192,40654,1,2,0:0:0:0:
256,192,41007,5,2,0:0:0:0:
256,192,41183,1,0,0:0:0:0:
256,192,41360,1,2,0:0:0:0:
256,192,41536,1,2,0:0:0:0:
256,192,41712,1,0,0:0:0:0:
256,192,41801,1,2,0:0:0:0:
256,192,41889,1,0,0:0:0:0:
256,192,41977,1,2,0:0:0:0:
256,192,42065,1,0,0:0:0:0:
256,192,42242,1,2,0:0:0:0:
256,192,42418,5,0,0:0:0:0:
256,192,42595,1,0,0:0:0:0:
256,192,42771,1,2,0:0:0:0:
256,192,42948,1,2,0:0:0:0:
256,192,43124,1,0,0:0:0:0:
256,192,43301,1,2,0:0:0:0:
256,192,43389,1,0,0:0:0:0:
256,192,43477,1,2,0:0:0:0:
256,192,43830,5,2,0:0:0:0:
256,192,44007,1,0,0:0:0:0:
256,192,44095,1,0,0:0:0:0:
256,192,44183,1,2,0:0:0:0:
256,192,44271,1,2,0:0:0:0:
256,192,44448,1,0,0:0:0:0:
256,192,44536,1,0,0:0:0:0:
256,192,44712,1,0,0:0:0:0:
256,192,44801,1,2,0:0:0:0:
256,192,44889,1,0,0:0:0:0:
256,192,45242,5,6,0:0:0:0:
256,192,45418,1,2,0:0:0:0:
256,192,45595,1,0,0:0:0:0:
256,192,45771,1,0,0:0:0:0:
256,192,45948,1,0,0:0:0:0:
256,192,46124,1,2,0:0:0:0:
256,192,46212,1,2,0:0:0:0:
256,192,46301,1,0,0:0:0:0:
256,192,46654,5,2,0:0:0:0:
256,192,46830,1,0,0:0:0:0:
256,192,47007,1,2,0:0:0:0:
256,192,47183,1,0,0:0:0:0:
256,192,47360,1,0,0:0:0:0:
256,192,47448,1,2,0:0:0:0:
256,192,47536,1,0,0:0:0:0:
256,192,47624,1,2,0:0:0:0:
256,192,47712,1,0,0:0:0:0:
256,192,47889,1,2,0:0:0:0:
256,192,48065,5,0,0:0:0:0:
256,192,48242,1,0,0:0:0:0:
256,192,48418,1,2,0:0:0:0:
256,192,48595,1,2,0:0:0:0:
256,192,48771,1,0,0:0:0:0:
256,192,48948,1,2,0:0:0:0:
256,192,49036,1,2,0:0:0:0:
256,192,49124,1,0,0:0:0:0:
256,192,49477,1,6,0:0:0:0:
256,192,49830,5,2,0:0:0:0:
256,192,49918,1,0,0:0:0:0:
256,192,50095,1,0,0:0:0:0:
256,192,50183,1,0,0:0:0:0:
256,192,50360,1,0,0:0:0:0:
256,192,50536,1,2,0:0:0:0:
256,192,50889,5,4,0:0:0:0:
256,192,51242,1,2,0:0:0:0:
256,192,51595,1,0,0:0:0:0:
256,192,51771,1,2,0:0:0:0:
256,192,51948,1,2,0:0:0:0:
256,192,52301,5,2,0:0:0:0:
256,192,52477,1,0,0:0:0:0:
256,192,52654,1,0,0:0:0:0:
256,192,52742,1,0,0:0:0:0:
256,192,52918,1,0,0:0:0:0:
256,192,53007,1,0,0:0:0:0:
256,192,53183,1,0,0:0:0:0:
256,192,53360,1,2,0:0:0:0:
256,192,53712,5,2,0:0:0:0:
256,192,54065,1,0,0:0:0:0:
256,192,54418,1,0,0:0:0:0:
256,192,54595,1,2,0:0:0:0:
256,192,54771,1,2,0:0:0:0:
256,192,55124,5,2,0:0:0:0:
256,192,55212,1,0,0:0:0:0:
256,192,55389,1,0,0:0:0:0:
256,192,55477,1,0,0:0:0:0:
256,192,55654,1,0,0:0:0:0:
256,192,55830,1,2,0:0:0:0:
256,192,56007,1,2,0:0:0:0:
256,192,56095,1,2,0:0:0:0:
256,192,56271,1,0,0:0:0:0:
256,192,56360,1,0,0:0:0:0:
256,192,56536,5,2,0:0:0:0:
256,192,56889,1,0,0:0:0:0:
256,192,57242,1,0,0:0:0:0:
256,192,57418,1,2,0:0:0:0:
256,192,57595,1,2,0:0:0:0:
256,192,57948,5,2,0:0:0:0:
256,192,58124,1,0,0:0:0:0:
256,192,58301,1,2,0:0:0:0:
256,192,58477,1,0,0:0:0:0:
256,192,58565,1,0,0:0:0:0:
256,192,58654,1,0,0:0:0:0:
256,192,58742,1,0,0:0:0:0:
256,192,58830,1,0,0:0:0:0:
256,192,59007,1,2,0:0:0:0:
256,192,59360,5,0,0:0:0:0:
256,192,59712,1,2,0:0:0:0:
256,192,60065,1,0,0:0:0:0:
256,192,60242,1,2,0:0:0:0:
256,192,60418,1,2,0:0:0:0:
256,192,60595,1,0,0:0:0:0:
256,192,60771,5,2,0:0:0:0:
256,192,60860,1,2,0:0:0:0:
256,192,60948,1,0,0:0:0:0:
256,192,61124,1,2,0:0:0:0:
256,192,61301,1,0,0:0:0:0:
256,192,61389,1,0,0:0:0:0:
256,192,61477,1,2,0:0:0:0:
256,192,61654,5,0,0:0:0:0:
256,192,61742,1,2,0:0:0:0:
256,192,61830,1,0,0:0:0:0:
256,192,62183,5,4,0:0:0:0:
256,192,62360,1,0,0:0:0:0:
256,192,62536,1,2,0:0:0:0:
256,192,62712,1,2,0:0:0:0:
256,192,62889,1,0,0:0:0:0:
256,192,63065,1,2,0:0:0:0:
256,192,63154,1,0,0:0:0:0:
256,192,63242,1,2,0:0:0:0:
256,192,63595,5,2,0:0:0:0:
256,192,63771,1,0,0:0:0:0:
256,192,63948,1,2,0:0:0:0:
256,192,64124,1,0,0:0:0:0:
256,192,64301,1,2,0:0:0:0:
256,192,64389,1,0,0:0:0:0:
256,192,64477,1,2,0:0:0:0:
256,192,64565,1,0,0:0:0:0:
256,192,64654,1,2,0:0:0:0:
256,192,64830,1,2,0:0:0:0:
256,192,65007,5,0,0:0:0:0:
256,192,65183,1,0,0:0:0:0:
256,192,65360,1,2,0:0:0:0:
256,192,65536,1,2,0:0:0:0:
256,192,65712,1,0,0:0:0:0:
256,192,65889,1,2,0:0:0:0:
256,192,65977,1,2,0:0:0:0:
256,192,66065,1,0,0:0:0:0:
256,192,66418,5,2,0:0:0:0:
256,192,66595,1,0,0:0:0:0:
256,192,66683,1,2,0:0:0:0:
256,192,66771,1,0,0:0:0:0:
256,192,66859,1,2,0:0:0:0:
256,192,67036,1,2,0:0:0:0:
256,192,67124,1,0,0:0:0:0:
256,192,67301,1,2,0:0:0:0:
256,192,67389,1,2,0:0:0:0:
256,192,67477,1,0,0:0:0:0:
256,192,67830,5,6,0:0:0:0:
256,192,68007,1,2,0:0:0:0:
256,192,68183,1,0,0:0:0:0:
256,192,68360,1,2,0:0:0:0:
256,192,68536,1,0,0:0:0:0:
256,192,68712,1,0,0:0:0:0:
256,192,68801,1,0,0:0:0:0:
256,192,68889,1,2,0:0:0:0:
256,192,69242,5,2,0:0:0:0:
256,192,69418,1,0,0:0:0:0:
256,192,69595,1,2,0:0:0:0:
256,192,69771,1,0,0:0:0:0:
256,192,69948,1,2,0:0:0:0:
256,192,70036,1,2,0:0:0:0:
256,192,70124,1,0,0:0:0:0:
256,192,70212,1,0,0:0:0:0:
256,192,70301,1,2,0:0:0:0:
256,192,70477,1,0,0:0:0:0:
256,192,70654,5,2,0:0:0:0:
256,192,70830,1,2,0:0:0:0:
256,192,71007,1,0,0:0:0:0:
256,192,71183,1,2,0:0:0:0:
256,192,71360,1,0,0:0:0:0:
256,192,71536,1,2,0:0:0:0:
256,192,71624,1,0,0:0:0:0:
256,192,71712,1,2,0:0:0:0:
256,192,72065,5,2,0:0:0:0:
256,192,72242,1,2,0:0:0:0:
256,192,72330,1,2,0:0:0:0:
256,192,72418,1,2,0:0:0:0:
256,192,72595,1,0,0:0:0:0:
256,192,72771,1,6,0:0:0:0:
