osu file format v14

[General]
AudioFilename: audio.mp3
AudioLeadIn: 0
PreviewTime: 18330
Countdown: 0
SampleSet: Normal
StackLeniency: 0.7
Mode: 1
LetterboxInBreaks: 0
WidescreenStoryboard: 1

[Editor]
DistanceSpacing: 0.6
BeatDivisor: 4
GridSize: 32
TimelineZoom: 1.7

[Metadata]
Title:Temotemote~
TitleUnicode:てもてもて~♪
Artist:Kyatatsu
ArtistUnicode:脚立
Creator:icouldentthink
Version:Muzukashii
Source:
Tags:lucky star konata 泉こなた izumi らき☆すた cartoons witch doctor ニコニコ動画 nico douga 音mad oto-mad otomad 音MAD 鬼畜 ytpmv anime novelty japanese english tag2 coop co-op compatible
BeatmapID:4202045
BeatmapSetID:2017857

[Difficulty]
HPDrainRate:7
CircleSize:2
OverallDifficulty:5
ApproachRate:10
SliderMultiplier:1.4
SliderTickRate:1

[Events]
//Background and Video events
0,0,"bg.jpg",0,70
//Break Periods
//Storyboard Layer 0 (Background)
//Storyboard Layer 1 (Fail)
//Storyboard Layer 2 (Pass)
//Storyboard Layer 3 (Foreground)
//Storyboard Layer 4 (Overlay)
//Storyboard Sound Samples

[TimingPoints]
4302,352.941176470588,4,1,0,60,1,8
5713,352.941176470588,4,1,0,60,1,0
5713,-142.857142857143,4,1,0,60,0,0
11360,-117.647058823529,4,1,0,70,0,0
18418,-100,4,1,0,80,0,1
29712,-100,4,1,0,80,0,0
31124,-100,4,1,0,70,0,0
31163,-117.647058823529,4,1,0,70,0,0
39595,-100,4,1,0,80,0,1
49477,-100,4,1,0,80,0,0
50536,-108.108108108108,4,1,0,70,0,0
50889,-117.647058823529,4,1,0,70,0,0
62183,-100,4,1,0,80,0,1
72771,-100,4,1,0,80,0,0

[HitObjects]
256,192,5713,5,0,0:0:0:0:
256,192,6065,1,2,0:0:0:0:
256,192,6418,1,0,0:0:0:0:
256,192,6595,1,2,0:0:0:0:
256,192,6771,1,0,0:0:0:0:
256,192,7124,5,2,0:0:0:0:
256,192,7477,1,0,0:0:0:0:
256,192,7830,1,2,0:0:0:0:
256,192,8007,1,2,0:0:0:0:
256,192,8183,1,0,0:0:0:0:
256,192,8536,5,0,0:0:0:0:
256,192,8889,1,2,0:0:0:0:
256,192,9242,1,0,0:0:0:0:
256,192,9418,1,2,0:0:0:0:
256,192,9595,1,2,0:0:0:0:
256,192,9948,5,2,0:0:0:0:
256,192,10301,1,0,0:0:0:0:
256,192,10477,1,2,0:0:0:0:
256,192,10654,1,0,0:0:0:0:
256,192,11360,5,2,0:0:0:0:
256,192,11712,1,0,0:0:0:0:
256,192,12065,1,0,0:0:0:0:
256,192,12242,1,2,0:0:0:0:
256,192,12418,1,2,0:0:0:0:
256,192,12771,5,2,0:0:0:0:
256,192,13124,1,2,0:0:0:0:
256,192,13477,1,2,0:0:0:0:
256,192,13654,1,2,0:0:0:0:
256,192,13830,1,0,0:0:0:0:
256,192,14007,1,0,0:0:0:0:
256,192,14183,5,2,0:0:0:0:
256,192,14536,1,0,0:0:0:0:
256,192,14889,1,0,0:0:0:0:
256,192,15065,1,2,0:0:0:0:
256,192,15242,1,2,0:0:0:0:
256,192,15595,5,2,0:0:0:0:
256,192,15948,1,2,0:0:0:0:
256,192,16124,1,0,0:0:0:0:
256,192,16301,1,2,0:0:0:0:
256,192,16654,1,0,0:0:0:0:
256,192,17007,5,2,0:0:0:0:
256,192,18065,1,0,0:0:0:0:
256,192,18418,5,6,0:0:0:0:
256,192,18771,1,0,0:0:0:0:
256,192,19124,1,0,0:0:0:0:
256,192,19301,1,2,0:0:0:0:
256,192,19477,1,2,0:0:0:0:
256,192,19654,1,0,0:0:0:0:
256,192,19830,1,2,0:0:0:0:
256,192,20183,1,0,0:0:0:0:
256,192,20536,1,2,0:0:0:0:
256,192,20624,1,2,0:0:0:0:
256,192,20712,1,2,0:0:0:0:
256,192,20889,1,0,0:0:0:0:
256,192,21065,1,2,0:0:0:0:
256,192,21242,5,0,0:0:0:0:
256,192,21595,1,2,0:0:0:0:
256,192,21948,1,0,0:0:0:0:
256,192,22124,1,2,0:0:0:0:
256,192,22301,1,2,0:0:0:0:
256,192,22477,1,0,0:0:0:0:
256,192,22654,1,2,0:0:0:0:
256,192,22830,1,2,0:0:0:0:
256,192,22918,1,2,0:0:0:0:
256,192,23007,1,2,0:0:0:0:
256,192,23183,1,0,0:0:0:0:
256,192,23360,1,2,0:0:0:0:
256,192,23712,1,2,0:0:0:0:
256,192,24065,5,4,0:0:0:0:
256,192,24418,1,2,0:0:0:0:
256,192,24771,1,0,0:0:0:0:
256,192,24948,1,2,0:0:0:0:
256,192,25124,1,2,0:0:0:0:
256,192,25301,1,0,0:0:0:0:
256,192,25477,1,2,0:0:0:0:
256,192,25830,1,0,0:0:0:0:
256,192,26183,1,2,0:0:0:0:
256,192,26271,1,2,0:0:0:0:
256,192,26360,1,2,0:0:0:0:
256,192,26536,1,0,0:0:0:0:
256,192,26712,1,2,0:0:0:0:
256,192,26889,5,0,0:0:0:0:
256,192,27242,1,2,0:0:0:0:
256,192,27595,1,0,0:0:0:0:
256,192,27771,1,0,0:0:0:0:
256,192,27948,1,2,0:0:0:0:
256,192,28124,1,0,0:0:0:0:
256,192,28301,1,2,0:0:0:0:
256,192,28477,1,2,0:0:0:0:
256,192,28565,1,2,0:0:0:0:
256,192,28654,1,2,0:0:0:0:
256,192,28830,1,0,0:0:0:0:
256,192,29007,1,2,0:0:0:0:
256,192,29360,1,0,0:0:0:0:
256,192,29712,5,6,0:0:0:0:
256,192,30065,1,0,0:0:0:0:
256,192,30418,1,0,0:0:0:0:
256,192,30595,1,2,0:0:0:0:
256,192,30771,1,0,0:0:0:0:
256,192,30948,1,0,0:0:0:0:
256,192,31124,5,6,0:0:0:0:
256,192,31477,1,0,0:0:0:0:
256,192,31830,1,2,0:0:0:0:
256,192,32007,1,2,0:0:0:0:
256,192,32183,1,0,0:0:0:0:
256,192,32536,1,2,0:0:0:0:
256,192,32889,1,2,0:0:0:0:
256,192,33065,1,0,0:0:0:0:
256,192,33242,1,2,0:0:0:0:
256,192,33595,5,0,0:0:0:0:
256,192,33771,1,0,0:0:0:0:
256,192,33948,1,6,0:0:0:0:
256,192,34301,1,2,0:0:0:0:
256,192,34654,1,0,0:0:0:0:
256,192,34830,1,0,0:0:0:0:
256,192,35007,1,2,0:0:0:0:
256,192,35183,1,0,0:0:0:0:
256,192,35360,1,2,0:0:0:0:
256,192,35712,1,2,0:0:0:0:
256,192,36065,1,0,0:0:0:0:
256,192,36418,5,2,0:0:0:0:
256,192,36595,1,2,0:0:0:0:
256,192,36771,1,4,0:0:0:0:
256,192,37124,1,0,0:0:0:0:
256,192,37477,1,0,0:0:0:0:
256,192,37830,1,2,0:0:0:0:
256,192,38183,1,2,0:0:0:0:
256,192,38360,1,2,0:0:0:0:
256,192,38536,1,0,0:0:0:0:
256,192,38712,1,0,0:0:0:0:
256,192,38889,5,6,0:0:0:0:
256,192,39242,1,2,0:0:0:0:
256,192,39595,5,4,0:0:0:0:
256,192,39948,1,2,0:0:0:0:
256,192,40301,1,0,0:0:0:0:
256,192,40477,1,2,0:0:0:0:
256,192,40654,1,2,0:0:0:0:
256,192,40830,1,0,0:0:0:0:
256,192,41007,1,2,0:0:0:0:
256,192,41360,1,2,0:0:0:0:
256,192,41712,1,0,0:0:0:0:
256,192,41801,1,0,0:0:0:0:
256,192,41889,1,0,0:0:0:0:
256,192,42065,1,2,0:0:0:0:
256,192,42242,1,0,0:0:0:0:
256,192,42418,5,0,0:0:0:0:
256,192,42771,1,2,0:0:0:0:
256,192,43124,1,0,0:0:0:0:
256,192,43301,1,2,0:0:0:0:
256,192,43477,1,0,0:0:0:0:
256,192,43654,1,0,0:0:0:0:
256,192,43830,1,2,0:0:0:0:
256,192,44183,1,2,0:0:0:0:
256,192,44271,1,2,0:0:0:0:
256,192,44448,1,0,0:0:0:0:
256,192,44536,1,0,0:0:0:0:
256,192,44889,1,0,0:0:0:0:
256,192,45242,5,6,0:0:0:0:
256,192,45595,1,0,0:0:0:0:
256,192,45948,1,0,0:0:0:0:
256,192,46124,1,2,0:0:0:0:
256,192,46301,1,2,0:0:0:0:
256,192,46477,1,0,0:0:0:0:
256,192,46654,1,2,0:0:0:0:
256,192,47007,1,0,0:0:0:0:
256,192,47360,1,0,0:0:0:0:
256,192,47448,1,0,0:0:0:0:
256,192,47536,1,0,0:0:0:0:
256,192,47712,1,2,0:0:0:0:
256,192,47889,1,0,0:0:0:0:
256,192,48065,5,0,0:0:0:0:
256,192,48418,1,2,0:0:0:0:
256,192,48771,1,0,0:0:0:0:
256,192,48948,1,2,0:0:0:0:
256,192,49124,1,2,0:0:0:0:
256,192,49301,1,0,0:0:0:0:
256,192,49477,1,6,0:0:0:0:
256,192,50536,1,2,0:0:0:0:
256,192,50889,5,4,0:0:0:0:
256,192,51595,1,0,0:0:0:0:
256,192,51771,1,0,0:0:0:0:
256,192,51948,1,2,0:0:0:0:
256,192,52301,1,2,0:0:0:0:
256,192,52477,1,2,0:0:0:0:
256,192,52654,1,0,0:0:0:0:
256,192,52742,1,0,0:0:0:0:
256,192,52918,1,0,0:0:0:0:
256,192,53007,1,0,0:0:0:0:
256,192,53183,1,0,0:0:0:0:
256,192,53360,1,2,0:0:0:0:
256,192,53712,5,0,0:0:0:0:
256,192,54418,1,0,0:0:0:0:
256,192,54595,1,2,0:0:0:0:
256,192,54771,1,2,0:0:0:0:
256,192,55124,1,2,0:0:0:0:
256,192,55212,1,2,0:0:0:0:
256,192,55389,1,0,0:0:0:0:
256,192,55477,1,0,0:0:0:0:
256,192,55654,1,0,0:0:0:0:
256,192,55830,1,2,0:0:0:0:
256,192,56536,5,0,0:0:0:0:
256,192,57242,1,0,0:0:0:0:
256,192,57418,1,2,0:0:0:0:
256,192,57595,1,2,0:0:0:0:
256,192,57948,1,2,0:0:0:0:
256,192,58124,1,0,0:0:0:0:
256,192,58301,1,2,0:0:0:0:
256,192,58477,1,0,0:0:0:0:
256,192,58565,1,0,0:0:0:0:
256,192,58654,1,0,0:0:0:0:
256,192,58830,1,0,0:0:0:0:
256,192,59007,1,2,0:0:0:0:
256,192,59360,5,0,0:0:0:0:
256,192,59712,12,0,61477,0:0:0:0:
256,192,62183,5,6,0:0:0:0:
256,192,62536,1,0,0:0:0:0:
256,192,62889,1,0,0:0:0:0:
256,192,63065,1,2,0:0:0:0:
256,192,63242,1,2,0:0:0:0:
256,192,63418,1,0,0:0:0:0:
256,192,63595,1,2,0:0:0:0:
256,192,63948,1,2,0:0:0:0:
256,192,64301,1,0,0:0:0:0:
256,192,64389,1,0,0:0:0:0:
256,192,64477,1,0,0:0:0:0:
256,192,64654,1,2,0:0:0:0:
256,192,64830,1,0,0:0:0:0:
256,192,65007,5,0,0:0:0:0:
256,192,65360,1,2,0:0:0:0:
256,192,65712,1,0,0:0:0:0:
256,192,65889,1,2,0:0:0:0:
256,192,66065,1,2,0:0:0:0:
256,192,66242,1,0,0:0:0:0:
256,192,66418,1,2,0:0:0:0:
256,192,66772,1,0,0:0:0:0:
256,192,66860,1,0,0:0:0:0:
256,192,67036,1,2,0:0:0:0:
256,192,67124,1,2,0:0:0:0:
256,192,67477,1,0,0:0:0:0:
256,192,67830,5,6,0:0:0:0:
256,192,68183,1,0,0:0:0:0:
256,192,68536,1,0,0:0:0:0:
256,192,68712,1,2,0:0:0:0:
256,192,68889,1,2,0:0:0:0:
256,192,69065,1,0,0:0:0:0:
256,192,69242,1,2,0:0:0:0:
256,192,69595,1,0,0:0:0:0:
256,192,69948,1,2,0:0:0:0:
256,192,70036,1,2,0:0:0:0:
256,192,70124,1,2,0:0:0:0:
256,192,70301,1,2,0:0:0:0:
256,192,70477,1,0,0:0:0:0:
256,192,70654,5,0,0:0:0:0:
256,192,71007,1,2,0:0:0:0:
256,192,71360,1,0,0:0:0:0:
256,192,71536,1,2,0:0:0:0:
256,192,71712,1,2,0:0:0:0:
256,192,71889,1,0,0:0:0:0:
256,192,72065,1,2,0:0:0:0:
256,192,72242,1,0,0:0:0:0:
256,192,72330,1,0,0:0:0:0:
256,192,72418,1,0,0:0:0:0:
256,192,72595,1,0,0:0:0:0:
256,192,72771,1,6,0:0:0:0:
