osu file format v14

[General]
AudioFilename: audio.mp3
AudioLeadIn: 0
PreviewTime: 18330
Countdown: 0
SampleSet: Normal
StackLeniency: 0.7
Mode: 1
LetterboxInBreaks: 0
WidescreenStoryboard: 0

[Editor]
DistanceSpacing: 0.6
BeatDivisor: 4
GridSize: 32
TimelineZoom: 1.7

[Metadata]
Title:Temotemote~
TitleUnicode:てもてもて~♪
Artist:Kyatatsu
ArtistUnicode:脚立
Creator:icouldentthink
Version:Inner Oni
Source:
Tags:lucky star konata 泉こなた izumi らき☆すた cartoons witch doctor ニコニコ動画 nico douga 音mad oto-mad otomad 音MAD 鬼畜 ytpmv anime novelty japanese english tag2 coop co-op compatible
BeatmapID:4201641
BeatmapSetID:2017857

[Difficulty]
HPDrainRate:5
CircleSize:2
OverallDifficulty:7
ApproachRate:10
SliderMultiplier:1.4
SliderTickRate:1

[Events]
//Background and Video events
0,0,"bg.jpg",0,70
//Break Periods
//Storyboard Layer 0 (Background)
//Storyboard Layer 1 (Fail)
//Storyboard Layer 2 (Pass)
//Storyboard Layer 3 (Foreground)
//Storyboard Layer 4 (Overlay)
//Storyboard Sound Samples

[TimingPoints]
4302,352.941176470588,4,1,0,60,1,8
5713,352.941176470588,4,1,0,60,1,0
5713,-125,4,1,0,60,0,0
9943,-121.613347619777,4,1,0,60,0,0
10119,-118.423013861976,4,1,0,60,0,0
10207,-116.889804325438,4,1,0,60,0,0
10296,-115.379029915771,4,1,0,60,0,0
10384,-113.923143102954,4,1,0,60,0,0
10560,-111.118881118881,4,1,0,60,0,0
10649,-109.752728277386,4,1,0,60,0,0
10825,-107.147673634525,4,1,0,60,0,0
11355,-100,4,1,0,70,0,0
17355,-133.333333333333,4,1,0,70,0,0
18418,-66.6666666666667,4,1,0,80,0,1
18457,-88.8888888888889,4,1,0,80,0,1
22649,-86.9565217391304,4,1,0,80,0,1
22737,-86.3930885529158,4,1,0,80,0,1
22825,-85.8369098712446,4,1,0,80,0,1
23002,-85.1063829787234,4,1,0,80,0,1
23090,-84.5665961945032,4,1,0,80,0,1
23178,-84.0336134453781,4,1,0,80,0,1
23355,-83.3333333333333,4,1,0,80,0,1
23443,-82.815734989648,4,1,0,80,0,1
23531,-82.3045267489712,4,1,0,80,0,1
23619,-81.799591002045,4,1,0,80,0,1
23707,-81.3008130081301,4,1,0,80,0,1
23884,-80.4828973843058,4,1,0,80,0,1
24060,-68.7285223367698,4,1,0,80,0,1
24105,-88.8888888888889,4,1,0,80,0,1
29712,-74.0740740740741,4,1,0,80,0,0
29752,-93.0232558139535,4,1,0,80,0,0
30590,-90.9918107370337,4,1,0,80,0,0
30766,-85.7632933104631,4,1,0,80,0,0
30943,-81.10300081103,4,1,0,80,0,0
31124,-74.0740740740741,4,1,0,70,0,0
31163,-133.333333333333,4,1,0,70,0,0
33943,-80,4,1,0,70,0,0
33987,-133.333333333333,4,1,0,70,0,0
36766,-80,4,1,0,70,0,0
36810,-125,4,1,0,70,0,0
39595,-66.6666666666667,4,1,0,80,0,1
39634,-88.8888888888889,4,1,0,80,0,1
45237,-80,4,1,0,80,0,1
45281,-88.8888888888889,4,1,0,80,0,1
49477,-74.0740740740741,4,1,0,80,0,0
49516,-133.333333333333,4,1,0,80,0,0
50889,-83.3333333333333,4,1,0,70,0,0
50928,-166.666666666667,4,1,0,70,0,0
59355,-156.85947657943,4,1,0,70,0,0
59707,-148.165643205794,4,1,0,70,0,0
59884,-144.148284313725,4,1,0,70,0,0
59972,-142.230955259976,4,1,0,70,0,0
60060,-140.363961813842,4,1,0,70,0,0
60149,-138.524952156632,4,1,0,70,0,0
60237,-136.75337886935,4,1,0,70,0,0
60325,-135.026546132874,4,1,0,70,0,0
60413,-133.342780218223,4,1,0,70,0,0
60502,-131.682059893647,4,1,0,70,0,0
60590,-130.080176942217,4,1,0,70,0,0
60678,-128.516798688883,4,1,0,70,0,0
60766,-126.990553306343,4,1,0,70,0,0
60855,-125.483397786372,4,1,0,70,0,0
60943,-124.027942533281,4,1,0,70,0,0
61031,-122.605863192182,4,1,0,70,0,0
61119,-121.216024732706,4,1,0,70,0,0
61207,-119.857343013629,4,1,0,70,0,0
61296,-118.513853904282,4,1,0,70,0,0
61384,-117.214748380668,4,1,0,70,0,0
61472,-115.943814687038,4,1,0,70,0,0
61649,-113.469190883878,4,1,0,70,0,0
61737,-112.277771149028,4,1,0,70,0,0
61825,-111.111111111111,4,1,0,70,0,0
62183,-66.6666666666667,4,1,0,80,0,1
62222,-86.9565217391304,4,1,0,80,0,1
67825,-75.4716981132076,4,1,0,80,0,1
67869,-86.9565217391304,4,1,0,80,0,1
72771,-60.6060606060606,4,1,0,80,0,0

[HitObjects]
256,192,5713,5,0,0:0:0:0:
256,192,6065,1,2,0:0:0:0:
256,192,6418,1,0,0:0:0:0:
256,192,6595,1,2,0:0:0:0:
256,192,6771,1,2,0:0:0:0:
256,192,7124,5,2,0:0:0:0:
256,192,7477,1,0,0:0:0:0:
256,192,7830,1,2,0:0:0:0:
256,192,7918,1,0,0:0:0:0:
256,192,8007,1,2,0:0:0:0:
256,192,8095,1,0,0:0:0:0:
256,192,8183,1,2,0:0:0:0:
256,192,8360,1,2,0:0:0:0:
256,192,8536,5,0,0:0:0:0:
256,192,8889,1,2,0:0:0:0:
256,192,9242,1,0,0:0:0:0:
256,192,9418,1,2,0:0:0:0:
256,192,9595,1,2,0:0:0:0:
256,192,9771,1,0,0:0:0:0:
256,192,9948,5,2,0:0:0:0:
256,192,10124,1,0,0:0:0:0:
256,192,10212,1,0,0:0:0:0:
256,192,10301,1,2,0:0:0:0:
256,192,10389,1,2,0:0:0:0:
256,192,10565,1,2,0:0:0:0:
256,192,10654,1,0,0:0:0:0:
256,192,10830,12,0,11183,0:0:0:0:
256,192,11360,5,0,0:0:0:0:
256,192,11536,1,0,0:0:0:0:
256,192,11712,1,2,0:0:0:0:
256,192,11889,1,2,0:0:0:0:
256,192,12065,1,0,0:0:0:0:
256,192,12242,1,2,0:0:0:0:
256,192,12330,1,0,0:0:0:0:
256,192,12418,1,2,0:0:0:0:
256,192,12595,1,0,0:0:0:0:
256,192,12771,5,2,0:0:0:0:
256,192,12860,1,2,0:0:0:0:
256,192,12948,1,0,0:0:0:0:
256,192,13124,1,2,0:0:0:0:
256,192,13301,1,0,0:0:0:0:
256,192,13477,1,2,0:0:0:0:
256,192,13565,1,0,0:0:0:0:
256,192,13654,1,2,0:0:0:0:
256,192,13742,1,0,0:0:0:0:
256,192,13830,1,2,0:0:0:0:
256,192,14007,1,2,0:0:0:0:
256,192,14183,5,0,0:0:0:0:
256,192,14360,1,0,0:0:0:0:
256,192,14536,1,2,0:0:0:0:
256,192,14712,1,2,0:0:0:0:
256,192,14889,1,0,0:0:0:0:
256,192,15065,1,2,0:0:0:0:
256,192,15154,1,0,0:0:0:0:
256,192,15242,1,2,0:0:0:0:
256,192,15418,1,0,0:0:0:0:
256,192,15595,5,0,0:0:0:0:
256,192,15771,1,2,0:0:0:0:
256,192,15860,1,0,0:0:0:0:
256,192,15948,1,2,0:0:0:0:
256,192,16124,1,2,0:0:0:0:
256,192,16301,1,0,0:0:0:0:
256,192,16477,1,2,0:0:0:0:
256,192,16565,1,2,0:0:0:0:
256,192,16654,1,0,0:0:0:0:
256,192,16830,1,0,0:0:0:0:
256,192,17007,1,2,0:0:0:0:
256,192,17360,5,2,0:0:0:0:
256,192,17448,1,0,0:0:0:0:
256,192,17624,1,0,0:0:0:0:
256,192,17712,1,0,0:0:0:0:
256,192,17889,1,0,0:0:0:0:
256,192,18065,1,2,0:0:0:0:
256,192,18418,5,6,0:0:0:0:
256,192,18595,1,0,0:0:0:0:
256,192,18771,1,2,0:0:0:0:
256,192,18860,1,2,0:0:0:0:
256,192,18948,1,2,0:0:0:0:
256,192,19124,1,0,0:0:0:0:
256,192,19301,1,2,0:0:0:0:
256,192,19389,1,0,0:0:0:0:
256,192,19477,1,2,0:0:0:0:
256,192,19565,1,2,0:0:0:0:
256,192,19654,1,0,0:0:0:0:
256,192,19830,5,2,0:0:0:0:
256,192,19918,1,0,0:0:0:0:
256,192,20007,1,0,0:0:0:0:
256,192,20183,1,2,0:0:0:0:
256,192,20360,1,0,0:0:0:0:
256,192,20536,1,2,0:0:0:0:
256,192,20624,1,0,0:0:0:0:
256,192,20712,1,2,0:0:0:0:
256,192,20801,1,0,0:0:0:0:
256,192,20889,1,2,0:0:0:0:
256,192,21065,1,0,0:0:0:0:
256,192,21242,5,2,0:0:0:0:
256,192,21418,1,0,0:0:0:0:
256,192,21595,1,2,0:0:0:0:
256,192,21683,1,2,0:0:0:0:
256,192,21771,1,2,0:0:0:0:
256,192,21948,1,0,0:0:0:0:
256,192,22124,1,2,0:0:0:0:
256,192,22212,1,2,0:0:0:0:
256,192,22301,1,0,0:0:0:0:
256,192,22389,1,0,0:0:0:0:
256,192,22477,1,2,0:0:0:0:
256,192,22654,5,0,0:0:0:0:
256,192,22742,1,2,0:0:0:0:
256,192,22830,1,0,0:0:0:0:
256,192,23007,1,2,0:0:0:0:
256,192,23095,1,0,0:0:0:0:
256,192,23183,1,2,0:0:0:0:
256,192,23360,1,2,0:0:0:0:
256,192,23448,1,2,0:0:0:0:
256,192,23536,1,0,0:0:0:0:
256,192,23624,1,0,0:0:0:0:
256,192,23712,1,2,0:0:0:0:
256,192,23889,1,0,0:0:0:0:
256,192,24065,5,6,0:0:0:0:
256,192,24242,1,0,0:0:0:0:
256,192,24418,1,2,0:0:0:0:
256,192,24507,1,2,0:0:0:0:
256,192,24595,1,2,0:0:0:0:
256,192,24771,1,0,0:0:0:0:
256,192,24948,1,2,0:0:0:0:
256,192,25036,1,0,0:0:0:0:
256,192,25124,1,2,0:0:0:0:
256,192,25212,1,2,0:0:0:0:
256,192,25301,1,0,0:0:0:0:
256,192,25477,5,2,0:0:0:0:
256,192,25565,1,0,0:0:0:0:
256,192,25654,1,0,0:0:0:0:
256,192,25830,1,2,0:0:0:0:
256,192,26007,1,0,0:0:0:0:
256,192,26183,1,2,0:0:0:0:
256,192,26271,1,0,0:0:0:0:
256,192,26360,1,2,0:0:0:0:
256,192,26448,1,0,0:0:0:0:
256,192,26536,1,2,0:0:0:0:
256,192,26712,1,0,0:0:0:0:
256,192,26889,5,2,0:0:0:0:
256,192,27065,1,0,0:0:0:0:
256,192,27242,1,2,0:0:0:0:
256,192,27330,1,2,0:0:0:0:
256,192,27418,1,2,0:0:0:0:
256,192,27595,1,0,0:0:0:0:
256,192,27771,1,2,0:0:0:0:
256,192,27860,1,0,0:0:0:0:
256,192,27948,1,2,0:0:0:0:
256,192,28036,1,2,0:0:0:0:
256,192,28124,1,2,0:0:0:0:
256,192,28301,5,0,0:0:0:0:
256,192,28389,1,2,0:0:0:0:
256,192,28477,1,0,0:0:0:0:
256,192,28565,1,2,0:0:0:0:
256,192,28654,1,0,0:0:0:0:
256,192,28830,1,2,0:0:0:0:
256,192,29007,1,0,0:0:0:0:
256,192,29095,1,0,0:0:0:0:
256,192,29183,1,0,0:0:0:0:
256,192,29271,1,0,0:0:0:0:
256,192,29360,1,2,0:0:0:0:
256,192,29536,1,0,0:0:0:0:
256,192,29712,5,6,0:0:0:0:
256,192,29889,1,2,0:0:0:0:
256,192,29977,1,2,0:0:0:0:
256,192,30154,1,0,0:0:0:0:
256,192,30242,1,0,0:0:0:0:
256,192,30418,1,2,0:0:0:0:
256,192,30595,1,2,0:0:0:0:
256,192,30771,1,0,0:0:0:0:
256,192,30948,1,0,0:0:0:0:
256,192,31124,1,6,0:0:0:0:
256,192,31301,5,0,0:0:0:0:
256,192,31477,1,2,0:0:0:0:
256,192,31595,1,2,0:0:0:0:
256,192,31742,1,0,0:0:0:0:
256,192,31830,1,2,0:0:0:0:
256,192,31918,1,2,0:0:0:0:
256,192,32007,1,0,0:0:0:0:
256,192,32183,1,2,0:0:0:0:
256,192,32360,1,0,0:0:0:0:
256,192,32448,1,2,0:0:0:0:
256,192,32536,1,0,0:0:0:0:
256,192,32712,1,0,0:0:0:0:
256,192,32801,1,0,0:0:0:0:
256,192,32889,1,2,0:0:0:0:
256,192,32977,1,2,0:0:0:0:
256,192,33065,1,0,0:0:0:0:
256,192,33242,1,2,0:0:0:0:
256,192,33418,1,2,0:0:0:0:
256,192,33507,1,0,0:0:0:0:
256,192,33595,1,0,0:0:0:0:
256,192,33771,1,0,0:0:0:0:
256,192,33948,1,6,0:0:0:0:
256,192,34124,5,2,0:0:0:0:
256,192,34301,1,0,0:0:0:0:
256,192,34477,1,2,0:0:0:0:
256,192,34565,1,0,0:0:0:0:
256,192,34830,1,2,0:0:0:0:
256,192,35007,1,2,0:0:0:0:
256,192,35095,1,0,0:0:0:0:
256,192,35183,1,2,0:0:0:0:
256,192,35271,1,2,0:0:0:0:
256,192,35360,1,0,0:0:0:0:
256,192,35536,1,0,0:0:0:0:
256,192,35624,1,2,0:0:0:0:
256,192,35712,1,0,0:0:0:0:
256,192,35889,1,2,0:0:0:0:
256,192,35977,1,0,0:0:0:0:
256,192,36065,1,2,0:0:0:0:
256,192,36242,1,2,0:0:0:0:
256,192,36418,1,0,0:0:0:0:
256,192,36595,1,0,0:0:0:0:
256,192,36771,1,6,0:0:0:0:
256,192,36948,5,0,0:0:0:0:
256,192,37124,1,2,0:0:0:0:
256,192,37242,1,2,0:0:0:0:
256,192,37360,1,0,0:0:0:0:
256,192,37477,1,2,0:0:0:0:
256,192,37595,1,2,0:0:0:0:
256,192,37712,1,0,0:0:0:0:
256,192,37830,1,2,0:0:0:0:
256,192,38007,1,0,0:0:0:0:
256,192,38183,1,2,0:0:0:0:
256,192,38301,1,0,0:0:0:0:
256,192,38418,1,0,0:0:0:0:
256,192,38536,1,2,0:0:0:0:
256,192,38654,1,2,0:0:0:0:
256,192,38771,1,0,0:0:0:0:
256,192,38889,1,6,0:0:0:0:
256,192,39065,5,0,0:0:0:0:
256,192,39242,1,2,0:0:0:0:
256,192,39418,1,2,0:0:0:0:
256,192,39595,5,4,0:0:0:0:
256,192,39771,1,0,0:0:0:0:
256,192,39948,1,2,0:0:0:0:
256,192,40036,1,2,0:0:0:0:
256,192,40124,1,2,0:0:0:0:
256,192,40301,1,0,0:0:0:0:
256,192,40477,1,2,0:0:0:0:
256,192,40565,1,0,0:0:0:0:
256,192,40654,1,2,0:0:0:0:
256,192,40742,1,2,0:0:0:0:
256,192,40830,1,0,0:0:0:0:
256,192,41007,5,2,0:0:0:0:
256,192,41095,1,0,0:0:0:0:
256,192,41183,1,0,0:0:0:0:
256,192,41360,1,2,0:0:0:0:
256,192,41536,1,0,0:0:0:0:
256,192,41712,1,2,0:0:0:0:
256,192,41801,1,0,0:0:0:0:
256,192,41889,1,2,0:0:0:0:
256,192,41977,1,0,0:0:0:0:
256,192,42065,1,2,0:0:0:0:
256,192,42242,1,0,0:0:0:0:
256,192,42418,5,2,0:0:0:0:
256,192,42595,1,2,0:0:0:0:
256,192,42771,1,0,0:0:0:0:
256,192,42860,1,0,0:0:0:0:
256,192,42948,1,0,0:0:0:0:
256,192,43124,1,0,0:0:0:0:
256,192,43301,1,2,0:0:0:0:
256,192,43389,1,0,0:0:0:0:
256,192,43477,1,2,0:0:0:0:
256,192,43565,1,0,0:0:0:0:
256,192,43654,1,2,0:0:0:0:
256,192,43830,5,2,0:0:0:0:
256,192,44007,1,0,0:0:0:0:
256,192,44095,1,2,0:0:0:0:
256,192,44183,1,0,0:0:0:0:
256,192,44271,1,2,0:0:0:0:
256,192,44360,1,2,0:0:0:0:
256,192,44448,1,0,0:0:0:0:
256,192,44536,1,2,0:0:0:0:
256,192,44712,1,0,0:0:0:0:
256,192,44801,1,2,0:0:0:0:
256,192,44889,1,0,0:0:0:0:
256,192,45065,1,2,0:0:0:0:
256,192,45242,5,4,0:0:0:0:
256,192,45418,1,0,0:0:0:0:
256,192,45595,1,2,0:0:0:0:
256,192,45683,1,2,0:0:0:0:
256,192,45771,1,2,0:0:0:0:
256,192,45948,1,0,0:0:0:0:
256,192,46124,1,2,0:0:0:0:
256,192,46212,1,0,0:0:0:0:
256,192,46301,1,2,0:0:0:0:
256,192,46389,1,0,0:0:0:0:
256,192,46477,1,0,0:0:0:0:
256,192,46654,5,2,0:0:0:0:
256,192,46742,1,0,0:0:0:0:
256,192,46830,1,0,0:0:0:0:
256,192,47007,1,2,0:0:0:0:
256,192,47183,1,0,0:0:0:0:
256,192,47360,1,2,0:0:0:0:
256,192,47448,1,0,0:0:0:0:
256,192,47536,1,2,0:0:0:0:
256,192,47624,1,0,0:0:0:0:
256,192,47712,1,2,0:0:0:0:
256,192,47889,1,0,0:0:0:0:
256,192,48065,5,2,0:0:0:0:
256,192,48242,1,2,0:0:0:0:
256,192,48418,1,0,0:0:0:0:
256,192,48507,1,0,0:0:0:0:
256,192,48595,1,0,0:0:0:0:
256,192,48771,1,0,0:0:0:0:
256,192,48948,1,2,0:0:0:0:
256,192,49036,1,0,0:0:0:0:
256,192,49124,1,2,0:0:0:0:
256,192,49212,1,2,0:0:0:0:
256,192,49301,1,0,0:0:0:0:
256,192,49477,5,6,0:0:0:0:
256,192,49830,1,2,0:0:0:0:
256,192,49918,1,0,0:0:0:0:
256,192,50095,1,0,0:0:0:0:
256,192,50183,1,0,0:0:0:0:
256,192,50360,1,0,0:0:0:0:
256,192,50536,1,2,0:0:0:0:
256,192,50889,5,6,0:0:0:0:
256,192,51242,1,0,0:0:0:0:
256,192,51595,1,0,0:0:0:0:
256,192,51771,1,2,0:0:0:0:
256,192,51948,1,2,0:0:0:0:
256,192,52301,5,2,0:0:0:0:
256,192,52477,1,0,0:0:0:0:
256,192,52654,1,0,0:0:0:0:
256,192,52742,1,0,0:0:0:0:
256,192,52918,1,0,0:0:0:0:
256,192,53007,1,0,0:0:0:0:
256,192,53183,1,0,0:0:0:0:
256,192,53360,1,2,0:0:0:0:
256,192,53712,5,0,0:0:0:0:
256,192,54065,1,2,0:0:0:0:
256,192,54418,1,0,0:0:0:0:
256,192,54595,1,2,0:0:0:0:
256,192,54771,1,2,0:0:0:0:
256,192,55124,5,2,0:0:0:0:
256,192,55212,1,0,0:0:0:0:
256,192,55389,1,0,0:0:0:0:
256,192,55477,1,0,0:0:0:0:
256,192,55654,1,0,0:0:0:0:
256,192,55742,1,0,0:0:0:0:
256,192,55830,1,2,0:0:0:0:
256,192,56007,5,2,0:0:0:0:
256,192,56095,1,0,0:0:0:0:
256,192,56271,1,2,0:0:0:0:
256,192,56360,1,0,0:0:0:0:
256,192,56536,5,2,0:0:0:0:
256,192,56889,1,0,0:0:0:0:
256,192,57242,1,0,0:0:0:0:
256,192,57418,1,2,0:0:0:0:
256,192,57595,1,2,0:0:0:0:
256,192,57948,5,2,0:0:0:0:
256,192,58124,1,0,0:0:0:0:
256,192,58301,1,2,0:0:0:0:
256,192,58477,1,0,0:0:0:0:
256,192,58565,1,0,0:0:0:0:
256,192,58654,1,0,0:0:0:0:
256,192,58742,1,0,0:0:0:0:
256,192,58830,1,0,0:0:0:0:
256,192,58918,1,0,0:0:0:0:
256,192,59007,1,2,0:0:0:0:
256,192,59360,5,2,0:0:0:0:
256,192,59712,1,0,0:0:0:0:
256,192,59889,1,0,0:0:0:0:
256,192,59977,1,0,0:0:0:0:
256,192,60065,1,2,0:0:0:0:
256,192,60154,1,0,0:0:0:0:
256,192,60242,1,2,0:0:0:0:
256,192,60330,1,0,0:0:0:0:
256,192,60418,1,2,0:0:0:0:
256,192,60507,1,2,0:0:0:0:
256,192,60595,1,0,0:0:0:0:
256,192,60683,1,0,0:0:0:0:
256,192,60771,5,2,0:0:0:0:
256,192,60860,1,2,0:0:0:0:
256,192,60948,1,0,0:0:0:0:
256,192,61036,1,0,0:0:0:0:
256,192,61124,1,2,0:0:0:0:
256,192,61212,1,0,0:0:0:0:
256,192,61301,1,2,0:0:0:0:
256,192,61389,1,0,0:0:0:0:
256,192,61477,1,2,0:0:0:0:
256,192,61654,5,0,0:0:0:0:
256,192,61742,1,2,0:0:0:0:
256,192,61830,1,0,0:0:0:0:
256,192,62183,5,4,0:0:0:0:
256,192,62360,1,0,0:0:0:0:
256,192,62536,1,2,0:0:0:0:
256,192,62624,1,2,0:0:0:0:
256,192,62712,1,2,0:0:0:0:
256,192,62889,1,0,0:0:0:0:
256,192,63065,1,2,0:0:0:0:
256,192,63154,1,0,0:0:0:0:
256,192,63242,1,2,0:0:0:0:
256,192,63330,1,0,0:0:0:0:
256,192,63418,1,0,0:0:0:0:
256,192,63595,5,2,0:0:0:0:
256,192,63683,1,0,0:0:0:0:
256,192,63771,1,0,0:0:0:0:
256,192,63948,1,2,0:0:0:0:
256,192,64124,1,0,0:0:0:0:
256,192,64301,1,2,0:0:0:0:
256,192,64389,1,0,0:0:0:0:
256,192,64477,1,2,0:0:0:0:
256,192,64565,1,0,0:0:0:0:
256,192,64654,1,2,0:0:0:0:
256,192,64830,1,0,0:0:0:0:
256,192,65007,5,2,0:0:0:0:
256,192,65183,1,2,0:0:0:0:
256,192,65360,1,0,0:0:0:0:
256,192,65448,1,0,0:0:0:0:
256,192,65536,1,0,0:0:0:0:
256,192,65712,1,0,0:0:0:0:
256,192,65889,1,2,0:0:0:0:
256,192,65977,1,0,0:0:0:0:
256,192,66065,1,2,0:0:0:0:
256,192,66154,1,2,0:0:0:0:
256,192,66242,1,0,0:0:0:0:
256,192,66418,5,2,0:0:0:0:
256,192,66595,1,2,0:0:0:0:
256,192,66683,1,2,0:0:0:0:
256,192,66771,1,0,0:0:0:0:
256,192,66860,1,2,0:0:0:0:
256,192,66948,1,0,0:0:0:0:
256,192,67036,1,0,0:0:0:0:
256,192,67124,1,2,0:0:0:0:
256,192,67301,1,0,0:0:0:0:
256,192,67389,1,2,0:0:0:0:
256,192,67477,1,0,0:0:0:0:
256,192,67654,1,2,0:0:0:0:
256,192,67830,5,4,0:0:0:0:
256,192,68007,1,0,0:0:0:0:
256,192,68183,1,2,0:0:0:0:
256,192,68271,1,2,0:0:0:0:
256,192,68360,1,2,0:0:0:0:
256,192,68536,1,0,0:0:0:0:
256,192,68712,1,2,0:0:0:0:
256,192,68801,1,0,0:0:0:0:
256,192,68889,1,2,0:0:0:0:
256,192,68977,1,2,0:0:0:0:
256,192,69065,1,0,0:0:0:0:
256,192,69242,5,2,0:0:0:0:
256,192,69330,1,0,0:0:0:0:
256,192,69418,1,0,0:0:0:0:
256,192,69595,1,2,0:0:0:0:
256,192,69771,1,0,0:0:0:0:
256,192,69948,1,2,0:0:0:0:
256,192,70036,1,0,0:0:0:0:
256,192,70124,1,2,0:0:0:0:
256,192,70212,1,0,0:0:0:0:
256,192,70301,1,2,0:0:0:0:
256,192,70477,1,0,0:0:0:0:
256,192,70654,5,2,0:0:0:0:
256,192,70830,1,2,0:0:0:0:
256,192,71007,1,0,0:0:0:0:
256,192,71095,1,0,0:0:0:0:
256,192,71183,1,0,0:0:0:0:
256,192,71360,1,0,0:0:0:0:
256,192,71536,1,2,0:0:0:0:
256,192,71624,1,0,0:0:0:0:
256,192,71712,1,2,0:0:0:0:
256,192,71801,1,2,0:0:0:0:
256,192,71889,1,2,0:0:0:0:
256,192,72065,5,0,0:0:0:0:
256,192,72154,1,0,0:0:0:0:
256,192,72242,1,2,0:0:0:0:
256,192,72330,1,0,0:0:0:0:
256,192,72418,1,2,0:0:0:0:
256,192,72507,1,2,0:0:0:0:
256,192,72595,1,0,0:0:0:0:
256,192,72771,1,6,0:0:0:0:
