osu file format v14

[General]
AudioFilename: audio.mp3
AudioLeadIn: 0
PreviewTime: 18330
Countdown: 0
SampleSet: Soft
StackLeniency: 0.5
Mode: 0
LetterboxInBreaks: 0
WidescreenStoryboard: 1

[Editor]
Bookmarks: 5713,11360,18418,31124,39595,50889,62183,73477
DistanceSpacing: 0.8
BeatDivisor: 4
GridSize: 4
TimelineZoom: 1

[Metadata]
Title:Temotemote~
TitleUnicode:てもてもて~♪
Artist:Kyatatsu
ArtistUnicode:脚立
Creator:Sonnyc
Version:Normal
Source:
Tags:Lucky Star konata らき☆すた Cartoons Witch Doctor ニコニコ動画 Nico Douga 音MAD Anime Novelty Japanese English
BeatmapID:2286342
BeatmapSetID:1093626

[Difficulty]
HPDrainRate:4
CircleSize:3.4
OverallDifficulty:5
ApproachRate:6
SliderMultiplier:1.4
SliderTickRate:1

[Events]
//Background and Video events
0,0,"bg.jpg",0,0
//Break Periods
//Storyboard Layer 0 (Background)
//Storyboard Layer 1 (Fail)
//Storyboard Layer 2 (Pass)
//Storyboard Layer 3 (Foreground)
//Storyboard Layer 4 (Overlay)
//Storyboard Sound Samples

[TimingPoints]
5713,352.941176470588,4,2,1,50,1,0
5713,-111.111111111111,4,2,1,50,0,0
11360,-100,4,2,1,60,0,0
18418,-100,4,2,1,70,0,1
29712,-100,4,2,1,70,0,0
31124,-100,4,2,1,60,0,0
39595,-100,4,2,1,70,0,1
49477,-100,4,2,1,70,0,0
50889,-100,4,2,1,60,0,0
62183,-100,4,2,1,70,0,1
72771,-100,4,2,1,70,0,0

[Colours]
Combo1 : 255,128,64
Combo2 : 0,255,128
Combo3 : 128,128,255
Combo4 : 255,0,128

[HitObjects]
491,91,5713,6,0,P|465:55|385:63,1,125.999996154785,2|2,0:0|0:0,0:0:0:0:
311,140,6418,2,0,L|314:204,2,62.9999980773926,0|2|2,0:0|0:0|0:0,0:0:0:0:
226,64,7124,6,0,L|98:70,1,125.999996154785,0|2,0:0|0:0,0:0:0:0:
136,177,7830,2,0,L|200:174,2,62.9999980773926,0|0|0,1:0|1:0|1:0,0:0:0:0:
47,247,8536,6,0,P|35:306|79:348,1,125.999996154785,2|2,0:0|0:0,0:0:0:0:
189,317,9242,2,0,L|186:253,2,62.9999980773926,0|2|2,0:0|0:0|0:0,0:0:0:0:
293,364,9948,5,2,0:0:0:0:
314,252,10301,1,2,0:0:0:0:
335,140,10654,1,2,0:0:0:0:
131,47,11360,6,0,P|63:63|68:131,1,140,0|0,1:0|1:0,0:0:0:0:
141,202,12065,2,0,L|214:198,2,70,0|0|0,1:0|0:0|1:0,0:0:0:0:
108,309,12771,6,0,L|254:301,1,140,0|0,1:0|1:0,0:0:0:0:
353,341,13477,2,0,L|357:268,1,70,0|0,1:0|0:0,0:0:0:0:
362,215,13830,1,0,1:0:0:0:
469,179,14183,6,0,P|463:114|399:102,1,140,0|0,1:0|1:0,0:0:0:0:
291,76,14889,2,0,L|295:149,2,70,0|0|0,1:0|0:0|1:0,0:0:0:0:
190,123,15595,5,0,1:0:0:0:
80,104,15948,1,0,1:0:0:0:
3,185,16301,2,0,P|33:244|225:223,1,280,0|2,1:0|1:1,0:0:0:0:
447,337,18418,6,0,P|456:278|386:261,1,140,6|10,1:0|1:0,0:0:0:0:
283,326,19124,2,0,L|213:321,1,70,0|2,1:0|0:1,0:0:0:0:
150,316,19477,1,10,1:0:0:0:
190,196,19830,6,0,B|154:177|154:177|171:78,1,140,2|10,1:0|1:0,0:0:0:0:
293,111,20536,1,0,1:0:0:0:
299,173,20712,1,0,1:0:0:0:
305,235,20889,1,8,1:0:0:0:
211,319,21242,6,0,P|147:303|153:239,1,140,2|10,1:0|1:0,0:0:0:0:
117,118,21948,2,0,L|187:122,1,70,0|2,1:0|0:1,0:0:0:0:
249,125,22301,1,10,1:0:0:0:
350,50,22654,6,0,P|412:85|402:152,2,140,2|10|2,1:0|1:0|1:0,0:0:0:0:
249,125,23712,1,8,1:0:0:0:
153,42,24065,6,0,P|93:32|76:102,1,140,6|10,1:0|1:0,0:0:0:0:
141,202,24771,2,0,L|137:272,1,70,0|2,1:0|0:1,0:0:0:0:
130,334,25124,1,10,1:0:0:0:
255,322,25477,6,0,B|274:358|274:358|373:341,1,140,2|10,1:0|1:0,0:0:0:0:
419,223,26183,1,0,1:0:0:0:
357,217,26360,1,0,1:0:0:0:
295,211,26536,1,8,1:0:0:0:
211,116,26889,6,0,P|271:126|288:56,1,140,2|10,1:0|1:0,0:0:0:0:
406,114,27595,2,0,L|402:184,1,70,0|2,1:0|0:1,0:0:0:0:
395,246,27948,1,10,1:0:0:0:
277,200,28301,5,2,1:0:0:0:
190,291,28654,1,10,1:0:0:0:
77,235,29007,2,2,P|112:106|233:126,1,280,2|4,1:0|1:0,0:1:0:0:
256,192,29889,12,2,31124,1:0:0:0:
95,34,32536,5,2,0:0:0:0:
109,149,32889,1,8,0:0:0:0:
123,263,33242,1,2,0:0:0:0:
123,263,33948,1,2,1:0:0:0:
371,133,35360,5,2,0:0:0:0:
385,248,35712,1,8,0:0:0:0:
400,363,36065,1,2,0:0:0:0:
371,133,36771,1,6,1:0:0:0:
154,160,38183,5,2,0:0:0:0:
269,174,38536,1,8,0:0:0:0:
197,265,38889,1,2,1:0:0:0:
125,47,39595,22,0,P|66:38|49:108,1,140,6|10,1:0|1:0,0:0:0:0:
142,186,40301,2,0,L|212:181,1,70,0|2,1:0|0:1,0:0:0:0:
274,174,40654,1,10,1:0:0:0:
386,117,41007,6,0,B|422:136|422:136|405:235,1,140,2|10,1:0|1:0,0:0:0:0:
325,331,41712,1,0,1:0:0:0:
263,325,41889,1,0,1:0:0:0:
201,319,42065,1,8,1:0:0:0:
117,224,42418,6,0,P|176:233|193:163,1,140,2|10,1:0|1:0,0:0:0:0:
310,219,43124,2,0,L|380:214,1,70,0|2,1:0|0:1,0:0:0:0:
442,209,43477,1,10,1:0:0:0:
487,91,43830,5,2,1:0:0:0:
362,73,44183,1,10,1:0:0:0:
237,55,44536,1,2,1:0:0:0:
297,299,45242,6,0,P|238:308|221:238,1,140,6|10,1:0|1:0,0:0:0:0:
94,264,45948,2,0,L|89:194,1,70,0|2,1:0|0:1,0:0:0:0:
81,131,46301,1,10,1:0:0:0:
179,52,46654,6,0,B|215:71|215:71|198:170,1,140,2|10,1:0|1:0,0:0:0:0:
321,140,47360,1,0,1:0:0:0:
327,202,47536,1,0,1:0:0:0:
333,264,47712,1,8,1:0:0:0:
234,341,48065,6,0,P|219:278|155:284,1,140,2|10,1:0|1:0,0:0:0:0:
47,217,48771,2,0,L|52:147,1,70,0|2,1:0|0:1,0:0:0:0:
54,84,49124,1,10,1:0:0:0:
168,137,49477,1,2,1:0:0:0:
410,58,50889,22,0,P|333:19|269:159,2,280,4|2|0,0:0|0:0|0:0,0:0:0:0:
338,240,53712,2,0,P|415:201|479:341,2,280,2|2|0,0:0|0:0|0:0,0:0:0:0:
185,65,56536,6,0,P|108:26|44:166,2,280,2|2|0,0:0|0:0|0:0,0:0:0:0:
113,247,59360,2,0,P|190:208|254:348,1,280,2|2,0:0|0:0,0:0:0:0:
471,200,60771,21,2,0:1:0:0:
403,93,61124,1,2,0:1:0:0:
292,153,61477,2,0,L|152:144,1,140,2|2,0:1|0:1,0:0:0:0:
50,219,62183,6,0,P|64:281|128:275,1,140,6|10,1:0|1:0,0:0:0:0:
221,361,62889,2,0,L|291:356,1,70,0|2,1:0|0:1,0:0:0:0:
353,349,63242,1,10,1:0:0:0:
294,237,63595,6,0,B|330:218|330:218|313:119,1,140,2|10,1:0|1:0,0:0:0:0:
417,49,64301,1,0,1:0:0:0:
423,111,64477,1,0,1:0:0:0:
429,173,64654,1,8,1:0:0:0:
507,272,65007,6,0,P|443:266|428:328,1,140,2|10,1:0|1:0,0:0:0:0:
321,261,65712,2,0,L|326:191,1,70,0|2,1:0|0:1,0:0:0:0:
333,129,66065,1,10,1:0:0:0:
389,16,66418,5,2,1:0:0:0:
264,34,66771,1,10,1:0:0:0:
139,52,67124,1,2,1:0:0:0:
348,191,67830,6,0,P|285:205|291:269,1,140,2|10,1:0|1:0,0:0:0:0:
177,324,68536,2,0,L|107:319,1,70,0|2,1:0|0:1,0:0:0:0:
45,312,68889,1,10,1:0:0:0:
128,217,69242,6,0,B|109:181|109:181|10:198,1,140,2|10,1:0|1:0,0:0:0:0:
48,76,69948,1,0,1:0:0:0:
110,70,70124,1,0,1:0:0:0:
172,64,70301,1,8,1:0:0:0:
270,141,70654,6,0,P|332:155|326:219,1,140,2|10,1:0|1:0,0:0:0:0:
450,195,71360,2,0,L|455:265,1,70,0|2,1:0|0:1,0:0:0:0:
462,327,71712,1,10,1:0:0:0:
337,311,72065,5,2,1:0:0:0:
279,333,72242,1,0,0:0:0:0:
220,355,72418,1,10,1:0:0:0:
147,251,72771,1,6,0:1:0:0:
