osu file format v14

[General]
AudioFilename: audio.mp3
AudioLeadIn: 0
PreviewTime: 18330
Countdown: 0
SampleSet: Soft
StackLeniency: 0.2
Mode: 0
LetterboxInBreaks: 0
WidescreenStoryboard: 1

[Editor]
Bookmarks: 5713,11360,18418,31124,39595,50889,62183,73477
DistanceSpacing: 1.2
BeatDivisor: 4
GridSize: 4
TimelineZoom: 1

[Metadata]
Title:Temotemote~
TitleUnicode:てもてもて~♪
Artist:Kyatatsu
ArtistUnicode:脚立
Creator:Sonnyc
Version:Insane
Source:
Tags:Lucky Star konata らき☆すた Cartoons Witch Doctor ニコニコ動画 Nico Douga 音MAD Anime Novelty Japanese English
BeatmapID:2286137
BeatmapSetID:1093626

[Difficulty]
HPDrainRate:6
CircleSize:4
OverallDifficulty:8
ApproachRate:9
SliderMultiplier:2.2
SliderTickRate:1

[Events]
//Background and Video events
0,0,"bg.jpg",0,0
//Break Periods
//Storyboard Layer 0 (Background)
//Storyboard Layer 1 (Fail)
//Storyboard Layer 2 (Pass)
//Storyboard Layer 3 (Foreground)
//Storyboard Layer 4 (Overlay)
//Storyboard Sound Samples

[TimingPoints]
5713,352.941176470588,4,2,1,50,1,0
5713,-166.666666666667,4,2,1,50,0,0
11360,-100,4,2,1,60,0,0
18418,-66.6666666666667,4,2,1,70,0,1
23007,-58.8235294117647,4,2,1,70,0,1
23360,-52.6315789473684,4,2,1,70,0,1
23712,-66.6666666666667,4,2,1,70,0,1
29712,-66.6666666666667,4,2,1,70,0,0
31124,-100,4,2,1,60,0,0
39595,-66.6666666666667,4,2,1,70,0,1
44712,-100,4,2,1,70,0,1
45242,-66.6666666666667,4,2,1,70,0,1
49477,-66.6666666666667,4,2,1,70,0,0
50889,-100,4,2,1,60,0,0
62183,-50,4,2,1,70,0,1
62889,-66.6666666666667,4,2,1,70,0,1
65007,-50,4,2,1,70,0,1
65712,-66.6666666666667,4,2,1,70,0,1
67300,-100,4,2,1,70,0,1
67830,-50,4,2,1,70,0,1
68536,-66.6666666666667,4,2,1,70,0,1
70654,-50,4,2,1,70,0,1
71360,-66.6666666666667,4,2,1,70,0,1
72771,-66.6666666666667,4,2,1,70,0,0

[Colours]
Combo1 : 255,128,64
Combo2 : 0,255,128
Combo3 : 128,128,255
Combo4 : 255,0,128

[HitObjects]
54,244,5713,6,0,P|37:197|96:146,2,131.99999597168,2|2|0,0:0|0:0|0:0,0:0:0:0:
134,283,6595,1,2,0:0:0:0:
134,283,6771,1,2,0:0:0:0:
262,183,7124,22,0,L|393:197,1,131.99999597168,2|2,0:0|0:0,0:0:0:0:
309,94,7830,5,0,1:0:0:0:
309,94,7918,1,0,1:0:0:0:
309,94,8007,1,0,1:0:0:0:
309,94,8095,1,0,1:0:0:0:
309,94,8183,2,0,L|374:101,1,65.9999979858399,0|0,1:0|1:0,0:0:0:0:
447,150,8536,6,0,P|464:197|405:248,2,131.99999597168,0|2|0,0:0|0:0|0:0,0:0:0:0:
374,101,9418,1,2,0:0:0:0:
374,101,9595,1,2,0:0:0:0:
307,159,9771,37,0,0:0:0:0:
307,159,9948,1,2,0:0:0:0:
224,128,10124,1,0,1:0:0:0:
224,128,10212,1,0,1:0:0:0:
224,128,10301,1,0,1:0:0:0:
224,128,10389,1,0,1:0:0:0:
224,128,10477,2,0,L|159:135,1,65.9999979858399,0|0,1:0|1:0,0:0:0:0:
420,307,11360,6,0,P|436:255|311:206,2,220,0|0|0,1:0|1:0|1:0,0:0:0:0:
318,297,12242,1,2,0:0:0:0:
248,366,12418,2,0,L|139:357,1,110,0|0,1:0|1:0,0:0:0:0:
39,263,12771,22,0,B|95:274|95:274|138:238,1,110,0|2,1:0|0:0,0:0:0:0:
170,147,13124,2,0,B|114:136|114:136|71:172,1,110,0|2,1:0|0:0,0:0:0:0:
19,58,13477,5,0,1:0:0:0:
45,30,13565,1,0,0:0:0:0:
80,14,13654,1,2,0:0:0:0:
118,12,13742,1,0,0:0:0:0:
154,25,13830,1,0,1:0:0:0:
229,90,14007,1,2,0:0:0:0:
207,207,14183,6,0,P|106:204|100:104,2,220,0|0|0,1:0|1:0|1:0,0:0:0:0:
272,282,15065,1,2,0:0:0:0:
359,235,15242,2,0,L|350:126,1,110,0|0,1:0|1:0,0:0:0:0:
219,68,15595,37,0,1:0:0:0:
232,205,15771,1,2,0:0:0:0:
124,120,15948,1,0,1:0:0:0:
137,257,16124,1,2,0:0:0:0:
29,172,16301,2,0,P|-6:84|109:24,1,220,0|0,1:0|1:0,0:0:0:0:
256,192,17007,12,2,18065,0:1:0:0:
418,343,18418,6,0,P|428:276|353:221,1,165.000006294251,6|2,1:0|0:0,0:0:0:0:
282,324,18771,2,0,P|344:372|418:343,1,165.000006294251,10|2,1:0|0:0,0:0:0:0:
479,187,19124,5,0,1:0:0:0:
357,221,19301,1,2,0:1:0:0:
479,187,19477,2,0,L|462:22,1,165.000006294251,10|0,1:0|1:0,0:0:0:0:
337,66,19830,6,0,B|267:61|267:61|253:72|253:72|171:66,1,165.000006294251,2|2,1:0|0:0,0:0:0:0:
72,155,20183,2,0,B|142:160|142:160|156:149|156:149|238:155,1,165.000006294251,10|2,1:0|0:0,0:0:0:0:
366,203,20536,5,2,1:0:0:0:
395,245,20624,1,0,1:0:0:0:
397,297,20712,1,0,1:0:0:0:
371,342,20801,1,0,1:0:0:0:
326,366,20889,1,10,1:0:0:0:
293,273,21065,1,2,1:0:0:0:
82,355,21242,6,0,P|72:288|147:233,1,165.000006294251,2|2,1:0|0:0,0:0:0:0:
217,336,21595,2,0,P|155:384|82:355,1,165.000006294251,10|2,1:0|0:0,0:0:0:0:
12,202,21948,5,0,1:0:0:0:
108,113,22124,1,2,0:1:0:0:
12,202,22301,2,0,L|177:219,1,165.000006294251,10|0,1:0|1:0,0:0:0:0:
305,296,22654,22,0,P|312:241|406:233,1,165.000006294251,2|2,1:0|0:0,0:0:0:0:
283,158,23007,2,0,P|370:151|405:232,1,187.000003566742,10|2,1:0|0:0,0:0:0:0:
416,72,23360,2,0,P|467:156|405:231,1,208.999994419098,2|2,1:0|0:0,0:0:0:0:
283,158,23712,1,8,1:0:0:0:
135,358,24065,6,0,P|156:293|92:226,1,165.000006294251,6|2,1:0|0:0,0:0:0:0:
1,325,24418,2,0,P|20:248|96:227,1,165.000006294251,10|2,1:0|0:0,0:0:0:0:
253,278,24771,5,0,1:0:0:0:
182,169,24948,1,2,0:1:0:0:
253,278,25124,2,0,L|418:261,1,165.000006294251,10|0,1:0|1:0,0:0:0:0:
483,127,25477,6,0,B|413:122|413:122|399:133|399:133|317:127,1,165.000006294251,2|2,1:0|0:0,0:0:0:0:
439,36,25830,2,0,B|369:31|369:31|355:42|355:42|273:36,1,165.000006294251,10|2,1:0|0:0,0:0:0:0:
143,60,26183,5,2,1:0:0:0:
98,84,26271,1,0,1:0:0:0:
72,129,26360,1,0,1:0:0:0:
74,181,26448,1,0,1:0:0:0:
103,223,26536,1,10,1:0:0:0:
176,153,26712,1,2,1:0:0:0:
346,226,26889,6,0,P|367:290|303:357,1,165.000006294251,2|2,1:0|0:0,0:0:0:0:
210,259,27242,2,0,P|229:335|306:356,1,165.000006294251,10|2,1:0|0:0,0:0:0:0:
464,265,27595,5,0,1:0:0:0:
392,155,27771,1,2,0:1:0:0:
464,265,27948,2,0,L|481:100,1,165.000006294251,10|0,1:0|1:0,0:0:0:0:
302,38,28301,21,2,1:1:0:0:
264,75,28389,1,0,0:1:0:0:
215,56,28477,1,0,0:1:0:0:
177,93,28565,1,0,0:1:0:0:
128,74,28654,1,10,1:1:0:0:
240,169,28830,1,0,0:0:0:0:
101,222,29007,2,2,P|361:304|302:38,1,660.000025177003,2|4,1:0|1:0,0:1:0:0:
256,192,29801,12,2,30771,0:0:0:0:
256,192,31124,5,2,1:0:0:0:
372,169,31301,1,2,0:0:0:0:
256,192,31477,2,0,P|210:130|103:169,1,165,8|0,0:0|0:0,0:0:0:0:
98,170,31830,5,2,0:0:0:0:
107,267,32007,1,0,0:0:0:0:
117,364,32183,1,8,0:0:0:0:
218,305,32360,5,0,0:0:0:0:
314,323,32536,1,2,0:0:0:0:
374,244,32712,1,0,0:0:0:0:
278,226,32889,1,8,0:0:0:0:
218,305,33065,1,0,0:0:0:0:
314,323,33242,1,2,0:0:0:0:
278,226,33418,5,2,0:0:0:0:
281,213,33595,1,2,0:0:0:0:
284,200,33771,1,2,0:0:0:0:
287,187,33948,1,2,1:0:0:0:
403,210,34124,5,2,0:0:0:0:
287,187,34301,2,0,P|241:249|134:210,1,165,8|0,0:0|0:0,0:0:0:0:
129,209,34654,5,2,0:0:0:0:
138,112,34830,1,0,0:0:0:0:
148,15,35007,1,8,0:0:0:0:
252,62,35183,5,0,0:0:0:0:
239,158,35360,1,2,0:0:0:0:
321,214,35536,1,0,0:0:0:0:
334,117,35712,1,8,0:0:0:0:
252,62,35889,1,0,0:0:0:0:
239,158,36065,1,2,0:0:0:0:
119,232,36242,5,2,0:0:0:0:
122,245,36418,1,2,0:0:0:0:
125,258,36595,1,2,0:0:0:0:
97,161,36771,1,2,1:0:0:0:
214,224,36948,5,2,0:0:0:0:
330,201,37124,2,0,P|376:263|483:224,1,165,8|0,0:0|0:0,0:0:0:0:
488,223,37477,5,2,0:0:0:0:
479,126,37654,1,0,0:0:0:0:
469,29,37830,1,8,0:0:0:0:
366,87,38007,5,2,0:0:0:0:
277,40,38183,1,2,0:0:0:0:
207,111,38360,1,0,0:0:0:0:
251,200,38536,1,8,0:0:0:0:
349,184,38712,1,0,0:0:0:0:
366,87,38889,1,2,1:0:0:0:
473,141,39065,5,2,0:0:0:0:
472,154,39242,2,0,L|464:265,1,110,8|2,0:0|0:0,0:0:0:0:
382,364,39595,6,0,P|338:298|260:303,1,165.000006294251,6|2,1:0|0:0,0:0:0:0:
159,263,39948,2,0,P|115:328|37:323,1,165.000006294251,10|2,1:0|0:0,0:0:0:0:
30,136,40301,5,0,1:0:0:0:
79,254,40477,1,2,0:1:0:0:
30,136,40654,2,0,L|195:153,1,165.000006294251,10|0,1:0|1:0,0:0:0:0:
321,88,41007,6,0,B|359:116|359:116|341:232,1,165.000006294251,2|2,1:0|0:0,0:0:0:0:
214,297,41360,2,0,B|176:269|176:269|193:152,1,165.000006294251,10|2,1:0|0:0,0:0:0:0:
272,33,41712,5,2,1:0:0:0:
230,4,41801,1,0,1:0:0:0:
178,2,41889,1,0,1:0:0:0:
133,28,41977,1,0,1:0:0:0:
109,73,42065,1,10,1:0:0:0:
202,106,42242,1,2,1:0:0:0:
101,216,42418,6,0,P|144:281|222:276,1,165.000006294251,2|2,1:0|0:0,0:0:0:0:
317,324,42771,2,0,P|360:258|438:263,1,165.000006294251,10|2,1:0|0:0,0:0:0:0:
374,121,43124,5,0,1:0:0:0:
489,179,43301,1,2,0:1:0:0:
374,121,43477,2,0,L|209:138,1,165.000006294251,10|0,1:0|1:0,0:0:0:0:
284,252,43830,21,2,1:0:0:0:
182,343,44007,1,2,0:1:0:0:
229,347,44095,1,0,0:1:0:0:
277,351,44183,1,8,1:1:0:0:
325,354,44271,1,0,0:1:0:0:
372,358,44360,1,2,0:1:0:0:
503,373,44536,1,2,1:0:0:0:
442,307,44712,38,0,L|446:251,2,55,2|0|8,0:0|0:0|0:0,0:0:0:0:
389,48,45242,22,0,P|310:43|266:108,1,165.000006294251,6|2,1:0|0:0,0:0:0:0:
323,191,45595,2,0,P|401:186|445:251,1,165.000006294251,10|2,1:0|0:0,0:0:0:0:
283,314,45948,5,0,1:0:0:0:
407,367,46124,1,2,0:1:0:0:
283,314,46301,2,0,L|115:334,1,165.000006294251,10|0,1:0|1:0,0:0:0:0:
20,246,46654,6,0,B|38:130|38:130|0:102,1,165.000006294251,2|2,1:0|0:0,0:0:0:0:
135,77,47007,2,0,B|117:193|117:193|155:221,1,165.000006294251,10|2,1:0|0:0,0:0:0:0:
273,152,47360,5,2,1:0:0:0:
315,181,47448,1,0,1:0:0:0:
367,183,47536,1,0,1:0:0:0:
412,157,47624,1,0,1:0:0:0:
436,112,47712,1,10,1:0:0:0:
343,79,47889,1,2,1:0:0:0:
485,196,48065,6,0,P|489:274|424:318,1,165.000006294251,2|2,1:0|0:0,0:0:0:0:
326,272,48418,2,0,P|330:193|265:149,1,165.000006294251,10|2,1:0|0:0,0:0:0:0:
126,174,48771,5,0,1:0:0:0:
198,284,48948,1,2,0:1:0:0:
126,174,49124,2,0,L|109:339,1,165.000006294251,10|0,1:0|1:0,0:0:0:0:
198,284,49477,1,2,1:0:0:0:
47,88,49830,5,2,0:0:0:0:
47,88,49918,1,0,0:0:0:0:
141,60,50095,1,0,0:0:0:0:
141,60,50183,1,0,0:0:0:0:
216,124,50360,1,0,0:0:0:0:
310,96,50536,1,2,0:0:0:0:
285,337,50889,22,0,P|372:370|423:274,1,220,4|2,0:0|0:0,0:0:0:0:
276,166,51595,5,0,0:0:0:0:
364,182,51771,1,2,0:0:0:0:
306,250,51948,1,2,0:0:0:0:
124,170,52301,5,2,0:0:0:0:
140,265,52477,1,0,0:0:0:0:
63,319,52654,1,0,0:0:0:0:
63,319,52742,1,0,0:0:0:0:
47,224,52918,1,0,0:0:0:0:
47,224,53007,1,0,0:0:0:0:
124,170,53183,1,0,0:0:0:0:
140,265,53360,1,2,0:0:0:0:
280,82,53712,22,0,P|367:49|418:145,1,220,0|2,0:0|0:0,0:0:0:0:
504,296,54418,5,0,0:0:0:0:
416,280,54595,1,2,0:0:0:0:
328,264,54771,1,2,0:0:0:0:
124,170,55124,5,2,0:0:0:0:
124,170,55212,1,0,0:0:0:0:
140,265,55389,1,0,0:0:0:0:
140,265,55477,1,0,0:0:0:0:
156,360,55654,1,0,0:0:0:0:
156,360,55742,1,0,0:0:0:0:
156,360,55830,1,2,0:0:0:0:
423,274,56536,22,0,P|381:366|285:337,1,220,0|2,0:0|0:0,0:0:0:0:
276,166,57242,5,0,0:0:0:0:
364,182,57418,1,2,0:0:0:0:
306,250,57595,1,2,0:0:0:0:
124,170,57948,5,2,0:0:0:0:
140,265,58124,1,0,0:0:0:0:
47,224,58301,1,0,0:0:0:0:
85,340,58477,1,0,0:0:0:0:
85,340,58565,1,0,0:0:0:0:
85,340,58654,1,0,0:0:0:0:
85,340,58742,1,0,0:0:0:0:
85,340,58830,1,0,0:0:0:0:
85,340,58918,1,0,0:0:0:0:
85,340,59007,1,2,0:0:0:0:
354,209,59360,22,0,P|312:117|215:146,1,220,0|2,0:0|0:0,0:0:0:0:
286,320,60065,5,0,0:0:0:0:
374,304,60242,1,2,0:0:0:0:
462,288,60418,1,2,0:0:0:0:
357,68,60771,21,2,2:1:0:0:
319,105,60860,1,0,2:0:0:0:
270,86,60948,1,0,2:0:0:0:
232,123,61036,1,0,2:0:0:0:
183,104,61124,1,2,2:1:0:0:
75,186,61301,1,0,0:0:0:0:
196,247,61477,1,2,0:1:0:0:
88,329,61654,1,2,2:1:0:0:
50,292,61742,1,0,2:0:0:0:
1,311,61830,1,2,2:1:0:0:
386,263,62183,6,0,P|417:325|461:234,3,220,6|2|10|2,1:0|0:0|1:0|0:0,0:0:0:0:
270,145,62889,5,0,1:0:0:0:
402,176,63065,1,2,0:1:0:0:
270,145,63242,2,0,L|284:311,1,165.000006294251,10|0,1:0|1:0,0:0:0:0:
29,272,63595,6,0,B|99:267|99:267|113:278|113:278|195:272,1,165.000006294251,2|2,1:0|0:0,0:0:0:0:
0,360,63948,2,0,B|70:355|70:355|84:366|84:366|166:360,1,165.000006294251,10|2,1:0|0:0,0:0:0:0:
322,297,64301,5,2,1:0:0:0:
293,255,64389,1,0,1:0:0:0:
291,203,64477,1,0,1:0:0:0:
317,158,64565,1,0,1:0:0:0:
362,134,64654,1,10,1:0:0:0:
395,227,64830,1,2,1:0:0:0:
485,105,65007,6,0,P|454:43|410:134,3,220,2|2|10|2,1:0|0:0|1:0|0:0,0:0:0:0:
249,34,65712,5,0,1:0:0:0:
285,160,65889,1,2,0:1:0:0:
249,34,66065,2,0,L|83:48,1,165.000006294251,10|0,1:0|1:0,0:0:0:0:
50,189,66418,21,2,1:0:0:0:
165,137,66595,1,2,0:1:0:0:
169,184,66683,1,0,0:1:0:0:
173,232,66771,1,8,1:1:0:0:
176,280,66860,1,0,0:1:0:0:
180,327,66948,1,2,0:1:0:0:
295,275,67124,1,2,1:0:0:0:
396,370,67301,38,0,L|400:314,2,55,2|0|8,0:0|0:0|0:0,0:0:0:0:
66,73,67830,22,0,P|97:135|141:44,3,220,2|2|10|2,1:0|0:0|1:0|0:0,0:0:0:0:
268,158,68536,5,0,1:0:0:0:
317,33,68712,1,2,0:1:0:0:
448,66,68889,2,0,L|434:232,1,165.000006294251,10|0,1:0|1:0,0:0:0:0:
225,337,69242,6,0,B|253:375|253:375|369:357,1,165.000006294251,2|2,1:0|0:0,0:0:0:0:
434,230,69595,2,0,B|406:192|406:192|289:209,1,165.000006294251,10|2,1:0|0:0,0:0:0:0:
189,128,69948,5,2,1:0:0:0:
147,157,70036,1,0,1:0:0:0:
95,159,70124,1,0,1:0:0:0:
50,133,70212,1,0,1:0:0:0:
26,88,70301,1,10,1:0:0:0:
119,55,70477,1,2,1:0:0:0:
246,152,70654,6,0,P|277:90|321:181,3,220,2|2|10|2,1:0|0:0|1:0|0:0,0:0:0:0:
150,236,71360,5,0,1:0:0:0:
172,372,71536,1,2,0:1:0:0:
60,291,71712,2,0,L|73:126,1,165.000006294251,10|0,1:0|1:0,0:0:0:0:
271,24,72065,21,2,1:0:0:0:
140,48,72242,1,2,0:0:0:0:
291,122,72418,1,10,1:0:0:0:
160,146,72595,1,2,0:0:0:0:
256,307,72771,37,6,0:1:0:0:
