osu file format v14

[General]
AudioFilename: audio.mp3
AudioLeadIn: 0
PreviewTime: 18330
Countdown: 0
SampleSet: Soft
StackLeniency: 0.5
Mode: 0
LetterboxInBreaks: 0
WidescreenStoryboard: 1

[Editor]
Bookmarks: 5713,11360,18418,31124,39595,50889,62183,73477
DistanceSpacing: 1.2
BeatDivisor: 4
GridSize: 4
TimelineZoom: 1

[Metadata]
Title:Temotemote~
TitleUnicode:てもてもて~♪
Artist:Kyatatsu
ArtistUnicode:脚立
Creator:Sonnyc
Version:Hard
Source:
Tags:Lucky Star konata らき☆すた Cartoons Witch Doctor ニコニコ動画 Nico Douga 音MAD Anime Novelty Japanese English
BeatmapID:2286234
BeatmapSetID:1093626

[Difficulty]
HPDrainRate:5
CircleSize:3.7
OverallDifficulty:7
ApproachRate:8
SliderMultiplier:1.8
SliderTickRate:1

[Events]
//Background and Video events
0,0,"bg.jpg",0,0
//Break Periods
//Storyboard Layer 0 (Background)
//Storyboard Layer 1 (Fail)
//Storyboard Layer 2 (Pass)
//Storyboard Layer 3 (Foreground)
//Storyboard Layer 4 (Overlay)
//Storyboard Sound Samples

[TimingPoints]
5713,352.941176470588,4,2,1,50,1,0
5713,-125,4,2,1,50,0,0
11360,-100,4,2,1,60,0,0
18418,-76.9230769230769,4,2,1,70,0,1
23007,-66.6666666666667,4,2,1,70,0,1
23360,-58.8235294117647,4,2,1,70,0,1
23712,-76.9230769230769,4,2,1,70,0,1
29712,-66.6666666666667,4,2,1,70,0,0
31124,-100,4,2,1,60,0,0
39595,-76.9230769230769,4,2,1,70,0,1
49477,-100,4,2,1,70,0,0
50889,-100,4,2,1,60,0,0
62183,-66.6666666666667,4,2,1,70,0,1
62889,-76.9230769230769,4,2,1,70,0,1
65007,-66.6666666666667,4,2,1,70,0,1
65712,-76.9230769230769,4,2,1,70,0,1
67830,-66.6666666666667,4,2,1,70,0,1
68536,-76.9230769230769,4,2,1,70,0,1
70654,-66.6666666666667,4,2,1,70,0,1
71360,-76.9230769230769,4,2,1,70,0,1
72771,-76.9230769230769,4,2,1,70,0,0

[Colours]
Combo1 : 255,128,64
Combo2 : 0,255,128
Combo3 : 128,128,255
Combo4 : 255,0,128

[HitObjects]
53,285,5713,6,0,P|41:227|102:175,2,144,2|2|0,0:0|0:0|0:0,0:0:0:0:
122,335,6595,2,0,L|194:330,1,72,2|2,0:0|0:0,0:0:0:0:
363,363,7124,6,0,L|347:218,1,144,2|2,0:0|0:0,0:0:0:0:
474,260,7830,2,0,L|478:296,4,36,0|0|0|0|0,1:0|1:0|1:0|1:0|1:0,0:0:0:0:
462,176,8360,1,2,0:0:0:0:
394,127,8536,6,0,P|406:69|345:17,2,144,2|2|0,0:0|0:0|0:0,0:0:0:0:
325,177,9418,2,0,L|253:172,1,72,2|2,0:0|0:0,0:0:0:0:
103,95,9948,5,2,0:0:0:0:
103,95,10124,2,0,L|66:99,4,36,0|0|0|0|2,0:0|0:0|0:0|0:0|0:0,0:0:0:0:
189,86,10654,1,2,0:0:0:0:
75,294,11360,6,0,P|50:236|136:189,2,180,0|0|0,1:0|1:0|1:0,0:0:0:0:
163,338,12242,1,2,0:0:0:0:
163,338,12418,2,0,L|254:335,1,90,0|0,1:0|1:0,0:0:0:0:
348,360,12771,6,0,B|341:287|341:287|353:260|353:260|344:183,1,180,0|0,1:0|1:0,0:0:0:0:
166,95,13477,1,0,1:0:0:0:
166,95,13565,1,0,0:0:0:0:
166,95,13654,2,0,L|121:90,2,45,2|0|0,0:0|0:0|1:0,0:0:0:0:
265,105,14007,1,2,0:0:0:0:
242,201,14183,6,0,P|300:226|347:140,2,180,0|0|0,1:0|1:0|1:0,0:0:0:0:
198,113,15065,1,2,0:0:0:0:
198,113,15242,2,0,L|201:22,1,90,0|0,1:0|1:0,0:0:0:0:
108,61,15595,5,0,1:0:0:0:
108,61,15771,1,2,0:0:0:0:
102,160,15948,1,0,1:0:0:0:
102,160,16124,1,2,0:0:0:0:
96,259,16301,2,0,P|142:321|238:298,1,180,0|0,1:0|1:0,0:0:0:0:
256,192,17007,12,2,18065,0:1:0:0:
425,108,18418,6,0,P|414:58|343:50,1,116.999994644165,6|2,1:0|0:0,0:0:0:0:
273,90,18771,2,0,P|284:139|355:148,1,116.999994644165,10|2,1:0|0:0,0:0:0:0:
426,198,19124,5,0,1:0:0:0:
363,268,19301,1,2,0:1:0:0:
400,354,19477,1,10,1:0:0:0:
274,214,19830,6,0,B|188:204|188:204|167:226,1,116.999994644165,2|2,1:0|0:0,0:0:0:0:
139,137,20183,2,0,B|118:159|118:159|33:149,1,116.999994644165,10|2,1:0|0:0,0:0:0:0:
93,77,20536,5,2,1:0:0:0:
93,77,20624,1,0,1:0:0:0:
93,77,20712,2,0,B|7:66,2,58.4999973220826,2|0|10,1:0|1:0|1:0,0:0:0:0:
186,90,21065,1,2,1:1:0:0:
189,184,21242,6,0,P|178:233|108:242,1,116.999994644165,2|2,1:0|0:0,0:0:0:0:
37,202,21595,2,0,P|48:152|119:144,1,116.999994644165,10|2,1:0|0:0,0:0:0:0:
186,90,21948,5,0,1:0:0:0:
273,124,22124,1,2,0:1:0:0:
334,52,22301,1,10,1:0:0:0:
470,258,22654,22,0,P|425:237|392:299,1,116.999994644165,2|2,1:0|0:0,0:0:0:0:
298,264,23007,2,0,P|253:285|220:222,1,135.000005149842,10|2,1:0|0:0,0:0:0:0:
140,273,23360,2,0,P|86:248|47:322,1,153.000002918243,2|2,1:0|0:0,0:0:0:0:
121,362,23712,1,8,1:0:0:0:
44,111,24065,6,0,P|63:157|135:153,1,116.999994644165,6|2,1:0|0:0,0:0:0:0:
128,67,24418,2,0,P|184:68|209:118,1,116.999994644165,10|2,1:0|0:0,0:0:0:0:
194,211,24771,5,0,1:0:0:0:
284,186,24948,1,2,0:1:0:0:
347,254,25124,1,10,1:0:0:0:
229,111,25477,6,0,B|315:100|315:100|336:123,1,116.999994644165,2|2,1:0|0:0,0:0:0:0:
363,33,25830,2,0,B|384:56|384:56|470:45,1,116.999994644165,10|2,1:0|0:0,0:0:0:0:
439,134,26183,5,2,1:0:0:0:
439,134,26271,1,0,1:0:0:0:
439,134,26360,2,0,B|525:123,2,58.4999973220826,2|0|10,1:0|1:0|1:0,0:0:0:0:
345,145,26712,1,2,1:0:0:0:
253,125,26889,6,0,P|206:144|209:215,1,116.999994644165,2|2,1:0|0:0,0:0:0:0:
294,216,27242,2,0,P|292:271|242:296,1,116.999994644165,10|2,1:0|0:0,0:0:0:0:
149,280,27595,5,0,1:0:0:0:
59,305,27771,1,2,0:1:0:0:
122,374,27948,1,10,1:0:0:0:
302,323,28301,21,2,1:0:0:0:
302,323,28389,1,0,0:0:0:0:
302,323,28477,1,2,0:1:0:0:
302,323,28565,1,0,0:0:0:0:
302,323,28654,2,0,L|294:206,1,116.999994644165,10|0,1:0|0:0,0:0:0:0:
370,149,29007,2,2,P|194:81|195:291,1,467.999978576661,2|4,1:0|1:0,0:1:0:0:
256,192,29801,12,2,31124,1:0:0:0:
256,192,31477,6,0,P|276:144|390:153,2,180,8|2|8,0:0|0:0|0:0,0:0:0:0:
282,279,32360,1,0,0:0:0:0:
282,279,32536,2,0,P|363:304|414:236,2,180,2|8|2,0:0|0:0|0:0,0:0:0:0:
117,352,33595,37,10,0:0:0:0:
117,352,33771,1,2,0:0:0:0:
117,352,33948,1,2,1:0:0:0:
204,194,34301,22,0,P|156:174|165:60,2,180,8|2|8,0:0|0:0|0:0,0:0:0:0:
278,141,35183,1,0,0:0:0:0:
278,141,35360,2,0,P|326:161|317:275,2,180,2|8|2,0:0|0:0|0:0,0:0:0:0:
442,66,36418,21,10,0:0:0:0:
442,66,36595,1,2,0:0:0:0:
442,66,36771,1,6,1:0:0:0:
281,151,37124,38,0,P|198:140|159:215,2,180,8|2|8,0:0|0:0|0:0,0:0:0:0:
341,219,38007,1,0,0:0:0:0:
341,219,38183,2,0,P|352:302|277:341,2,180,2|8|2,0:0|0:0|0:0,0:0:0:0:
374,134,39065,5,2,0:0:0:0:
374,134,39242,1,8,0:0:0:0:
374,134,39418,1,2,0:0:0:0:
277,93,39595,6,0,P|221:104|206:158,1,116.999994644165,6|2,1:0|0:0,0:0:0:0:
114,130,39948,2,0,P|96:184|135:224,1,116.999994644165,10|2,1:0|0:0,0:0:0:0:
81,302,40301,5,0,1:0:0:0:
175,319,40477,1,2,0:1:0:0:
269,336,40654,1,10,1:1:0:0:
387,184,41007,6,0,B|364:163|364:163|374:75,1,116.999994644165,2|2,1:0|0:0,0:0:0:0:
457,26,41360,2,0,B|480:47|480:47|469:135,1,116.999994644165,10|2,1:0|0:0,0:0:0:0:
457,229,41712,5,2,1:0:0:0:
457,229,41801,1,0,1:0:0:0:
457,229,41889,2,0,B|446:316,2,58.4999973220826,2|0|10,1:0|1:0|1:0,0:0:0:0:
470,134,42242,1,2,1:1:0:0:
387,184,42418,6,0,P|331:174|316:120,1,116.999994644165,2|2,1:0|0:0,0:0:0:0:
222,149,42771,2,0,P|204:96|243:55,1,116.999994644165,10|2,1:0|0:0,0:0:0:0:
315,121,43124,5,0,1:0:0:0:
406,90,43301,1,2,0:1:0:0:
472,161,43477,1,10,1:0:0:0:
325,295,43830,21,2,1:0:0:0:
419,308,44007,1,2,0:1:0:0:
419,308,44095,1,0,0:0:0:0:
419,308,44183,2,0,B|507:319,2,58.4999973220826,10|0|2,1:0|0:0|0:1,0:0:0:0:
325,295,44536,1,2,1:1:0:0:
441,40,45242,6,0,P|431:96|377:111,1,116.999994644165,6|2,1:0|0:0,0:0:0:0:
404,203,45595,2,0,P|351:221|310:182,1,116.999994644165,10|2,1:0|0:0,0:0:0:0:
232,236,45948,5,0,1:0:0:0:
215,142,46124,1,2,0:1:0:0:
198,48,46301,1,10,1:1:0:0:
33,138,46654,6,0,B|56:159|56:159|46:247,1,116.999994644165,2|2,1:0|0:0,0:0:0:0:
131,203,47007,2,0,B|121:290|121:290|144:312,1,116.999994644165,10|2,1:0|0:0,0:0:0:0:
216,247,47360,5,2,1:0:0:0:
216,247,47448,1,0,1:0:0:0:
216,247,47536,2,0,B|226:159,2,58.4999973220826,2|0|10,1:0|1:0|1:0,0:0:0:0:
245,338,47889,1,2,1:1:0:0:
308,266,48065,6,0,P|364:256|379:202,1,116.999994644165,2|2,1:0|0:0,0:0:0:0:
471,229,48418,2,0,P|489:176|450:135,1,116.999994644165,10|2,1:0|0:0,0:0:0:0:
379,203,48771,5,0,1:0:0:0:
313,131,48948,1,2,0:1:0:0:
221,159,49124,1,10,1:0:0:0:
401,65,49477,1,2,1:0:0:0:
494,235,49830,6,0,L|490:279,1,45,2|0,0:0|0:0,0:0:0:0:
402,260,50095,2,0,L|398:304,1,45
310,285,50360,1,0,0:0:0:0:
310,285,50536,1,2,0:0:0:0:
428,149,50889,22,0,P|436:85|331:68,2,180,4|2|0,0:0|0:0|0:0,0:0:0:0:
337,151,51771,1,2,0:0:0:0:
337,151,51948,1,2,0:0:0:0:
494,235,52301,21,2,0:0:0:0:
494,235,52477,1,0,0:0:0:0:
402,260,52654,2,0,L|398:304,1,45,2|0,0:0|0:0,0:0:0:0:
310,285,52918,2,0,L|306:329,1,45
218,310,53183,1,0,0:0:0:0:
218,310,53360,1,2,0:0:0:0:
90,183,53712,22,0,P|146:212|198:119,2,180,0|2|0,0:0|0:0|0:0,0:0:0:0:
120,96,54595,1,2,0:0:0:0:
120,96,54771,1,2,0:0:0:0:
298,119,55124,22,0,L|302:163,1,45,2|0,0:0|0:0,0:0:0:0:
390,144,55389,2,0,L|394:188,1,45
482,169,55654,2,0,L|486:213,2,45,0|0|2,0:0|0:0|0:0,0:0:0:0:
223,270,56536,22,0,P|219:333|114:332,2,180,0|2|0,0:0|0:0|0:0,0:0:0:0:
133,252,57418,1,2,0:0:0:0:
133,252,57595,1,2,0:0:0:0:
270,136,57948,21,2,0:0:0:0:
270,136,58124,1,0,0:0:0:0:
270,136,58301,1,0,0:0:0:0:
362,161,58477,2,0,L|366:205,6,45,0|0|0|0|0|0|2,0:0|0:0|0:0|0:0|0:0|0:0|0:0,0:0:0:0:
192,222,59360,22,0,P|162:278|255:330,2,180,0|2|0,0:0|0:0|0:0,0:0:0:0:
279,252,60242,1,2,0:0:0:0:
279,252,60418,1,2,0:0:0:0:
381,104,60771,37,2,0:1:0:0:
381,104,60860,1,0,0:0:0:0:
381,104,60948,2,0,L|386:155,2,45,2|0|2,0:1|0:0|0:1,0:0:0:0:
300,63,61301,1,0,0:0:0:0:
243,133,61477,1,2,0:1:0:0:
162,92,61654,2,0,L|158:48,2,45,2|0|2,0:1|0:0|0:1,0:0:0:0:
24,325,62183,6,0,P|45:276|117:282,3,135.000005149842,6|2|10|2,1:0|0:0|1:0|0:0,0:0:0:0:
197,232,62889,5,0,1:0:0:0:
287,252,63065,1,2,0:1:0:0:
377,272,63242,1,10,1:0:0:0:
467,108,63595,6,0,B|381:118|381:118|360:96,1,116.999994644165,2|2,1:0|0:0,0:0:0:0:
278,143,63948,2,0,B|257:121|257:121|172:131,1,116.999994644165,10|2,1:0|0:0,0:0:0:0:
227,215,64301,5,2,1:0:0:0:
227,215,64389,1,0,1:0:0:0:
227,215,64477,2,0,B|141:226,2,58.4999973220826,2|0|10,1:0|1:0|1:0,0:0:0:0:
320,202,64830,1,2,1:1:0:0:
406,248,65007,6,0,P|468:235|499:290,3,135.000005149842,2|2|10|2,1:0|0:0|1:0|0:0,0:0:0:0:
422,344,65712,5,0,1:0:0:0:
332,324,65889,1,2,0:1:0:0:
242,304,66065,1,10,1:0:0:0:
364,162,66418,21,2,1:0:0:0:
351,68,66595,1,2,0:1:0:0:
351,68,66683,1,0,0:0:0:0:
351,68,66771,2,0,B|340:-20,2,58.4999973220826,10|0|2,1:0|0:0|0:1,0:0:0:0:
364,162,67124,1,2,1:1:0:0:
79,55,67830,6,0,P|30:76|36:148,3,135.000005149842,2|2|10|2,1:0|0:0|1:0|0:0,0:0:0:0:
115,199,68536,5,0,1:0:0:0:
32,242,68712,1,2,0:1:0:0:
110,294,68889,1,10,1:0:0:0:
257,179,69242,6,0,B|234:158|234:158|244:70,1,116.999994644165,2|2,1:0|0:0,0:0:0:0:
327,21,69595,2,0,B|350:42|350:42|339:130,1,116.999994644165,10|2,1:0|0:0,0:0:0:0:
433,125,69948,5,2,1:0:0:0:
433,125,70036,1,0,1:0:0:0:
433,125,70124,2,0,B|444:39,2,58.4999973220826,2|0|10,1:0|1:0|1:0,0:0:0:0:
420,218,70477,1,2,1:1:0:0:
348,283,70654,6,0,P|360:345|305:376,3,135.000005149842,2|2|10|2,1:0|0:0|1:0|0:0,0:0:0:0:
255,296,71360,5,0,1:1:0:0:
167,329,71536,1,2,0:1:0:0:
185,236,71712,1,10,1:0:0:0:
73,85,72065,21,2,1:0:0:0:
73,85,72242,1,2,0:0:0:0:
163,109,72418,1,2,1:0:0:0:
163,109,72595,1,2,0:0:0:0:
85,206,72771,37,6,0:1:0:0:
