osu file format v14

[General]
AudioFilename: audio.mp3
AudioLeadIn: 0
PreviewTime: 18330
Countdown: 0
SampleSet: Soft
StackLeniency: 0
Mode: 0
LetterboxInBreaks: 0
WidescreenStoryboard: 1

[Editor]
Bookmarks: 5713,11360,18418,31124,39595,50889,62183,73477
DistanceSpacing: 0.6
BeatDivisor: 4
GridSize: 4
TimelineZoom: 1

[Metadata]
Title:Temotemote~
TitleUnicode:てもてもて~♪
Artist:Kyatatsu
ArtistUnicode:脚立
Creator:Sonnyc
Version:Expert
Source:
Tags:Lucky Star konata らき☆すた Cartoons Witch Doctor ニコニコ動画 Nico Douga 音MAD Anime Novelty Japanese English
BeatmapID:2285947
BeatmapSetID:1093626

[Difficulty]
HPDrainRate:5
CircleSize:4.3
OverallDifficulty:8.7
ApproachRate:9.2
SliderMultiplier:3
SliderTickRate:1

[Events]
//Background and Video events
0,0,"bg.jpg",0,0
//Break Periods
//Storyboard Layer 0 (Background)
//Storyboard Layer 1 (Fail)
//Storyboard Layer 2 (Pass)
//Storyboard Layer 3 (Foreground)
//Storyboard Layer 4 (Overlay)
//Storyboard Sound Samples

[TimingPoints]
5713,352.941176470588,4,2,1,50,1,0
5713,-166.666666666667,4,2,1,50,0,0
11360,-100,4,2,1,60,0,0
18418,-66.6666666666667,4,2,1,70,0,1
23007,-57.1428571428571,4,2,1,70,0,1
23360,-50,4,2,1,70,0,1
23712,-66.6666666666667,4,2,1,70,0,1
29712,-66.6666666666667,4,2,1,70,0,0
31124,-100,4,2,1,60,0,0
39595,-66.6666666666667,4,2,1,70,0,1
44712,-100,4,2,1,70,0,1
45242,-66.6666666666667,4,2,1,70,0,1
49477,-66.6666666666667,4,2,1,70,0,0
50889,-100,4,2,1,60,0,0
60771,-125,4,2,1,60,0,0
62183,-50,4,2,1,70,0,1
62271,-50,4,2,1,5,0,1
62360,-50,4,2,1,70,0,1
62624,-50,4,2,1,5,0,1
62712,-50,4,2,1,70,0,1
62889,-66.6666666666667,4,2,1,70,0,1
65007,-50,4,2,1,70,0,1
65095,-50,4,2,1,5,0,1
65183,-50,4,2,1,70,0,1
65448,-50,4,2,1,5,0,1
65536,-50,4,2,1,70,0,1
65712,-66.6666666666667,4,2,1,70,0,1
67300,-100,4,2,1,70,0,1
67830,-50,4,2,1,70,0,1
67918,-50,4,2,1,5,0,1
68007,-50,4,2,1,70,0,1
68271,-50,4,2,1,5,0,1
68360,-50,4,2,1,70,0,1
68536,-66.6666666666667,4,2,1,70,0,1
70654,-50,4,2,1,70,0,1
70742,-50,4,2,1,5,0,1
70830,-50,4,2,1,70,0,1
71095,-50,4,2,1,5,0,1
71183,-50,4,2,1,70,0,1
71360,-66.6666666666667,4,2,1,70,0,1
72771,-66.6666666666667,4,2,1,70,0,0

[Colours]
Combo1 : 255,128,64
Combo2 : 0,255,128
Combo3 : 128,128,255
Combo4 : 255,0,128

[HitObjects]
240,41,5713,6,0,P|189:111|107:84,1,179.999994506836,2|2,0:0|0:0,0:0:0:0:
319,123,6418,5,0,0:0:0:0:
329,207,6595,1,2,0:0:0:0:
339,291,6771,1,2,0:0:0:0:
78,254,7124,6,0,L|87:346,1,89.9999972534181,2|0,0:0|0:0,0:0:0:0:
168,335,7477,2,0,L|159:245,1,89.9999972534181,2|0,0:0|0:0,0:0:0:0:
112,143,7830,5,2,1:2:0:0:
112,143,7918,1,0,1:0:0:0:
112,143,8007,1,0,1:0:0:0:
112,143,8095,1,0,1:0:0:0:
112,143,8183,1,2,1:2:0:0:
201,125,8360,1,0,1:0:0:0:
263,245,8536,6,0,P|181:222|132:291,1,179.999994506836,2|2,0:0|0:0,0:0:0:0:
352,350,9242,5,0,0:0:0:0:
362,266,9418,1,2,0:0:0:0:
372,182,9595,1,2,0:0:0:0:
308,97,9771,21,0,0:0:0:0:
308,97,9948,1,2,0:0:0:0:
240,150,10124,1,2,0:0:0:0:
220,149,10212,1,0,0:0:0:0:
200,147,10301,1,0,0:0:0:0:
181,145,10389,1,0,0:0:0:0:
161,144,10477,1,2,0:0:0:0:
74,137,10654,1,2,0:0:0:0:
430,275,11360,6,0,P|431:204|365:178,1,150,0|2,1:0|0:0,0:0:0:0:
278,234,11712,2,0,P|278:305|344:331,1,150,0|2,1:0|0:0,0:0:0:0:
309,97,12065,5,0,1:0:0:0:
356,255,12242,1,2,0:0:0:0:
309,97,12418,2,0,L|157:116,1,150,0|0,1:0|1:0,0:0:0:0:
49,230,12771,6,0,B|112:237|112:237|128:225|128:225|193:233,1,150,0|2,1:0|0:0,0:0:0:0:
306,312,13124,2,0,B|242:304|242:304|226:316|226:316|161:308,1,150,0|2,1:0|0:0,0:0:0:0:
306,210,13477,5,0,1:0:0:0:
348,239,13565,1,0,0:0:0:0:
400,241,13654,1,2,0:0:0:0:
445,215,13742,1,0,0:0:0:0:
469,170,13830,1,0,1:0:0:0:
376,137,14007,1,2,0:0:0:0:
236,241,14183,6,0,P|165:241|139:175,1,150,0|2,1:0|0:0,0:0:0:0:
195,89,14536,2,0,P|266:88|293:154,1,150,0|2,1:0|0:0,0:0:0:0:
246,319,14889,5,0,1:0:0:0:
215,165,15065,1,2,0:0:0:0:
246,319,15242,2,0,L|399:338,1,150,0|0,1:0|1:0,0:0:0:0:
511,225,15595,21,0,1:0:0:0:
379,249,15771,1,2,0:0:0:0:
451,136,15948,1,0,1:0:0:0:
319,160,16124,1,2,0:0:0:0:
391,47,16301,2,0,P|305:11|218:169,1,300,0|0,1:0|1:0,0:0:0:0:
256,192,17007,12,2,18065,0:1:0:0:
455,353,18418,6,0,P|484:301|370:228,1,225.000008583069,6|2,1:0|0:0,0:0:0:0:
349,339,18771,2,0,P|400:368|473:254,1,225.000008583069,10|2,1:0|0:0,0:0:0:0:
358,75,19124,5,0,1:0:0:0:
410,294,19301,1,2,0:1:0:0:
358,75,19477,2,0,B|348:33|348:33|166:10,1,225.000008583069,10|0,1:0|1:0,0:0:0:0:
7,262,19830,6,0,B|102:250|102:250|127:269|127:269|224:257,1,225.000008583069,2|2,1:0|0:0,0:0:0:0:
504,316,20183,2,0,B|409:328|409:328|384:309|384:309|287:321,1,225.000008583069,10|2,1:0|0:0,0:0:0:0:
435,130,20536,5,2,1:0:0:0:
396,62,20624,1,0,1:0:0:0:
332,17,20712,1,2,1:0:0:0:
256,1,20801,1,0,1:0:0:0:
180,18,20889,1,10,1:0:0:0:
435,130,21065,1,2,1:0:0:0:
131,233,21242,6,0,P|102:285|216:358,1,225.000008583069,2|2,1:0|0:0,0:0:0:0:
237,247,21595,2,0,P|186:218|113:332,1,225.000008583069,10|2,1:0|0:0,0:0:0:0:
399,248,21948,5,0,1:0:0:0:
177,294,22124,1,2,0:1:0:0:
399,248,22301,2,0,B|449:233|449:233|459:47,1,225.000008583069,10|0,1:0|1:0,0:0:0:0:
80,208,22654,22,0,P|91:159|138:240,1,225.000008583069,2|0,1:0|0:0,0:0:0:0:
320,51,23007,2,0,P|360:107|247:93,1,262.500002503395,10|0,1:0|0:0,0:0:0:0:
342,363,23360,2,0,P|263:379|321:256,1,300,2|0,1:0|0:0,0:0:0:0:
80,208,23712,1,8,1:0:0:0:
462,146,24065,6,0,P|491:94|377:21,1,225.000008583069,6|2,1:0|0:0,0:0:0:0:
349,122,24418,2,0,P|374:22|475:40,1,225.000008583069,10|2,1:0|0:0,0:0:0:0:
483,300,24771,5,0,1:0:0:0:
416,86,24948,1,2,0:1:0:0:
483,300,25124,2,0,B|501:355|501:355|334:332,1,225.000008583069,10|0,1:0|1:0,0:0:0:0:
268,20,25477,6,0,B|363:32|363:32|388:13|388:13|485:25,1,225.000008583069,2|2,1:0|0:0,0:0:0:0:
223,112,25830,2,0,B|128:100|128:100|103:119|103:119|6:107,1,225.000008583069,10|2,1:0|0:0,0:0:0:0:
138,339,26183,5,2,1:0:0:0:
177,271,26271,1,0,1:0:0:0:
241,226,26360,1,2,1:0:0:0:
317,210,26448,1,0,1:0:0:0:
393,227,26536,1,10,1:0:0:0:
138,339,26712,1,2,1:0:0:0:
164,41,26889,6,0,P|112:12|39:126,1,225.000008583069,2|2,1:0|0:0,0:0:0:0:
140,154,27242,2,0,P|40:129|58:28,1,225.000008583069,10|2,1:0|0:0,0:0:0:0:
322,137,27595,5,0,1:0:0:0:
103,87,27771,1,2,0:1:0:0:
322,137,27948,2,0,B|271:127|271:127|286:299,1,225.000008583069,10|0,1:0|1:0,0:0:0:0:
10,340,28301,21,2,1:0:0:0:
82,306,28389,1,0,0:1:0:0:
137,360,28477,1,0,0:1:0:0:
209,326,28565,1,0,0:1:0:0:
264,380,28654,1,10,1:0:0:0:
68,173,28830,1,0,0:0:0:0:
315,36,29007,2,2,P|187:44|417:134,1,900.000034332277,2|4,1:0|1:0,0:1:0:0:
256,192,29801,12,2,30771,0:0:0:0:
73,149,31124,5,2,1:0:0:0:
115,306,31301,1,2,0:0:0:0:
73,149,31477,2,0,P|152:194|205:95,1,225,8|0,0:0|0:0,0:0:0:0:
140,124,31830,5,2,0:0:0:0:
298,162,32007,1,0,0:0:0:0:
140,124,32183,1,8,0:0:0:0:
293,277,32360,5,0,0:0:0:0:
394,213,32536,1,2,0:0:0:0:
408,93,32712,1,0,0:0:0:0:
323,9,32889,1,8,0:0:0:0:
203,22,33065,1,0,0:0:0:0:
140,124,33242,1,2,0:0:0:0:
293,277,33418,5,2,0:0:0:0:
168,264,33595,1,10,0:0:0:0:
297,291,33771,1,2,0:0:0:0:
172,278,33948,1,2,1:0:0:0:
289,63,34124,5,2,0:0:0:0:
247,220,34301,2,0,P|326:175|379:274,1,225,8|0,0:0|0:0,0:0:0:0:
314,245,34654,5,2,0:0:0:0:
472,207,34830,1,0,0:0:0:0:
314,245,35007,1,8,0:0:0:0:
161,92,35183,5,0,0:0:0:0:
60,156,35360,1,2,0:0:0:0:
46,276,35536,1,0,0:0:0:0:
131,360,35712,1,8,0:0:0:0:
251,347,35889,1,0,0:0:0:0:
314,245,36065,1,2,0:0:0:0:
161,92,36242,5,2,0:0:0:0:
174,217,36418,1,10,0:0:0:0:
147,88,36595,1,2,0:0:0:0:
169,306,36771,1,6,1:0:0:0:
323,212,36948,5,2,0:0:0:0:
107,243,37124,2,0,P|148:150|241:192,1,225,8|0,0:0|0:0,0:0:0:0:
174,217,37477,5,2,0:0:0:0:
198,59,37654,1,0,0:0:0:0:
174,217,37830,1,8,0:0:0:0:
425,273,38007,5,2,0:0:0:0:
409,114,38183,1,2,0:0:0:0:
254,80,38360,1,0,0:0:0:0:
174,217,38536,1,8,0:0:0:0:
280,334,38712,1,0,0:0:0:0:
425,273,38889,1,6,1:0:0:0:
174,217,39065,5,2,0:0:0:0:
183,299,39242,1,8,0:0:0:0:
192,381,39418,1,2,0:0:0:0:
501,120,39595,6,0,P|398:129|379:28,1,225.000008583069,6|2,1:0|0:0,0:0:0:0:
248,48,39948,2,0,P|146:37|126:137,1,225.000008583069,10|2,1:0|0:0,0:0:0:0:
243,319,40301,5,0,1:0:0:0:
194,99,40477,1,2,0:1:0:0:
243,319,40654,2,0,B|219:355|219:355|39:328,1,225.000008583069,10|0,1:0|1:0,0:0:0:0:
410,85,41007,6,0,B|357:126|357:126|372:286,1,225.000008583069,2|2,1:0|0:0,0:0:0:0:
497,42,41360,2,0,B|511:199|511:199|458:240,1,225.000008583069,10|2,1:0|0:0,0:0:0:0:
125,39,41712,5,2,1:0:0:0:
193,78,41801,1,0,1:0:0:0:
238,142,41889,1,2,1:0:0:0:
254,218,41977,1,0,1:0:0:0:
237,294,42065,1,10,1:0:0:0:
125,39,42242,1,2,1:0:0:0:
25,327,42418,6,0,P|128:336|147:235,1,225.000008583069,2|2,1:0|0:0,0:0:0:0:
278,255,42771,2,0,P|380:244|400:344,1,225.000008583069,10|2,1:0|0:0,0:0:0:0:
261,92,43124,5,0,1:0:0:0:
336,304,43301,1,2,0:1:0:0:
261,92,43477,2,0,B|211:107|211:107|201:293,1,225.000008583069,10|0,1:0|1:0,0:0:0:0:
512,226,43830,21,2,1:0:0:0:
363,329,44007,1,2,0:1:0:0:
370,251,44095,1,0,0:1:0:0:
377,173,44183,1,8,1:1:0:0:
383,94,44271,1,0,0:1:0:0:
390,16,44360,1,2,0:1:0:0:
241,119,44536,1,2,1:0:0:0:
512,226,44712,38,0,L|505:302,2,75,2|0|8,0:0|0:0|0:0,0:0:0:0:
430,333,45065,1,2,0:0:0:0:
202,259,45242,22,0,P|305:268|324:167,1,225.000008583069,6|2,1:0|0:0,0:0:0:0:
209,101,45595,2,0,P|107:112|87:12,1,225.000008583069,10|2,1:0|0:0,0:0:0:0:
66,252,45948,5,0,1:0:0:0:
153,50,46124,1,2,0:1:0:0:
66,252,46301,2,0,B|121:270|121:270|98:103,1,225.000008583069,10|0,1:0|1:0,0:0:0:0:
372,332,46654,6,0,B|319:291|319:291|334:131,1,225.000008583069,2|2,1:0|0:0,0:0:0:0:
233,346,47007,2,0,B|247:188|247:188|194:147,1,225.000008583069,10|2,1:0|0:0,0:0:0:0:
484,269,47360,5,2,1:0:0:0:
416,230,47448,1,0,1:0:0:0:
371,166,47536,1,2,1:0:0:0:
355,90,47624,1,0,1:0:0:0:
372,14,47712,1,10,1:0:0:0:
484,269,47889,1,2,1:0:0:0:
240,98,48065,6,0,P|137:89|118:190,1,225.000008583069,2|2,1:0|0:0,0:0:0:0:
233,256,48418,2,0,P|335:245|355:345,1,225.000008583069,10|2,1:0|0:0,0:0:0:0:
382,93,48771,5,0,1:0:0:0:
290,306,48948,1,2,0:1:0:0:
382,93,49124,2,0,B|331:83|331:83|346:255,1,225.000008583069,10|0,1:0|1:0,0:0:0:0:
438,42,49477,1,2,1:0:0:0:
132,337,49830,5,2,0:0:0:0:
132,337,49918,1,0,0:0:0:0:
254,320,50095,1,0,0:0:0:0:
254,320,50183,1,0,0:0:0:0:
132,337,50360,1,0,0:0:0:0:
254,320,50536,1,2,0:0:0:0:
178,51,50889,22,0,P|74:9|37:156,1,300,4|2,0:0|0:0,0:0:0:0:
260,115,51595,5,0,0:0:0:0:
102,94,51771,1,2,0:0:0:0:
260,115,51948,1,2,0:0:0:0:
122,340,52301,5,2,0:0:0:0:
105,218,52477,1,0,0:0:0:0:
122,340,52654,1,0,0:0:0:0:
122,340,52742,1,0,0:0:0:0:
105,218,52918,1,0,0:0:0:0:
105,218,53007,1,0,0:0:0:0:
122,340,53183,1,0,0:0:0:0:
105,218,53360,1,2,0:0:0:0:
428,278,53712,22,0,P|457:148|325:134,1,300,0|2,0:0|0:0,0:0:0:0:
359,363,54418,5,0,0:0:0:0:
384,202,54595,1,2,0:0:0:0:
409,41,54771,1,2,0:0:0:0:
105,218,55124,5,2,0:0:0:0:
105,218,55212,1,0,0:0:0:0:
122,340,55389,1,0,0:0:0:0:
122,340,55477,1,0,0:0:0:0:
105,218,55654,1,0,0:0:0:0:
105,218,55742,1,0,0:0:0:0:
105,218,55830,1,2,0:0:0:0:
229,333,56007,6,0,L|233:258,1,75,2|2,0:0|0:0,0:0:0:0:
105,218,56271,2,0,L|100:296,1,75,2|2,0:0|0:0,0:0:0:0:
178,51,56536,6,0,P|74:9|37:156,1,300,0|2,0:0|0:0,0:0:0:0:
260,115,57242,5,0,0:0:0:0:
102,94,57418,1,2,0:0:0:0:
260,115,57595,1,2,0:0:0:0:
122,340,57948,5,2,0:0:0:0:
105,218,58124,1,0,0:0:0:0:
122,340,58301,1,0,0:0:0:0:
105,218,58477,1,0,0:0:0:0:
105,218,58565,1,0,0:0:0:0:
105,218,58654,1,0,0:0:0:0:
105,218,58742,1,0,0:0:0:0:
105,218,58830,1,0,0:0:0:0:
105,218,58918,1,0,0:0:0:0:
105,218,59007,1,2,0:0:0:0:
428,278,59360,22,0,P|457:148|325:134,1,300,0|2,0:0|0:0,0:0:0:0:
359,363,60065,5,0,0:0:0:0:
384,202,60242,1,2,0:0:0:0:
409,41,60418,1,2,0:0:0:0:
409,41,60595,1,0,0:0:0:0:
288,244,60771,21,2,0:1:0:0:
250,207,60860,1,0,0:0:0:0:
201,226,60948,1,0,0:0:0:0:
163,189,61036,1,0,0:0:0:0:
114,208,61124,1,2,0:1:0:0:
307,326,61301,1,0,0:0:0:0:
425,133,61477,1,2,0:1:0:0:
232,15,61654,1,2,0:1:0:0:
194,52,61742,1,0,0:0:0:0:
144,32,61830,2,0,P|175:-8|232:15,1,120,2|0,0:1|0:0,0:0:0:0:
279,308,62183,6,0,P|212:260|266:183,1,150,6|0,1:0|0:0,0:0:0:0:
289,157,62360,1,2,0:0:0:0:
364,292,62536,2,0,P|404:220|322:173,1,150,10|0,1:0|0:0,0:0:0:0:
289,157,62712,1,2,0:0:0:0:
504,362,62889,5,0,1:0:0:0:
304,237,63065,1,2,0:1:0:0:
504,362,63242,2,0,B|468:337|468:337|490:155,1,225.000008583069,10|0,1:0|1:0,0:0:0:0:
298,19,63595,6,0,B|310:114|310:114|291:139|291:139|303:236,1,225.000008583069,2|2,1:0|0:0,0:0:0:0:
27,217,63948,2,0,B|15:122|15:122|34:97|34:97|22:0,1,225.000008583069,10|2,1:0|0:0,0:0:0:0:
124,365,64301,5,2,1:0:0:0:
163,297,64389,1,0,1:0:0:0:
227,252,64477,1,2,1:0:0:0:
303,236,64565,1,0,1:0:0:0:
379,253,64654,1,10,1:0:0:0:
124,365,64830,1,2,1:0:0:0:
65,55,65007,6,0,P|-2:103|52:180,1,150,2|0,1:0|0:0,0:0:0:0:
75,206,65183,1,2,0:0:0:0:
150,71,65360,2,0,P|190:143|108:190,1,150,10|0,1:0|0:0,0:0:0:0:
75,206,65536,1,2,0:0:0:0:
303,79,65712,5,0,1:0:0:0:
91,127,65889,1,2,0:1:0:0:
303,79,66065,2,0,B|354:106|354:106|374:273,1,225.000008583069,10|0,1:0|1:0,0:0:0:0:
150,71,66418,21,2,1:0:0:0:
8,232,66595,1,2,0:1:0:0:
86,225,66683,1,0,0:1:0:0:
164,218,66771,1,8,1:1:0:0:
243,212,66860,1,0,0:1:0:0:
321,205,66948,1,2,0:1:0:0:
150,71,67124,1,2,1:0:0:0:
424,232,67301,38,0,L|417:308,2,75,2|0|8,0:0|0:0|0:0,0:0:0:0:
342,339,67654,1,2,0:0:0:0:
492,118,67830,22,0,P|444:51|367:105,1,150,2|0,1:0|0:0,0:0:0:0:
341,128,68007,1,2,0:0:0:0:
258,3,68183,2,0,P|223:78|309:117,1,150,10|0,1:0|0:0,0:0:0:0:
341,128,68360,1,2,0:0:0:0:
276,264,68536,5,0,1:0:0:0:
316,53,68712,1,2,0:1:0:0:
276,264,68889,2,0,B|287:205|287:205|106:226,1,225.000008583069,10|0,1:0|1:0,0:0:0:0:
403,356,69242,6,0,B|456:315|456:315|441:155,1,225.000008583069,2|2,1:0|0:0,0:0:0:0:
161,25,69595,2,0,B|108:66|108:66|123:226,1,225.000008583069,10|2,1:0|0:0,0:0:0:0:
383,25,69948,5,2,1:0:0:0:
451,64,70036,1,0,1:0:0:0:
496,128,70124,1,2,1:0:0:0:
512,204,70212,1,0,1:0:0:0:
495,280,70301,1,10,1:0:0:0:
383,25,70477,1,2,1:0:0:0:
260,282,70654,6,0,P|193:234|247:157,1,150,2|0,1:0|0:0,0:0:0:0:
270,131,70830,1,2,0:0:0:0:
145,48,71007,2,0,P|220:13|259:99,1,150,10|0,1:0|0:0,0:0:0:0:
270,131,71183,1,2,0:0:0:0:
66,162,71360,5,0,1:0:0:0:
302,209,71536,1,2,0:1:0:0:
66,162,71712,2,0,B|117:152|117:152|102:324,1,225.000008583069,10|0,1:0|1:0,0:0:0:0:
433,162,72065,21,2,1:0:0:0:
205,190,72242,1,2,0:0:0:0:
454,323,72418,1,2,1:0:0:0:
226,351,72595,1,2,0:0:0:0:
492,56,72771,37,6,0:1:0:0:
