osu file format v14

[General]
AudioFilename: audio.mp3
AudioLeadIn: 0
PreviewTime: 109422
Countdown: 0
SampleSet: Normal
StackLeniency: 0.7
Mode: 1
LetterboxInBreaks: 0
WidescreenStoryboard: 0

[Editor]
DistanceSpacing: 2.6
BeatDivisor: 4
GridSize: 32
TimelineZoom: 2

[Metadata]
Title:Yume no Hajima Ring Ring (Shoujo Remix)
TitleUnicode:ゆめのはじまりんりん (Shoujo Remix)
Artist:Kyary Pamyu Pamyu
ArtistUnicode:きゃりーぱみゅぱみゅ
Creator:komasy
Version:Dream
Source:
Tags:Caroline Charonplop きゃろらいんちゃろんぷろっぷ KPP 中田ヤスタカ Nakada Yasutaka ピカピカふぁんたじん pika pika fantajin matra magic J-Core UK Hardcore
BeatmapID:1711871
BeatmapSetID:816289

[Difficulty]
HPDrainRate:4
CircleSize:6
OverallDifficulty:6
ApproachRate:4
SliderMultiplier:1.4
SliderTickRate:1

[Events]
//Background and Video events
0,0,"bg.jpg",0,130
//Break Periods
2,187194,196645
//Storyboard Layer 0 (Background)
//Storyboard Layer 1 (Fail)
//Storyboard Layer 2 (Pass)
//Storyboard Layer 3 (Foreground)
//Storyboard Sound Samples

[TimingPoints]
480,342.857142857143,4,1,0,100,1,0
21137,-100,4,1,0,40,0,0
22337,-100,4,1,0,100,0,0
43680,-103.092783505155,4,1,0,100,0,0
43794,-107.52688172043,4,1,0,100,0,0
43908,-109.89010989011,4,1,0,100,0,0
44022,-114.942528735632,4,1,0,100,0,0
44137,-120.481927710843,4,1,0,100,0,0
44251,-126.582278481013,4,1,0,100,0,0
44365,-133.333333333333,4,1,0,100,0,0
55422,-100,4,1,0,100,0,0
65022,-133.333333333333,4,1,0,80,0,0
65880,-125,4,1,0,90,0,0
66051,-117.647058823529,4,1,0,90,0,0
66137,-111.111111111111,4,1,0,90,0,0
66222,-105.263157894737,4,1,0,90,0,0
66308,-100,4,1,0,100,0,0
75994,-100,4,1,0,40,0,0
77194,-100,4,1,0,100,0,0
86880,-100,4,1,0,50,0,0
87822,-100,4,1,0,100,0,0
87994,-100,4,1,0,80,0,0
88208,-100,4,1,0,80,0,0
88251,-100,4,1,0,100,0,1
108822,-100,4,1,0,80,0,0
109422,-100,4,1,0,100,0,0
110194,-100,4,1,0,100,0,1
121165,-100,4,1,0,50,0,0
121422,-100,4,1,0,100,0,0
121508,-100,4,1,0,100,0,1
132137,-100,4,1,0,100,0,0
132222,-133.333333333333,4,1,0,90,0,0
137537,-113.636363636364,4,1,0,100,0,0
140365,-100,4,1,0,100,0,0
141822,-113.636363636364,4,1,0,90,0,0
142765,-113.636363636364,4,1,0,90,0,0
142851,-109.89010989011,4,1,0,100,0,0
142937,-106.382978723404,4,1,0,100,0,0
143022,-103.092783505155,4,1,0,90,0,0
143108,-100,4,1,0,100,0,0
164280,-100,4,1,0,90,0,0
165008,-100,4,1,0,100,0,0
185708,-100,4,1,0,40,0,0
186908,-100,4,1,0,100,0,0
187080,-106.382978723404,4,1,0,50,0,0
189737,-113.636363636364,4,1,0,50,0,0
191108,-121.951219512195,4,1,0,50,0,0
192480,-131.578947368421,4,1,0,50,0,0
193851,-142.857142857143,4,1,0,50,0,0
195222,-158.730158730159,4,1,0,50,0,0
196594,-178.571428571429,4,1,0,50,0,0
197880,-200,4,1,0,50,0,0
208851,-100,4,1,0,100,0,0
230880,-100,4,1,0,100,0,1
241851,-100,4,1,0,100,0,0
242194,-100,4,1,0,100,0,1
251365,-100,4,1,0,80,0,1
251451,-100,4,1,0,80,0,0
252051,-100,4,1,0,100,0,0
252565,-100,4,1,0,80,0,0
252780,-100,4,1,0,80,0,0
252822,-100,4,1,0,100,0,1
263708,-100,4,1,0,100,0,1
263794,-100,4,1,0,80,0,0
264094,-100,4,1,0,100,0,0
264137,-100,4,1,0,100,0,1
274765,-100,4,1,0,100,0,0
284408,-100,4,1,0,80,0,0
285651,-100,4,1,0,100,0,0
295422,-100,4,1,0,40,0,0
296622,-113.636363636364,4,1,0,100,0,0
307080,-120.481927710843,4,1,0,100,0,0
307422,-126.582278481013,4,1,0,100,0,0
307594,-133.333333333333,4,1,0,90,0,0
317365,-133.333333333333,4,1,0,40,0,0

[HitObjects]
257,126,480,5,4,0:0:0:0:
320,215,822,1,0,0:0:0:0:
257,126,1165,1,0,0:0:0:0:
320,215,1508,1,0,0:0:0:0:
320,215,1851,1,0,0:0:0:0:
320,215,2194,1,0,0:0:0:0:
320,215,2537,1,0,0:0:0:0:
320,215,2879,1,0,0:0:0:0:
320,215,3222,1,0,0:0:0:0:
320,215,3565,1,0,0:0:0:0:
320,215,3908,1,0,0:0:0:0:
320,215,4251,1,0,0:0:0:0:
320,215,4594,1,0,0:0:0:0:
320,215,4937,1,0,0:0:0:0:
320,215,5280,1,0,0:0:0:0:
320,215,5622,1,0,0:0:0:0:
320,215,5794,1,0,0:0:0:0:
320,215,5965,1,0,0:0:0:0:
320,215,6308,1,0,0:0:0:0:
320,215,6651,1,0,0:0:0:0:
320,215,6994,1,0,0:0:0:0:
320,215,7337,1,0,0:0:0:0:
320,215,7680,1,0,0:0:0:0:
320,215,8022,1,0,0:0:0:0:
320,215,8365,1,0,0:0:0:0:
320,215,8708,1,0,0:0:0:0:
320,215,9051,1,0,0:0:0:0:
320,215,9394,1,0,0:0:0:0:
320,215,9737,1,0,0:0:0:0:
320,215,10079,1,0,0:0:0:0:
320,215,10422,1,0,0:0:0:0:
320,215,10765,1,0,0:0:0:0:
320,215,11022,1,0,0:0:0:0:
320,215,11365,1,0,0:0:0:0:
320,215,11451,1,0,0:0:0:0:
347,192,11794,1,8,0:0:0:0:
347,192,12137,1,0,0:0:0:0:
347,192,12479,1,8,0:0:0:0:
347,192,12822,1,0,0:0:0:0:
347,192,13165,1,8,0:0:0:0:
347,192,13508,1,0,0:0:0:0:
347,192,13851,1,8,0:0:0:0:
347,192,14194,1,0,0:0:0:0:
347,192,14537,1,8,0:0:0:0:
347,192,14879,1,0,0:0:0:0:
347,192,15222,1,8,0:0:0:0:
347,192,15565,1,0,0:0:0:0:
347,192,15908,1,8,0:0:0:0:
347,192,16251,1,0,0:0:0:0:
347,192,16594,1,8,0:0:0:0:
347,192,16765,1,8,0:0:0:0:
347,192,16937,1,4,0:0:0:0:
347,192,17280,1,8,0:0:0:0:
347,192,17622,1,0,0:0:0:0:
347,192,17965,1,8,0:0:0:0:
347,192,18308,1,4,0:0:0:0:
347,192,18651,1,8,0:0:0:0:
347,192,18994,1,0,0:0:0:0:
347,192,19337,1,8,0:0:0:0:
347,192,19679,1,4,0:0:0:0:
399,349,19851,1,8,0:0:0:0:
353,196,20022,1,8,0:0:0:0:
248,69,20365,1,4,0:0:0:0:
232,256,20708,1,8,0:0:0:0:
347,192,20880,1,8,0:0:0:0:
248,69,21051,5,4,0:0:0:0:
256,192,21222,12,0,22080,0:0:0:0:
449,182,22422,5,4,0:0:0:0:
96,90,22765,1,0,0:0:0:0:
291,139,22937,1,8,0:0:0:0:
116,97,23108,1,0,0:0:0:0:
313,144,23280,1,8,0:0:0:0:
208,119,23365,1,8,0:0:0:0:
335,150,23451,1,0,0:0:0:0:
208,119,23622,1,8,0:0:0:0:
249,302,23794,1,0,0:0:0:0:
226,199,23880,1,0,0:0:0:0:
168,6,23965,1,8,0:0:0:0:
191,85,24137,1,0,0:0:0:0:
243,255,24308,1,8,0:0:0:0:
159,117,24480,1,0,0:0:0:0:
291,139,24565,1,8,0:0:0:0:
377,256,24737,1,8,0:0:0:0:
381,264,24822,1,0,0:0:0:0:
381,263,24994,1,8,0:0:0:0:
449,182,25165,5,0,0:0:0:0:
192,224,25422,1,8,0:0:0:0:
96,90,25508,1,0,0:0:0:0:
291,139,25680,1,8,0:0:0:0:
116,97,25851,1,0,0:0:0:0:
208,119,25937,1,0,0:0:0:0:
313,144,26023,1,8,0:0:0:0:
335,150,26194,1,0,0:0:0:0:
208,119,26365,1,8,0:0:0:0:
249,302,26451,1,8,0:0:0:0:
226,199,26537,1,0,0:0:0:0:
168,6,26622,1,0,0:0:0:0:
109,178,26708,1,8,0:0:0:0:
191,85,26880,1,0,0:0:0:0:
243,255,27051,1,8,0:0:0:0:
226,106,27137,1,8,0:0:0:0:
159,117,27223,1,0,0:0:0:0:
386,273,27394,1,8,0:0:0:0:
377,256,27480,1,8,0:0:0:0:
371,243,27565,1,8,0:0:0:0:
381,263,27737,1,8,0:0:0:0:
449,182,27908,5,0,0:0:0:0:
96,90,28251,1,0,0:0:0:0:
291,139,28423,1,8,0:0:0:0:
116,97,28594,1,0,0:0:0:0:
225,92,28680,1,0,0:0:0:0:
313,144,28766,1,8,0:0:0:0:
335,150,28937,1,0,0:0:0:0:
208,119,29022,1,8,0:0:0:0:
226,199,29194,1,8,0:0:0:0:
254,271,29280,1,0,0:0:0:0:
279,128,29451,1,8,0:0:0:0:
191,85,29623,1,0,0:0:0:0:
267,151,29708,1,0,0:0:0:0:
243,255,29794,1,8,0:0:0:0:
159,117,29966,1,0,0:0:0:0:
386,273,30137,1,8,0:0:0:0:
377,256,30223,1,8,0:0:0:0:
381,264,30308,1,0,0:0:0:0:
381,263,30480,1,8,0:0:0:0:
449,182,30651,5,0,0:0:0:0:
371,124,30737,1,8,0:0:0:0:
285,138,30823,1,8,0:0:0:0:
96,90,30994,1,0,0:0:0:0:
291,139,31166,1,8,0:0:0:0:
208,119,31251,1,8,0:0:0:0:
116,97,31337,1,0,0:0:0:0:
225,58,31422,1,0,0:0:0:0:
313,144,31509,1,8,0:0:0:0:
335,150,31680,1,0,0:0:0:0:
208,119,31851,1,8,0:0:0:0:
249,302,32023,1,0,0:0:0:0:
276,244,32108,1,8,0:0:0:0:
304,186,32194,1,8,0:0:0:0:
313,144,32537,1,8,0:0:0:0:
313,144,32594,1,8,0:0:0:0:
313,144,32651,1,8,0:0:0:0:
313,144,32708,1,8,0:0:0:0:
304,186,33051,1,8,0:0:0:0:
304,186,33137,1,8,0:0:0:0:
304,186,33222,1,8,0:0:0:0:
304,186,33308,1,8,0:0:0:0:
304,186,33394,1,0,0:0:0:0:
332,149,33651,1,0,0:0:0:0:
332,149,33737,1,8,0:0:0:0:
426,301,33908,1,0,0:0:0:0:
336,156,34080,1,8,0:0:0:0:
336,156,34251,1,0,0:0:0:0:
374,110,34337,1,0,0:0:0:0:
441,29,34422,1,8,0:0:0:0:
326,168,34594,1,8,0:0:0:0:
182,74,34765,1,8,0:0:0:0:
257,124,34851,1,0,0:0:0:0:
309,157,35022,1,0,0:0:0:0:
309,157,35108,1,8,0:0:0:0:
309,157,35280,1,0,0:0:0:0:
147,162,35451,1,8,0:0:0:0:
234,201,35537,1,8,0:0:0:0:
317,156,35622,1,0,0:0:0:0:
130,166,35794,1,8,0:0:0:0:
317,156,35965,1,0,0:0:0:0:
234,201,36051,1,0,0:0:0:0:
304,186,36137,1,8,0:0:0:0:
332,149,36394,1,0,0:0:0:0:
332,149,36480,1,8,0:0:0:0:
426,301,36651,1,0,0:0:0:0:
336,156,36823,1,8,0:0:0:0:
285,137,36908,1,8,0:0:0:0:
336,156,36994,1,0,0:0:0:0:
441,29,37165,1,8,0:0:0:0:
326,168,37337,1,8,0:0:0:0:
416,177,37422,1,8,0:0:0:0:
182,74,37508,1,8,0:0:0:0:
309,157,37594,1,0,0:0:0:0:
104,129,37765,1,0,0:0:0:0:
309,157,37851,1,8,0:0:0:0:
309,157,38023,1,0,0:0:0:0:
147,162,38194,1,8,0:0:0:0:
317,156,38365,1,0,0:0:0:0:
288,124,38422,1,0,0:0:0:0:
288,124,38480,1,0,0:0:0:0:
130,166,38537,1,8,0:0:0:0:
220,161,38708,1,8,0:0:0:0:
293,150,38880,1,4,0:0:0:0:
288,124,39051,1,8,0:0:0:0:
288,124,39222,1,8,0:0:0:0:
288,124,39394,1,8,0:0:0:0:
288,124,39565,1,8,0:0:0:0:
365,196,39651,1,8,0:0:0:0:
304,152,39737,1,8,0:0:0:0:
288,124,39908,1,8,0:0:0:0:
288,124,40080,1,8,0:0:0:0:
208,108,40165,1,8,0:0:0:0:
246,115,40251,1,0,0:0:0:0:
288,124,40422,1,8,0:0:0:0:
288,124,40594,1,8,0:0:0:0:
288,124,40765,1,8,0:0:0:0:
341,202,40851,1,8,0:0:0:0:
341,202,40937,1,0,0:0:0:0:
341,202,41022,1,8,0:0:0:0:
288,124,41108,1,8,0:0:0:0:
340,280,41280,1,0,0:0:0:0:
288,124,41451,1,8,0:0:0:0:
301,180,41622,1,0,0:0:0:0:
301,180,41708,1,8,0:0:0:0:
301,180,41794,1,0,0:0:0:0:
301,180,41880,1,0,0:0:0:0:
301,180,41965,1,8,0:0:0:0:
301,180,42051,1,0,0:0:0:0:
301,180,42137,1,0,0:0:0:0:
301,180,42222,1,0,0:0:0:0:
301,180,42308,1,8,0:0:0:0:
301,180,42394,1,8,0:0:0:0:
301,180,42480,1,0,0:0:0:0:
301,180,42565,1,0,0:0:0:0:
301,180,42651,1,8,0:0:0:0:
294,179,42737,1,8,0:0:0:0:
203,171,42822,1,8,0:0:0:0:
110,163,42908,1,8,0:0:0:0:
385,213,42994,5,0,0:0:0:0:
242,67,43165,1,8,0:0:0:0:
282,108,43222,1,8,0:0:0:0:
310,137,43280,1,8,0:0:0:0:
355,182,43337,1,8,0:0:0:0:
243,70,43508,1,8,0:0:0:0:
310,137,43680,1,0,0:0:0:0:
310,137,43794,1,0,0:0:0:0:
310,137,43908,1,8,0:0:0:0:
310,137,44022,1,0,0:0:0:0:
216,182,44137,1,0,0:0:0:0:
216,182,44251,1,8,0:0:0:0:
291,116,44365,1,4,0:0:0:0:
352,169,44880,1,0,0:0:0:0:
352,169,45051,1,8,0:0:0:0:
398,172,45565,1,0,0:0:0:0:
398,172,45737,1,0,0:0:0:0:
443,238,46251,1,0,0:0:0:0:
266,232,46422,1,8,0:0:0:0:
511,240,46680,1,0,0:0:0:0:
265,232,46937,1,0,0:0:0:0:
416,237,47108,1,0,0:0:0:0:
162,22,47451,1,8,0:0:0:0:
416,237,47622,1,0,0:0:0:0:
275,139,47794,1,8,0:0:0:0:
274,117,48137,1,8,0:0:0:0:
307,169,48308,1,0,0:0:0:0:
307,169,48480,1,0,0:0:0:0:
307,169,48737,1,0,0:0:0:0:
228,94,48822,1,8,0:0:0:0:
307,169,48994,1,0,0:0:0:0:
197,66,49165,1,0,0:0:0:0:
353,178,49337,1,8,0:0:0:0:
307,169,49422,1,0,0:0:0:0:
242,210,49508,1,8,0:0:0:0:
307,169,49680,1,0,0:0:0:0:
242,210,49851,1,0,0:0:0:0:
242,210,50194,1,8,0:0:0:0:
242,210,50365,1,0,0:0:0:0:
242,210,50537,1,8,0:0:0:0:
242,210,51051,1,0,0:0:0:0:
242,210,51222,1,0,0:0:0:0:
223,169,51565,1,8,0:0:0:0:
223,169,51737,1,0,0:0:0:0:
223,169,51908,1,8,0:0:0:0:
223,169,52165,1,0,0:0:0:0:
223,169,52422,1,0,0:0:0:0:
223,169,52594,1,0,0:0:0:0:
223,169,52937,1,8,0:0:0:0:
223,169,53108,1,0,0:0:0:0:
223,169,53280,1,8,0:0:0:0:
223,169,53622,1,8,0:0:0:0:
223,169,53794,1,0,0:0:0:0:
223,169,53965,1,0,0:0:0:0:
223,169,54137,1,8,0:0:0:0:
223,169,54222,1,0,0:0:0:0:
223,169,54480,1,0,0:0:0:0:
223,169,54651,1,0,0:0:0:0:
278,120,54737,1,8,0:0:0:0:
210,183,54822,1,8,0:0:0:0:
263,134,54908,1,0,0:0:0:0:
263,134,54994,1,8,0:0:0:0:
263,134,55080,1,8,0:0:0:0:
263,134,55165,1,0,0:0:0:0:
263,134,55251,1,8,0:0:0:0:
263,134,55337,1,0,0:0:0:0:
46,170,55594,1,0,0:0:0:0:
349,251,55680,1,8,0:0:0:0:
287,108,55851,1,0,0:0:0:0:
287,108,56022,1,0,0:0:0:0:
159,164,56194,1,8,0:0:0:0:
208,142,56280,1,0,0:0:0:0:
279,112,56365,1,8,0:0:0:0:
125,159,56537,1,0,0:0:0:0:
295,107,56708,1,0,0:0:0:0:
54,181,56965,1,0,0:0:0:0:
156,149,57051,1,8,0:0:0:0:
323,99,57222,1,0,0:0:0:0:
176,143,57394,1,0,0:0:0:0:
231,126,57480,1,8,0:0:0:0:
231,126,57565,1,8,0:0:0:0:
231,126,57651,1,0,0:0:0:0:
231,126,57737,1,8,0:0:0:0:
231,126,57908,1,0,0:0:0:0:
231,126,58080,1,0,0:0:0:0:
231,126,58337,1,0,0:0:0:0:
231,126,58422,1,8,0:0:0:0:
126,280,58594,1,0,0:0:0:0:
224,136,58765,1,0,0:0:0:0:
382,200,58937,1,8,0:0:0:0:
83,347,59022,1,0,0:0:0:0:
128,279,59108,1,8,0:0:0:0:
267,225,59280,1,0,0:0:0:0:
423,166,59451,1,0,0:0:0:0:
295,213,59537,1,0,0:0:0:0:
184,257,59708,1,0,0:0:0:0:
276,221,59794,1,8,0:0:0:0:
437,161,59965,1,0,0:0:0:0:
295,213,60137,1,8,0:0:0:0:
355,191,60222,1,0,0:0:0:0:
215,131,60394,1,0,0:0:0:0:
304,169,60480,1,8,0:0:0:0:
304,169,60565,1,8,0:0:0:0:
304,169,60651,1,0,0:0:0:0:
304,169,60822,1,0,0:0:0:0:
355,336,61080,1,0,0:0:0:0:
349,251,61166,1,8,0:0:0:0:
287,108,61337,1,0,0:0:0:0:
287,108,61508,1,0,0:0:0:0:
159,164,61680,1,8,0:0:0:0:
208,142,61766,1,0,0:0:0:0:
279,112,61851,1,8,0:0:0:0:
125,159,62023,1,0,0:0:0:0:
295,107,62194,1,0,0:0:0:0:
54,181,62451,1,0,0:0:0:0:
156,149,62537,1,8,0:0:0:0:
323,99,62708,1,0,0:0:0:0:
176,143,62880,1,0,0:0:0:0:
231,126,62966,1,8,0:0:0:0:
231,126,63051,1,8,0:0:0:0:
231,126,63137,1,0,0:0:0:0:
231,126,63223,1,8,0:0:0:0:
231,126,63394,1,0,0:0:0:0:
231,126,63566,1,0,0:0:0:0:
231,126,63823,1,0,0:0:0:0:
231,126,63908,1,8,0:0:0:0:
126,280,64080,1,0,0:0:0:0:
224,136,64251,1,0,0:0:0:0:
382,200,64423,1,8,0:0:0:0:
83,347,64508,1,0,0:0:0:0:
128,279,64594,1,8,0:0:0:0:
178,230,64680,1,8,0:0:0:0:
267,225,64766,1,0,0:0:0:0:
423,166,64937,1,4,0:0:0:0:
451,128,65451,1,8,0:0:0:0:
367,123,65537,1,8,0:0:0:0:
279,118,65622,1,8,0:0:0:0:
192,77,65965,1,8,0:0:0:0:
192,77,66051,1,8,0:0:0:0:
192,77,66137,1,8,0:0:0:0:
192,77,66222,1,8,0:0:0:0:
192,77,66308,1,0,0:0:0:0:
339,166,66480,1,8,0:0:0:0:
339,166,66651,1,0,0:0:0:0:
189,159,66822,1,8,0:0:0:0:
245,161,66908,1,8,0:0:0:0:
302,164,66994,1,0,0:0:0:0:
302,164,67080,1,8,0:0:0:0:
302,164,67251,1,8,0:0:0:0:
302,164,67337,1,0,0:0:0:0:
302,164,67422,1,8,0:0:0:0:
302,164,67508,1,8,0:0:0:0:
302,164,67680,1,0,0:0:0:0:
302,164,67851,1,8,0:0:0:0:
302,164,68022,1,0,0:0:0:0:
302,164,68108,1,8,0:0:0:0:
302,164,68280,1,8,0:0:0:0:
302,164,68365,1,0,0:0:0:0:
258,273,68451,1,8,0:0:0:0:
297,175,68622,1,8,0:0:0:0:
235,145,68708,1,0,0:0:0:0:
392,223,68880,1,8,0:0:0:0:
358,210,68937,1,8,0:0:0:0:
316,194,68994,1,8,0:0:0:0:
242,148,69051,1,0,0:0:0:0:
372,257,69222,1,8,0:0:0:0:
223,132,69394,1,0,0:0:0:0:
367,246,69565,1,8,0:0:0:0:
307,200,69651,1,8,0:0:0:0:
378,254,69737,1,0,0:0:0:0:
225,139,69908,1,8,0:0:0:0:
283,183,69994,1,8,0:0:0:0:
353,236,70080,1,0,0:0:0:0:
340,236,70165,1,8,0:0:0:0:
161,240,70337,1,8,0:0:0:0:
240,238,70422,1,0,0:0:0:0:
319,238,70508,1,8,0:0:0:0:
234,236,70594,1,8,0:0:0:0:
391,239,70765,1,0,0:0:0:0:
210,235,70937,1,8,0:0:0:0:
239,200,70994,1,8,0:0:0:0:
273,158,71051,1,8,0:0:0:0:
374,239,71108,1,0,0:0:0:0:
250,236,71194,1,8,0:0:0:0:
342,90,71365,1,8,0:0:0:0:
302,154,71451,1,8,0:0:0:0:
345,150,71708,1,0,0:0:0:0:
192,77,71794,1,0,0:0:0:0:
339,166,71966,1,8,0:0:0:0:
339,166,72137,1,0,0:0:0:0:
189,159,72308,1,8,0:0:0:0:
245,161,72394,1,8,0:0:0:0:
302,164,72480,1,0,0:0:0:0:
302,164,72566,1,8,0:0:0:0:
302,164,72737,1,8,0:0:0:0:
302,164,72823,1,0,0:0:0:0:
302,164,72908,1,8,0:0:0:0:
302,164,72994,1,8,0:0:0:0:
302,164,73166,1,0,0:0:0:0:
302,164,73337,1,8,0:0:0:0:
302,164,73508,1,0,0:0:0:0:
302,164,73594,1,8,0:0:0:0:
302,164,73766,1,8,0:0:0:0:
302,164,73851,1,0,0:0:0:0:
258,273,73937,1,8,0:0:0:0:
297,175,74108,1,8,0:0:0:0:
235,145,74194,1,0,0:0:0:0:
392,223,74366,1,8,0:0:0:0:
358,210,74423,1,8,0:0:0:0:
316,194,74480,1,8,0:0:0:0:
242,148,74537,1,0,0:0:0:0:
372,257,74708,1,8,0:0:0:0:
223,132,74880,1,0,0:0:0:0:
367,246,75051,1,8,0:0:0:0:
307,200,75137,1,8,0:0:0:0:
378,254,75223,1,0,0:0:0:0:
225,139,75394,1,8,0:0:0:0:
283,183,75480,1,8,0:0:0:0:
353,236,75566,1,0,0:0:0:0:
340,236,75651,1,8,0:0:0:0:
313,72,75822,1,8,0:0:0:0:
330,174,75908,1,0,0:0:0:0:
256,192,76080,12,0,76937,0:0:0:0:
422,193,77280,5,12,0:0:0:0:
273,186,77451,1,0,0:0:0:0:
423,193,77622,1,8,0:0:0:0:
249,157,77794,1,0,0:0:0:0:
343,161,77880,1,0,0:0:0:0:
394,188,77965,1,8,0:0:0:0:
343,177,78137,1,0,0:0:0:0:
257,47,78308,1,8,0:0:0:0:
340,191,78480,1,0,0:0:0:0:
305,131,78565,1,0,0:0:0:0:
305,131,78651,1,8,0:0:0:0:
305,131,78737,1,8,0:0:0:0:
305,131,78822,1,0,0:0:0:0:
305,131,78994,1,8,0:0:0:0:
305,131,79165,1,0,0:0:0:0:
305,131,79337,1,8,0:0:0:0:
305,131,79422,1,0,0:0:0:0:
305,131,79508,1,0,0:0:0:0:
305,131,79594,1,8,0:0:0:0:
280,204,79680,1,8,0:0:0:0:
417,124,79851,1,8,0:0:0:0:
348,133,79937,1,0,0:0:0:0:
282,142,80022,1,8,0:0:0:0:
432,227,80194,1,0,0:0:0:0:
277,139,80365,1,8,0:0:0:0:
354,183,80451,1,8,0:0:0:0:
255,126,80537,1,0,0:0:0:0:
404,212,80708,1,8,0:0:0:0:
259,128,80880,1,0,0:0:0:0:
313,159,80965,1,0,0:0:0:0:
313,159,81051,1,8,0:0:0:0:
313,159,81137,1,8,0:0:0:0:
313,159,81222,1,0,0:0:0:0:
313,159,81394,1,8,0:0:0:0:
313,159,81565,1,0,0:0:0:0:
313,159,81651,1,0,0:0:0:0:
313,159,81737,1,8,0:0:0:0:
313,159,81908,1,0,0:0:0:0:
313,159,82080,1,8,0:0:0:0:
313,159,82165,1,8,0:0:0:0:
313,159,82251,1,0,0:0:0:0:
313,159,82337,1,8,0:0:0:0:
313,159,82422,1,8,0:0:0:0:
490,142,82594,1,0,0:0:0:0:
421,148,82680,1,0,0:0:0:0:
364,154,82765,1,0,0:0:0:0:
190,85,82937,1,8,0:0:0:0:
340,151,83108,1,0,0:0:0:0:
422,188,83280,1,8,0:0:0:0:
499,224,83365,1,8,0:0:0:0:
339,150,83451,1,0,0:0:0:0:
487,246,83622,1,8,0:0:0:0:
335,148,83794,1,0,0:0:0:0:
385,180,83880,1,0,0:0:0:0:
385,180,83965,1,8,0:0:0:0:
385,180,84051,1,8,0:0:0:0:
385,180,84137,1,0,0:0:0:0:
413,204,84308,1,8,0:0:0:0:
355,193,84480,1,0,0:0:0:0:
270,177,84651,1,8,0:0:0:0:
429,317,84737,1,8,0:0:0:0:
362,260,84822,1,0,0:0:0:0:
219,140,84994,1,8,0:0:0:0:
355,259,85165,1,0,0:0:0:0:
434,221,85251,1,8,0:0:0:0:
279,192,85337,1,8,0:0:0:0:
282,195,85422,1,8,0:0:0:0:
350,255,85508,1,0,0:0:0:0:
329,170,85594,1,0,0:0:0:0:
312,123,85680,1,8,0:0:0:0:
312,123,85765,1,0,0:0:0:0:
312,123,85851,1,8,0:0:0:0:
312,123,85937,1,8,0:0:0:0:
312,123,86022,1,0,0:0:0:0:
243,125,86080,1,8,0:0:0:0:
312,123,86137,1,8,0:0:0:0:
312,123,86194,1,0,0:0:0:0:
312,123,86280,1,0,0:0:0:0:
312,123,86365,1,8,0:0:0:0:
312,123,86451,1,0,0:0:0:0:
312,123,86537,1,8,0:0:0:0:
312,123,86594,1,8,0:0:0:0:
251,124,86651,1,8,0:0:0:0:
193,105,86708,1,0,0:0:0:0:
282,89,86794,1,8,0:0:0:0:
256,202,87908,1,12,0:0:0:0:
421,202,88080,1,0,0:0:0:0:
354,202,88165,1,0,0:0:0:0:
297,202,88251,1,0,0:0:0:0:
433,273,88422,1,8,0:0:0:0:
353,231,88508,1,0,0:0:0:0:
353,231,88680,1,0,0:0:0:0:
353,231,88765,1,8,0:0:0:0:
353,231,88937,1,0,0:0:0:0:
353,231,89108,1,8,0:0:0:0:
289,215,89194,1,8,0:0:0:0:
374,237,89280,1,0,0:0:0:0:
281,213,89365,1,8,0:0:0:0:
373,236,89451,1,0,0:0:0:0:
203,194,89622,1,0,0:0:0:0:
276,212,89708,1,8,0:0:0:0:
423,248,89880,1,8,0:0:0:0:
348,229,89965,1,0,0:0:0:0:
271,211,90051,1,8,0:0:0:0:
144,90,90222,1,8,0:0:0:0:
359,230,90308,1,0,0:0:0:0:
192,187,90480,1,8,0:0:0:0:
269,207,90565,1,8,0:0:0:0:
376,235,90651,1,0,0:0:0:0:
289,212,90737,1,8,0:0:0:0:
371,235,90822,1,8,0:0:0:0:
303,215,90908,1,8,0:0:0:0:
355,231,90994,1,0,0:0:0:0:
443,226,91165,1,0,0:0:0:0:
443,226,91251,1,8,0:0:0:0:
443,226,91422,1,8,0:0:0:0:
443,226,91508,1,0,0:0:0:0:
302,162,91680,1,8,0:0:0:0:
201,27,91851,1,0,0:0:0:0:
304,165,92022,1,8,0:0:0:0:
258,103,92108,1,8,0:0:0:0:
309,172,92194,1,0,0:0:0:0:
214,42,92365,1,8,0:0:0:0:
308,186,92537,1,0,0:0:0:0:
264,119,92622,1,0,0:0:0:0:
309,184,92708,1,8,0:0:0:0:
274,134,92794,1,8,0:0:0:0:
274,134,92880,1,0,0:0:0:0:
274,134,93051,1,8,0:0:0:0:
428,197,93222,1,0,0:0:0:0:
363,170,93308,1,0,0:0:0:0:
288,140,93394,1,8,0:0:0:0:
353,166,93480,1,8,0:0:0:0:
216,112,93651,1,8,0:0:0:0:
297,202,93737,1,0,0:0:0:0:
433,273,93908,1,8,0:0:0:0:
360,207,93994,1,8,0:0:0:0:
353,231,94080,1,0,0:0:0:0:
353,231,94166,1,0,0:0:0:0:
353,231,94251,1,8,0:0:0:0:
353,231,94423,1,0,0:0:0:0:
353,231,94594,1,8,0:0:0:0:
289,215,94680,1,8,0:0:0:0:
374,237,94766,1,0,0:0:0:0:
281,213,94851,1,8,0:0:0:0:
373,236,94937,1,0,0:0:0:0:
203,194,95108,1,0,0:0:0:0:
276,212,95194,1,8,0:0:0:0:
423,248,95366,1,8,0:0:0:0:
348,229,95451,1,0,0:0:0:0:
271,211,95537,1,8,0:0:0:0:
437,251,95708,1,8,0:0:0:0:
359,230,95794,1,0,0:0:0:0:
192,187,95966,1,8,0:0:0:0:
269,207,96051,1,8,0:0:0:0:
376,235,96137,1,0,0:0:0:0:
289,212,96223,1,8,0:0:0:0:
371,235,96308,1,8,0:0:0:0:
303,215,96394,1,8,0:0:0:0:
355,231,96480,1,0,0:0:0:0:
443,226,96651,1,0,0:0:0:0:
443,226,96737,1,8,0:0:0:0:
443,226,96908,1,8,0:0:0:0:
443,226,96994,1,0,0:0:0:0:
378,185,97080,1,0,0:0:0:0:
302,162,97166,1,8,0:0:0:0:
201,27,97337,1,0,0:0:0:0:
304,165,97508,1,8,0:0:0:0:
258,103,97594,1,8,0:0:0:0:
309,172,97680,1,0,0:0:0:0:
214,42,97851,1,8,0:0:0:0:
308,186,98023,1,0,0:0:0:0:
264,119,98108,1,0,0:0:0:0:
309,184,98194,1,8,0:0:0:0:
274,134,98280,1,8,0:0:0:0:
274,134,98366,1,0,0:0:0:0:
274,134,98537,1,8,0:0:0:0:
428,197,98708,1,0,0:0:0:0:
363,170,98794,1,0,0:0:0:0:
288,140,98880,1,8,0:0:0:0:
270,133,99223,1,4,0:0:0:0:
353,231,99393,1,0,0:0:0:0:
433,273,99479,1,8,0:0:0:0:
353,231,99651,1,8,0:0:0:0:
353,231,99736,1,0,0:0:0:0:
353,231,99908,1,8,0:0:0:0:
353,231,100079,1,0,0:0:0:0:
289,215,100165,1,0,0:0:0:0:
374,237,100251,1,8,0:0:0:0:
281,213,100336,1,8,0:0:0:0:
373,236,100422,1,0,0:0:0:0:
203,194,100593,1,0,0:0:0:0:
276,212,100679,1,8,0:0:0:0:
423,248,100851,1,8,0:0:0:0:
348,229,100936,1,0,0:0:0:0:
271,211,101022,1,8,0:0:0:0:
144,90,101193,1,8,0:0:0:0:
359,230,101279,1,0,0:0:0:0:
192,187,101451,1,8,0:0:0:0:
269,207,101536,1,8,0:0:0:0:
376,235,101622,1,0,0:0:0:0:
289,212,101708,1,8,0:0:0:0:
371,235,101793,1,8,0:0:0:0:
303,215,101879,1,8,0:0:0:0:
355,231,101965,1,0,0:0:0:0:
443,226,102136,1,8,0:0:0:0:
443,226,102222,1,0,0:0:0:0:
443,226,102393,1,0,0:0:0:0:
443,226,102479,1,8,0:0:0:0:
302,162,102651,1,0,0:0:0:0:
201,27,102822,1,8,0:0:0:0:
219,81,102908,1,8,0:0:0:0:
304,165,102993,1,0,0:0:0:0:
258,103,103079,1,8,0:0:0:0:
234,183,103165,1,0,0:0:0:0:
214,42,103336,1,0,0:0:0:0:
308,186,103422,1,8,0:0:0:0:
264,119,103593,1,8,0:0:0:0:
309,184,103679,1,0,0:0:0:0:
274,134,103765,1,0,0:0:0:0:
274,134,103851,1,8,0:0:0:0:
274,134,104022,1,0,0:0:0:0:
428,197,104193,1,8,0:0:0:0:
363,170,104279,1,8,0:0:0:0:
288,140,104365,1,0,0:0:0:0:
353,166,104451,1,8,0:0:0:0:
216,112,104622,1,8,0:0:0:0:
297,202,104708,1,0,0:0:0:0:
433,273,104879,1,8,0:0:0:0:
360,207,104965,1,8,0:0:0:0:
353,166,105051,1,0,0:0:0:0:
353,231,105137,1,8,0:0:0:0:
353,231,105222,1,0,0:0:0:0:
353,231,105394,1,8,0:0:0:0:
353,231,105565,1,0,0:0:0:0:
289,215,105651,1,0,0:0:0:0:
374,237,105737,1,8,0:0:0:0:
281,213,105822,1,8,0:0:0:0:
373,236,105908,1,0,0:0:0:0:
203,194,106079,1,0,0:0:0:0:
276,212,106165,1,8,0:0:0:0:
423,248,106337,1,8,0:0:0:0:
348,229,106422,1,0,0:0:0:0:
271,211,106508,1,8,0:0:0:0:
437,251,106679,1,8,0:0:0:0:
359,230,106765,1,0,0:0:0:0:
192,187,106937,1,8,0:0:0:0:
269,207,107022,1,8,0:0:0:0:
376,235,107108,1,0,0:0:0:0:
289,212,107194,1,8,0:0:0:0:
371,235,107279,1,0,0:0:0:0:
301,207,107337,1,8,0:0:0:0:
303,215,107394,1,8,0:0:0:0:
355,231,107451,1,0,0:0:0:0:
443,226,107622,1,8,0:0:0:0:
443,226,107708,1,8,0:0:0:0:
443,226,107879,1,8,0:0:0:0:
443,226,107965,1,8,0:0:0:0:
302,162,108137,1,0,0:0:0:0:
201,27,108308,1,8,0:0:0:0:
304,165,108394,1,8,0:0:0:0:
258,103,108565,1,8,0:0:0:0:
309,172,108651,1,8,0:0:0:0:
223,167,108737,1,8,0:0:0:0:
256,192,108822,12,0,109165,0:0:0:0:
294,162,109508,5,12,0:0:0:0:
294,162,109851,1,12,0:0:0:0:
294,162,110194,1,4,0:0:0:0:
484,308,110451,1,8,0:0:0:0:
427,264,110537,1,0,0:0:0:0:
303,177,110708,1,8,0:0:0:0:
352,234,110880,1,0,0:0:0:0:
352,234,110965,1,8,0:0:0:0:
352,234,111137,1,8,0:0:0:0:
352,234,111222,1,0,0:0:0:0:
197,161,111394,1,8,0:0:0:0:
342,234,111565,1,0,0:0:0:0:
253,189,111651,1,0,0:0:0:0:
370,250,111737,1,8,0:0:0:0:
215,158,111908,1,0,0:0:0:0:
271,190,112080,1,8,0:0:0:0:
271,190,112165,1,8,0:0:0:0:
369,247,112251,1,0,0:0:0:0:
346,185,112337,1,0,0:0:0:0:
320,115,112422,1,8,0:0:0:0:
490,132,112594,1,0,0:0:0:0:
307,113,112680,1,8,0:0:0:0:
415,126,112851,1,8,0:0:0:0:
288,110,112937,1,0,0:0:0:0:
355,150,113022,1,0,0:0:0:0:
449,169,113108,1,8,0:0:0:0:
320,115,113280,1,0,0:0:0:0:
307,113,113451,1,8,0:0:0:0:
307,113,113537,1,8,0:0:0:0:
219,107,113622,1,0,0:0:0:0:
280,110,113794,1,8,0:0:0:0:
280,110,113965,1,0,0:0:0:0:
280,110,114051,1,0,0:0:0:0:
280,110,114137,1,8,0:0:0:0:
236,225,114222,1,8,0:0:0:0:
119,102,114308,1,0,0:0:0:0:
275,132,114480,1,0,0:0:0:0:
216,76,114565,1,8,0:0:0:0:
279,136,114651,1,0,0:0:0:0:
259,109,114822,1,8,0:0:0:0:
259,109,114994,1,0,0:0:0:0:
299,169,115080,1,0,0:0:0:0:
299,169,115251,1,0,0:0:0:0:
299,169,115337,1,8,0:0:0:0:
299,169,115508,1,0,0:0:0:0:
294,162,115680,1,0,0:0:0:0:
484,308,115937,1,8,0:0:0:0:
427,264,116023,1,0,0:0:0:0:
303,177,116194,1,8,0:0:0:0:
352,234,116366,1,0,0:0:0:0:
352,234,116451,1,8,0:0:0:0:
352,234,116623,1,8,0:0:0:0:
352,234,116708,1,0,0:0:0:0:
271,190,116794,1,0,0:0:0:0:
197,161,116880,1,8,0:0:0:0:
342,234,117051,1,0,0:0:0:0:
370,250,117223,1,8,0:0:0:0:
253,189,117308,1,8,0:0:0:0:
215,158,117394,1,0,0:0:0:0:
271,190,117566,1,8,0:0:0:0:
369,247,117737,1,0,0:0:0:0:
346,185,117823,1,0,0:0:0:0:
320,115,117908,1,8,0:0:0:0:
259,122,117994,1,8,0:0:0:0:
490,132,118080,1,0,0:0:0:0:
321,113,118251,1,8,0:0:0:0:
288,110,118423,1,0,0:0:0:0:
355,150,118508,1,8,0:0:0:0:
449,169,118680,1,8,0:0:0:0:
320,115,118766,1,0,0:0:0:0:
307,113,118937,1,8,0:0:0:0:
219,107,119108,1,0,0:0:0:0:
288,110,119194,1,8,0:0:0:0:
288,110,119280,1,0,0:0:0:0:
288,110,119365,1,0,0:0:0:0:
280,110,119451,1,8,0:0:0:0:
280,110,119623,1,8,0:0:0:0:
236,225,119708,1,8,0:0:0:0:
119,102,119794,1,0,0:0:0:0:
173,55,119880,1,0,0:0:0:0:
275,132,119966,1,8,0:0:0:0:
279,136,120137,1,0,0:0:0:0:
445,78,120308,1,0,0:0:0:0:
291,186,120394,1,8,0:0:0:0:
256,103,120480,1,0,0:0:0:0:
320,184,120565,1,0,0:0:0:0:
320,184,120651,1,8,0:0:0:0:
256,103,120737,1,0,0:0:0:0:
256,103,120822,1,8,0:0:0:0:
249,21,120908,1,8,0:0:0:0:
256,100,120994,1,0,0:0:0:0:
259,195,121080,1,8,0:0:0:0:
254,61,121508,1,12,0:0:0:0:
460,243,121765,1,0,0:0:0:0:
405,194,121851,1,8,0:0:0:0:
292,316,122022,1,0,0:0:0:0:
419,179,122194,1,8,0:0:0:0:
338,216,122280,1,8,0:0:0:0:
338,216,122365,1,0,0:0:0:0:
338,216,122537,1,8,0:0:0:0:
338,216,122708,1,0,0:0:0:0:
338,216,122794,1,0,0:0:0:0:
338,216,122880,1,8,0:0:0:0:
338,216,123051,1,0,0:0:0:0:
330,205,123222,1,8,0:0:0:0:
276,129,123308,1,0,0:0:0:0:
276,129,123480,1,0,0:0:0:0:
276,129,123565,1,8,0:0:0:0:
276,129,123737,1,8,0:0:0:0:
346,290,123908,1,8,0:0:0:0:
294,213,123994,1,8,0:0:0:0:
350,296,124080,1,0,0:0:0:0:
363,314,124251,1,8,0:0:0:0:
258,160,124422,1,0,0:0:0:0:
158,154,124508,1,0,0:0:0:0:
362,312,124594,1,8,0:0:0:0:
408,375,124765,1,0,0:0:0:0:
346,199,124937,1,8,0:0:0:0:
364,249,125022,1,8,0:0:0:0:
364,249,125108,1,0,0:0:0:0:
364,249,125194,1,0,0:0:0:0:
364,249,125280,1,8,0:0:0:0:
364,249,125451,1,8,0:0:0:0:
364,249,125537,1,0,0:0:0:0:
364,249,125622,1,8,0:0:0:0:
364,249,125794,1,0,0:0:0:0:
364,249,125965,1,8,0:0:0:0:
322,202,126051,1,8,0:0:0:0:
364,249,126137,1,0,0:0:0:0:
364,249,126308,1,8,0:0:0:0:
246,144,126480,1,0,0:0:0:0:
305,199,126565,1,8,0:0:0:0:
126,39,126651,1,0,0:0:0:0:
286,139,126822,1,8,0:0:0:0:
424,268,126994,1,0,0:0:0:0:
301,153,127165,1,8,0:0:0:0:
428,271,127337,1,0,0:0:0:0:
335,210,127422,1,0,0:0:0:0:
293,147,127508,1,8,0:0:0:0:
432,274,127680,1,0,0:0:0:0:
293,148,127851,1,8,0:0:0:0:
362,210,127937,1,8,0:0:0:0:
431,275,128022,1,0,0:0:0:0:
295,146,128194,1,8,0:0:0:0:
431,276,128365,1,0,0:0:0:0:
281,131,128537,1,8,0:0:0:0:
419,264,128708,1,0,0:0:0:0:
389,204,128794,1,0,0:0:0:0:
298,149,128880,1,8,0:0:0:0:
335,161,128965,1,8,0:0:0:0:
426,271,129051,1,0,0:0:0:0:
296,146,129222,1,8,0:0:0:0:
133,134,129394,1,0,0:0:0:0:
367,214,129480,1,8,0:0:0:0:
367,214,129565,1,8,0:0:0:0:
367,214,129651,1,8,0:0:0:0:
367,214,129737,1,0,0:0:0:0:
367,214,129822,1,0,0:0:0:0:
367,214,129908,1,8,0:0:0:0:
367,214,129965,1,8,0:0:0:0:
307,205,130022,1,8,0:0:0:0:
367,214,130080,1,0,0:0:0:0:
367,214,130165,1,0,0:0:0:0:
367,214,130251,1,8,0:0:0:0:
367,214,130337,1,8,0:0:0:0:
287,143,130422,1,0,0:0:0:0:
351,144,130480,1,0,0:0:0:0:
351,144,130537,1,0,0:0:0:0:
351,144,130594,1,8,0:0:0:0:
310,199,130680,1,8,0:0:0:0:
310,199,130765,1,0,0:0:0:0:
352,160,131708,1,0,0:0:0:0:
352,160,131794,1,8,0:0:0:0:
352,160,131965,1,8,0:0:0:0:
352,160,132137,1,4,0:0:0:0:
334,200,133508,1,8,0:0:0:0:
334,200,134880,1,8,0:0:0:0:
334,200,136251,1,8,0:0:0:0:
415,218,137280,1,8,0:0:0:0:
58,300,137622,1,0,0:0:0:0:
237,258,137794,1,0,0:0:0:0:
432,214,137965,1,8,0:0:0:0:
235,259,138137,1,0,0:0:0:0:
439,212,138308,1,0,0:0:0:0:
239,259,138480,1,0,0:0:0:0:
359,255,138565,1,0,0:0:0:0:
406,220,138651,1,8,0:0:0:0:
406,220,138822,1,0,0:0:0:0:
406,220,138994,1,0,0:0:0:0:
406,220,139165,1,0,0:0:0:0:
406,220,139337,1,8,0:0:0:0:
406,220,139508,1,0,0:0:0:0:
406,220,139680,1,0,0:0:0:0:
359,255,139765,1,8,0:0:0:0:
406,220,139851,1,0,0:0:0:0:
376,185,139937,1,0,0:0:0:0:
406,220,140022,1,8,0:0:0:0:
406,220,140194,1,0,0:0:0:0:
406,220,140365,1,0,0:0:0:0:
276,202,140451,1,0,0:0:0:0:
395,218,140537,1,0,0:0:0:0:
287,205,140622,1,0,0:0:0:0:
412,220,140708,1,8,0:0:0:0:
315,217,140794,1,0,0:0:0:0:
271,203,140880,1,0,0:0:0:0:
318,208,140965,1,0,0:0:0:0:
403,227,141051,1,0,0:0:0:0:
338,212,141137,1,0,0:0:0:0:
416,230,141222,1,8,0:0:0:0:
300,204,141308,1,0,0:0:0:0:
390,224,141394,1,8,0:0:0:0:
299,200,141480,1,8,0:0:0:0:
207,116,141565,1,0,0:0:0:0:
300,201,141651,1,8,0:0:0:0:
212,120,141737,1,0,0:0:0:0:
367,333,141994,1,0,0:0:0:0:
310,254,142080,1,8,0:0:0:0:
204,113,142251,1,0,0:0:0:0:
299,239,142422,1,8,0:0:0:0:
299,239,142508,1,8,0:0:0:0:
299,239,142594,1,0,0:0:0:0:
299,239,142765,1,8,0:0:0:0:
299,239,142851,1,0,0:0:0:0:
299,239,142937,1,0,0:0:0:0:
299,239,143022,1,8,0:0:0:0:
299,239,143108,1,0,0:0:0:0:
320,197,143451,1,8,0:0:0:0:
320,197,143622,1,0,0:0:0:0:
320,197,143965,1,0,0:0:0:0:
320,197,144137,1,8,0:0:0:0:
409,233,144480,1,0,0:0:0:0:
409,233,144651,1,0,0:0:0:0:
409,233,144822,1,8,0:0:0:0:
409,233,144994,1,0,0:0:0:0:
409,233,145337,1,0,0:0:0:0:
409,233,145508,1,8,0:0:0:0:
274,127,145680,1,0,0:0:0:0:
397,222,145851,1,0,0:0:0:0:
122,10,146194,1,8,0:0:0:0:
276,129,146365,1,0,0:0:0:0:
310,155,146708,1,0,0:0:0:0:
310,155,146880,1,8,0:0:0:0:
422,265,147051,1,8,0:0:0:0:
307,152,147222,1,0,0:0:0:0:
372,216,147565,1,8,0:0:0:0:
372,216,147737,1,0,0:0:0:0:
212,39,147994,1,8,0:0:0:0:
372,216,148080,1,0,0:0:0:0:
372,216,148251,1,8,0:0:0:0:
339,157,148594,1,0,0:0:0:0:
339,157,148937,1,8,0:0:0:0:
339,157,149108,1,0,0:0:0:0:
339,157,149451,1,0,0:0:0:0:
339,157,149622,1,8,0:0:0:0:
339,157,149965,1,0,0:0:0:0:
339,157,150137,1,0,0:0:0:0:
339,157,150308,1,8,0:0:0:0:
172,227,150480,1,0,0:0:0:0:
244,160,150822,1,0,0:0:0:0:
244,160,150994,1,8,0:0:0:0:
84,181,151165,1,0,0:0:0:0:
229,162,151337,1,0,0:0:0:0:
192,167,151680,1,8,0:0:0:0:
192,167,151851,1,0,0:0:0:0:
192,167,152194,1,0,0:0:0:0:
192,167,152365,1,8,0:0:0:0:
192,167,152537,1,8,0:0:0:0:
192,167,152708,1,0,0:0:0:0:
320,198,153051,1,8,0:0:0:0:
215,195,153222,1,0,0:0:0:0:
278,62,153394,1,8,0:0:0:0:
215,195,153651,1,0,0:0:0:0:
215,195,153737,1,8,0:0:0:0:
215,195,153908,1,0,0:0:0:0:
215,195,153994,1,0,0:0:0:0:
215,195,154080,1,0,0:0:0:0:
254,202,154422,1,8,0:0:0:0:
420,239,154594,1,0,0:0:0:0:
345,222,154680,1,0,0:0:0:0:
189,187,154851,1,8,0:0:0:0:
262,203,154937,1,0,0:0:0:0:
262,203,155108,1,8,0:0:0:0:
434,212,155280,1,8,0:0:0:0:
370,208,155365,1,8,0:0:0:0:
262,203,155451,1,0,0:0:0:0:
262,203,155622,1,0,0:0:0:0:
441,169,155794,1,8,0:0:0:0:
256,204,155965,1,0,0:0:0:0:
374,181,156051,1,0,0:0:0:0:
275,161,156137,1,8,0:0:0:0:
178,221,156222,1,8,0:0:0:0:
238,176,156308,1,0,0:0:0:0:
486,155,156480,1,8,0:0:0:0:
328,145,156651,1,0,0:0:0:0:
169,134,156822,1,0,0:0:0:0:
254,202,157165,1,8,0:0:0:0:
420,239,157337,1,0,0:0:0:0:
345,222,157423,1,0,0:0:0:0:
189,187,157594,1,8,0:0:0:0:
262,203,157680,1,0,0:0:0:0:
262,203,157851,1,8,0:0:0:0:
434,212,158023,1,8,0:0:0:0:
370,208,158108,1,8,0:0:0:0:
262,203,158194,1,0,0:0:0:0:
262,203,158365,1,0,0:0:0:0:
441,169,158537,1,8,0:0:0:0:
256,204,158708,1,0,0:0:0:0:
374,181,158794,1,8,0:0:0:0:
178,221,158965,1,8,0:0:0:0:
238,176,159051,1,0,0:0:0:0:
185,105,159137,1,0,0:0:0:0:
486,155,159223,1,8,0:0:0:0:
215,195,159565,1,0,0:0:0:0:
254,202,159907,1,8,0:0:0:0:
420,239,160079,1,0,0:0:0:0:
345,222,160165,1,0,0:0:0:0:
189,187,160336,1,8,0:0:0:0:
262,203,160422,1,0,0:0:0:0:
262,203,160593,1,8,0:0:0:0:
434,212,160765,1,8,0:0:0:0:
370,208,160850,1,8,0:0:0:0:
262,203,160936,1,0,0:0:0:0:
262,203,161107,1,0,0:0:0:0:
441,169,161279,1,8,0:0:0:0:
256,204,161450,1,0,0:0:0:0:
374,181,161536,1,0,0:0:0:0:
275,161,161622,1,8,0:0:0:0:
178,221,161707,1,8,0:0:0:0:
238,176,161793,1,0,0:0:0:0:
486,155,161965,1,8,0:0:0:0:
328,145,162136,1,0,0:0:0:0:
169,134,162307,1,0,0:0:0:0:
254,202,162650,1,8,0:0:0:0:
420,239,162822,1,0,0:0:0:0:
345,222,162908,1,0,0:0:0:0:
189,187,163079,1,8,0:0:0:0:
262,203,163165,1,0,0:0:0:0:
262,203,163336,1,8,0:0:0:0:
434,212,163508,1,8,0:0:0:0:
370,208,163593,1,8,0:0:0:0:
262,203,163679,1,0,0:0:0:0:
262,203,163850,1,0,0:0:0:0:
202,39,164022,1,8,0:0:0:0:
265,210,164194,1,0,0:0:0:0:
404,177,164365,1,8,0:0:0:0:
404,177,164451,1,0,0:0:0:0:
404,177,164537,1,8,0:0:0:0:
404,177,164622,1,0,0:0:0:0:
404,177,164708,1,8,0:0:0:0:
340,184,164794,1,0,0:0:0:0:
428,172,164880,1,0,0:0:0:0:
350,183,164965,1,8,0:0:0:0:
350,183,165051,1,0,0:0:0:0:
353,151,165394,1,8,0:0:0:0:
353,151,165565,1,0,0:0:0:0:
340,184,165651,1,0,0:0:0:0:
350,183,165908,1,0,0:0:0:0:
350,183,166080,1,8,0:0:0:0:
381,192,166251,1,8,0:0:0:0:
381,192,166422,1,0,0:0:0:0:
58,380,166765,1,8,0:0:0:0:
197,298,166937,1,0,0:0:0:0:
285,247,167022,1,8,0:0:0:0:
347,214,167108,1,8,0:0:0:0:
459,130,167280,1,0,0:0:0:0:
310,177,167451,1,8,0:0:0:0:
322,148,167622,1,0,0:0:0:0:
322,148,167794,1,0,0:0:0:0:
322,148,168137,1,8,0:0:0:0:
322,148,168308,1,0,0:0:0:0:
322,148,168394,1,0,0:0:0:0:
322,148,168651,1,0,0:0:0:0:
322,148,168822,1,8,0:0:0:0:
322,148,168994,1,8,0:0:0:0:
322,148,169165,1,0,0:0:0:0:
322,148,169508,1,8,0:0:0:0:
322,148,169680,1,0,0:0:0:0:
322,148,169765,1,8,0:0:0:0:
322,148,169937,1,8,0:0:0:0:
322,148,170022,1,0,0:0:0:0:
322,148,170194,1,8,0:0:0:0:
350,183,170537,1,0,0:0:0:0:
353,151,170880,1,8,0:0:0:0:
353,151,171051,1,0,0:0:0:0:
340,184,171137,1,0,0:0:0:0:
350,183,171394,1,0,0:0:0:0:
350,183,171566,1,8,0:0:0:0:
381,192,171737,1,8,0:0:0:0:
381,192,171908,1,0,0:0:0:0:
58,380,172251,1,8,0:0:0:0:
197,298,172423,1,0,0:0:0:0:
285,247,172508,1,8,0:0:0:0:
347,214,172594,1,8,0:0:0:0:
459,130,172766,1,0,0:0:0:0:
310,177,172937,1,8,0:0:0:0:
322,148,173108,1,0,0:0:0:0:
322,148,173280,1,0,0:0:0:0:
322,148,173623,1,8,0:0:0:0:
322,148,173794,1,0,0:0:0:0:
322,148,173880,1,0,0:0:0:0:
322,148,174137,1,0,0:0:0:0:
322,148,174308,1,8,0:0:0:0:
322,148,174480,1,8,0:0:0:0:
322,148,174651,1,0,0:0:0:0:
297,152,174994,1,8,0:0:0:0:
106,134,175165,1,0,0:0:0:0:
106,134,175337,1,8,0:0:0:0:
381,203,175594,1,0,0:0:0:0:
293,181,175680,1,0,0:0:0:0:
293,181,175851,1,0,0:0:0:0:
350,183,176023,1,4,0:0:0:0:
125,79,176280,1,0,0:0:0:0:
353,151,176366,1,8,0:0:0:0:
353,151,176537,1,0,0:0:0:0:
265,139,176708,1,8,0:0:0:0:
200,156,176794,1,8,0:0:0:0:
350,183,176880,1,0,0:0:0:0:
350,183,177052,1,8,0:0:0:0:
381,192,177223,1,8,0:0:0:0:
381,192,177394,1,0,0:0:0:0:
58,380,177737,1,8,0:0:0:0:
197,298,177909,1,0,0:0:0:0:
285,247,177994,1,0,0:0:0:0:
347,214,178080,1,8,0:0:0:0:
459,130,178252,1,0,0:0:0:0:
310,177,178423,1,8,0:0:0:0:
322,148,178594,1,0,0:0:0:0:
322,148,178766,1,0,0:0:0:0:
345,142,179022,1,0,0:0:0:0:
322,148,179109,1,8,0:0:0:0:
322,148,179280,1,0,0:0:0:0:
140,146,179451,1,8,0:0:0:0:
48,146,179537,1,8,0:0:0:0:
322,148,179623,1,0,0:0:0:0:
322,148,179794,1,8,0:0:0:0:
322,148,179966,1,8,0:0:0:0:
226,163,180051,1,8,0:0:0:0:
322,148,180137,1,0,0:0:0:0:
242,129,180222,1,8,0:0:0:0:
242,129,180308,1,0,0:0:0:0:
322,148,180480,1,8,0:0:0:0:
322,148,180652,1,0,0:0:0:0:
322,148,180737,1,8,0:0:0:0:
322,148,180909,1,8,0:0:0:0:
322,148,180994,1,0,0:0:0:0:
322,148,181166,1,8,0:0:0:0:
350,183,181508,1,0,0:0:0:0:
125,79,181765,1,0,0:0:0:0:
353,151,181851,1,8,0:0:0:0:
353,151,182022,1,0,0:0:0:0:
265,139,182193,1,8,0:0:0:0:
200,156,182279,1,8,0:0:0:0:
350,183,182365,1,0,0:0:0:0:
350,183,182537,1,8,0:0:0:0:
381,192,182708,1,8,0:0:0:0:
381,192,182879,1,0,0:0:0:0:
58,380,183222,1,8,0:0:0:0:
197,298,183394,1,0,0:0:0:0:
285,247,183479,1,0,0:0:0:0:
347,214,183565,1,8,0:0:0:0:
459,130,183737,1,0,0:0:0:0:
310,177,183908,1,8,0:0:0:0:
322,148,184079,1,0,0:0:0:0:
322,148,184251,1,0,0:0:0:0:
347,214,184422,1,0,0:0:0:0:
176,198,184594,1,8,0:0:0:0:
389,218,184765,1,0,0:0:0:0:
184,199,184937,1,0,0:0:0:0:
316,211,185022,1,0,0:0:0:0:
215,202,185108,1,0,0:0:0:0:
104,193,185194,1,0,0:0:0:0:
197,200,185280,1,8,0:0:0:0:
267,206,185365,1,0,0:0:0:0:
348,214,185451,1,0,0:0:0:0:
227,203,185537,1,0,0:0:0:0:
267,206,185622,1,0,0:0:0:0:
256,192,185794,12,0,186651,0:0:0:0:
297,151,186994,5,12,0:0:0:0:
112,142,197965,5,8,0:0:0:0:
219,211,199337,1,8,0:0:0:0:
251,197,200022,1,8,0:0:0:0:
251,197,200708,1,8,0:0:0:0:
251,197,202080,1,8,0:0:0:0:
268,184,203451,1,8,0:0:0:0:
279,200,204822,1,8,0:0:0:0:
279,200,205508,1,8,0:0:0:0:
279,200,206194,1,8,0:0:0:0:
279,200,206880,5,8,0:0:0:0:
279,200,207565,5,8,0:0:0:0:
221,256,208251,2,0,L|216:301,3,35
394,171,208937,5,4,0:0:0:0:
105,328,209280,1,8,0:0:0:0:
411,161,209622,1,0,0:0:0:0:
108,331,209965,1,8,0:0:0:0:
414,159,210308,1,0,0:0:0:0:
109,332,210651,1,8,0:0:0:0:
408,162,210994,1,0,0:0:0:0:
120,329,211337,1,8,0:0:0:0:
247,213,211508,1,8,0:0:0:0:
415,157,211680,1,0,0:0:0:0:
126,331,212022,1,8,0:0:0:0:
405,162,212365,1,0,0:0:0:0:
62,75,212708,1,8,0:0:0:0:
406,162,213051,1,0,0:0:0:0:
235,119,213222,1,0,0:0:0:0:
394,159,213394,1,8,0:0:0:0:
52,229,213737,1,0,0:0:0:0:
336,192,213994,1,8,0:0:0:0:
418,182,214080,1,8,0:0:0:0:
244,204,214251,1,8,0:0:0:0:
394,171,214422,5,0,0:0:0:0:
105,328,214765,1,8,0:0:0:0:
411,161,215107,1,0,0:0:0:0:
108,331,215450,1,8,0:0:0:0:
248,231,215622,1,8,0:0:0:0:
414,159,215793,1,0,0:0:0:0:
109,332,216136,1,8,0:0:0:0:
345,316,216394,1,8,0:0:0:0:
408,162,216479,1,0,0:0:0:0:
272,123,216651,1,0,0:0:0:0:
120,329,216822,1,8,0:0:0:0:
247,213,216993,1,8,0:0:0:0:
415,157,217165,1,0,0:0:0:0:
126,331,217507,1,8,0:0:0:0:
405,162,217850,1,0,0:0:0:0:
226,147,218022,1,0,0:0:0:0:
62,75,218193,1,8,0:0:0:0:
116,125,218280,1,8,0:0:0:0:
246,245,218451,1,8,0:0:0:0:
406,162,218537,1,0,0:0:0:0:
474,215,218622,1,8,0:0:0:0:
371,194,218708,1,8,0:0:0:0:
474,215,218880,1,8,0:0:0:0:
474,215,218965,1,8,0:0:0:0:
474,215,219051,1,8,0:0:0:0:
285,150,219222,1,8,0:0:0:0:
285,150,219265,1,8,0:0:0:0:
295,162,219394,1,0,0:0:0:0:
253,167,219437,1,0,0:0:0:0:
460,183,219565,1,12,0:0:0:0:
422,193,219908,5,12,0:0:0:0:
273,186,220079,1,0,0:0:0:0:
423,193,220250,1,8,0:0:0:0:
249,157,220422,1,0,0:0:0:0:
343,161,220508,1,0,0:0:0:0:
394,188,220593,1,8,0:0:0:0:
343,177,220765,1,0,0:0:0:0:
257,47,220936,1,8,0:0:0:0:
340,191,221108,1,0,0:0:0:0:
305,131,221193,1,0,0:0:0:0:
305,131,221279,1,8,0:0:0:0:
305,131,221365,1,8,0:0:0:0:
305,131,221450,1,0,0:0:0:0:
305,131,221622,1,8,0:0:0:0:
305,131,221793,1,0,0:0:0:0:
305,131,221965,1,8,0:0:0:0:
305,131,222050,1,0,0:0:0:0:
305,131,222136,1,0,0:0:0:0:
305,131,222222,1,8,0:0:0:0:
280,204,222308,1,8,0:0:0:0:
417,124,222479,1,8,0:0:0:0:
348,133,222565,1,0,0:0:0:0:
282,142,222650,1,8,0:0:0:0:
432,227,222822,1,0,0:0:0:0:
277,139,222993,1,8,0:0:0:0:
354,183,223079,1,8,0:0:0:0:
255,126,223165,1,0,0:0:0:0:
404,212,223336,1,8,0:0:0:0:
259,128,223508,1,0,0:0:0:0:
313,159,223593,1,0,0:0:0:0:
313,159,223679,1,8,0:0:0:0:
313,159,223765,1,8,0:0:0:0:
313,159,223850,1,0,0:0:0:0:
313,159,224022,1,8,0:0:0:0:
313,159,224193,1,0,0:0:0:0:
313,159,224279,1,0,0:0:0:0:
313,159,224365,1,8,0:0:0:0:
313,159,224536,1,0,0:0:0:0:
313,159,224708,1,8,0:0:0:0:
313,159,224793,1,8,0:0:0:0:
313,159,224879,1,0,0:0:0:0:
313,159,224965,1,8,0:0:0:0:
313,159,225050,1,8,0:0:0:0:
490,142,225222,1,0,0:0:0:0:
421,148,225308,1,0,0:0:0:0:
364,154,225393,1,0,0:0:0:0:
190,85,225565,1,8,0:0:0:0:
340,151,225736,1,8,0:0:0:0:
499,224,225908,1,8,0:0:0:0:
436,199,225994,1,8,0:0:0:0:
339,150,226080,1,8,0:0:0:0:
487,246,226250,1,8,0:0:0:0:
335,148,226422,1,8,0:0:0:0:
385,180,226593,1,8,0:0:0:0:
385,180,226679,1,8,0:0:0:0:
385,180,226765,1,0,0:0:0:0:
413,204,226936,1,8,0:0:0:0:
355,193,227108,1,8,0:0:0:0:
278,166,227280,1,8,0:0:0:0:
308,129,227365,1,8,0:0:0:0:
362,260,227450,1,8,0:0:0:0:
219,140,227622,1,8,0:0:0:0:
355,259,227794,1,8,0:0:0:0:
434,221,227879,1,8,0:0:0:0:
282,195,228050,1,8,0:0:0:0:
350,255,228136,1,0,0:0:0:0:
329,170,228222,1,0,0:0:0:0:
312,123,228308,1,8,0:0:0:0:
312,123,228393,1,0,0:0:0:0:
312,123,228479,1,8,0:0:0:0:
312,123,228565,1,8,0:0:0:0:
312,123,228650,1,0,0:0:0:0:
270,109,228708,1,8,0:0:0:0:
312,123,228765,1,8,0:0:0:0:
312,123,228822,1,0,0:0:0:0:
312,123,228908,1,0,0:0:0:0:
312,123,228993,1,8,0:0:0:0:
312,123,229079,1,0,0:0:0:0:
312,123,229165,1,8,0:0:0:0:
312,123,229222,1,8,0:0:0:0:
251,124,229279,1,8,0:0:0:0:
193,105,229336,1,0,0:0:0:0:
282,89,229422,1,8,0:0:0:0:
328,123,229508,1,0,0:0:0:0:
430,298,230194,1,8,0:0:0:0:
430,298,230280,1,8,0:0:0:0:
430,298,230365,1,0,0:0:0:0:
430,298,230451,1,0,0:0:0:0:
430,298,230537,1,8,0:0:0:0:
430,298,230622,1,8,0:0:0:0:
430,298,230708,1,0,0:0:0:0:
285,215,230880,1,4,0:0:0:0:
352,230,231137,1,8,0:0:0:0:
353,231,231222,1,0,0:0:0:0:
353,231,231393,1,8,0:0:0:0:
353,231,231565,1,0,0:0:0:0:
297,147,231651,1,8,0:0:0:0:
298,148,231822,1,8,0:0:0:0:
374,237,231908,1,0,0:0:0:0:
281,213,231993,1,8,0:0:0:0:
373,236,232079,1,0,0:0:0:0:
203,194,232250,1,0,0:0:0:0:
276,212,232337,1,0,0:0:0:0:
423,248,232508,1,8,0:0:0:0:
348,229,232593,1,0,0:0:0:0:
271,211,232679,1,8,0:0:0:0:
144,90,232850,1,8,0:0:0:0:
359,230,232936,1,0,0:0:0:0:
192,187,233108,1,0,0:0:0:0:
269,207,233193,1,0,0:0:0:0:
376,235,233279,1,8,0:0:0:0:
289,212,233365,1,0,0:0:0:0:
371,235,233450,1,8,0:0:0:0:
303,215,233536,1,8,0:0:0:0:
355,231,233622,1,0,0:0:0:0:
331,194,233708,1,8,0:0:0:0:
443,226,233880,1,8,0:0:0:0:
443,226,233965,1,0,0:0:0:0:
368,186,234051,1,0,0:0:0:0:
443,226,234136,1,8,0:0:0:0:
302,162,234308,1,0,0:0:0:0:
201,27,234479,1,8,0:0:0:0:
258,103,234565,1,8,0:0:0:0:
304,165,234650,1,0,0:0:0:0:
258,103,234736,1,0,0:0:0:0:
309,172,234822,1,8,0:0:0:0:
214,42,234993,1,0,0:0:0:0:
308,186,235165,1,8,0:0:0:0:
264,119,235250,1,8,0:0:0:0:
309,184,235336,1,0,0:0:0:0:
274,134,235508,1,8,0:0:0:0:
274,134,235679,1,0,0:0:0:0:
428,197,235765,1,8,0:0:0:0:
328,192,235851,1,0,0:0:0:0:
363,170,235937,1,0,0:0:0:0:
288,140,236022,1,8,0:0:0:0:
353,166,236108,1,8,0:0:0:0:
216,112,236279,1,8,0:0:0:0:
297,202,236365,1,0,0:0:0:0:
360,207,236622,1,8,0:0:0:0:
353,231,236708,1,0,0:0:0:0:
353,231,236879,1,8,0:0:0:0:
353,231,237051,1,0,0:0:0:0:
309,155,237137,1,8,0:0:0:0:
289,215,237308,1,8,0:0:0:0:
374,237,237394,1,0,0:0:0:0:
281,213,237479,1,8,0:0:0:0:
373,236,237565,1,0,0:0:0:0:
203,194,237736,1,0,0:0:0:0:
276,212,237822,1,0,0:0:0:0:
423,248,237994,1,8,0:0:0:0:
348,229,238079,1,0,0:0:0:0:
271,211,238165,1,8,0:0:0:0:
437,251,238336,1,8,0:0:0:0:
359,230,238422,1,0,0:0:0:0:
192,187,238594,1,0,0:0:0:0:
269,207,238679,1,0,0:0:0:0:
376,235,238765,1,8,0:0:0:0:
289,212,238851,1,0,0:0:0:0:
371,235,238936,1,8,0:0:0:0:
303,215,239022,1,8,0:0:0:0:
355,231,239108,1,0,0:0:0:0:
443,226,239194,1,8,0:0:0:0:
443,226,239365,1,8,0:0:0:0:
443,226,239451,1,0,0:0:0:0:
443,226,239537,1,0,0:0:0:0:
378,185,239622,1,8,0:0:0:0:
302,162,239794,1,0,0:0:0:0:
210,11,239965,1,8,0:0:0:0:
245,66,240051,1,8,0:0:0:0:
304,165,240136,1,0,0:0:0:0:
258,103,240222,1,0,0:0:0:0:
309,172,240308,1,8,0:0:0:0:
214,42,240479,1,0,0:0:0:0:
308,186,240651,1,8,0:0:0:0:
264,119,240736,1,8,0:0:0:0:
309,184,240822,1,0,0:0:0:0:
274,134,240994,1,8,0:0:0:0:
274,134,241165,1,0,0:0:0:0:
335,101,241251,1,8,0:0:0:0:
404,181,241337,1,0,0:0:0:0:
363,170,241422,1,0,0:0:0:0:
288,140,241508,1,8,0:0:0:0:
345,193,241594,1,8,0:0:0:0:
264,119,241765,1,0,0:0:0:0:
264,119,241851,1,8,0:0:0:0:
225,124,242194,1,4,0:0:0:0:
374,90,242365,1,8,0:0:0:0:
353,231,242537,1,0,0:0:0:0:
281,181,242622,1,0,0:0:0:0:
224,90,242708,1,8,0:0:0:0:
287,211,242794,1,0,0:0:0:0:
374,237,242879,1,8,0:0:0:0:
281,213,242964,1,8,0:0:0:0:
373,236,243050,1,0,0:0:0:0:
203,194,243221,1,0,0:0:0:0:
276,212,243307,1,8,0:0:0:0:
423,248,243479,1,8,0:0:0:0:
348,229,243564,1,0,0:0:0:0:
271,211,243650,1,8,0:0:0:0:
144,90,243821,1,8,0:0:0:0:
359,230,243907,1,0,0:0:0:0:
192,187,244080,1,0,0:0:0:0:
269,207,244165,1,8,0:0:0:0:
376,235,244250,1,0,0:0:0:0:
289,212,244336,1,0,0:0:0:0:
371,235,244421,1,8,0:0:0:0:
303,215,244507,1,8,0:0:0:0:
355,231,244593,1,0,0:0:0:0:
443,226,244680,1,8,0:0:0:0:
443,226,244851,1,8,0:0:0:0:
443,226,244937,1,0,0:0:0:0:
443,226,245022,1,0,0:0:0:0:
302,162,245108,1,8,0:0:0:0:
119,157,245280,1,0,0:0:0:0:
201,27,245450,1,8,0:0:0:0:
219,81,245536,1,8,0:0:0:0:
304,165,245621,1,0,0:0:0:0:
258,103,245707,1,8,0:0:0:0:
234,183,245793,1,8,0:0:0:0:
214,42,245964,1,0,0:0:0:0:
308,186,246137,1,8,0:0:0:0:
264,119,246221,1,8,0:0:0:0:
309,184,246307,1,0,0:0:0:0:
274,134,246479,1,8,0:0:0:0:
274,134,246650,1,0,0:0:0:0:
198,137,246737,1,8,0:0:0:0:
363,170,246907,1,8,0:0:0:0:
288,140,246993,1,0,0:0:0:0:
353,166,247079,1,0,0:0:0:0:
292,86,247165,1,8,0:0:0:0:
344,157,247251,1,8,0:0:0:0:
295,91,247337,1,0,0:0:0:0:
360,207,247593,1,8,0:0:0:0:
353,166,247679,1,0,0:0:0:0:
345,226,247851,1,8,0:0:0:0:
353,231,248022,1,0,0:0:0:0:
301,182,248108,1,0,0:0:0:0:
353,231,248193,1,8,0:0:0:0:
289,215,248279,1,0,0:0:0:0:
374,237,248365,1,8,0:0:0:0:
281,213,248450,1,8,0:0:0:0:
373,236,248536,1,0,0:0:0:0:
203,194,248707,1,0,0:0:0:0:
276,212,248793,1,8,0:0:0:0:
423,248,248965,1,8,0:0:0:0:
348,229,249050,1,0,0:0:0:0:
271,211,249136,1,8,0:0:0:0:
437,251,249307,1,8,0:0:0:0:
359,230,249393,1,0,0:0:0:0:
192,187,249565,1,8,0:0:0:0:
269,207,249650,1,8,0:0:0:0:
376,235,249736,1,0,0:0:0:0:
289,212,249822,1,0,0:0:0:0:
371,235,249907,1,8,0:0:0:0:
301,207,249965,1,8,0:0:0:0:
303,215,250022,1,8,0:0:0:0:
355,231,250079,1,0,0:0:0:0:
443,226,250250,1,8,0:0:0:0:
443,226,250336,1,0,0:0:0:0:
443,226,250507,1,0,0:0:0:0:
443,226,250593,1,8,0:0:0:0:
302,162,250765,1,0,0:0:0:0:
229,165,250851,1,0,0:0:0:0:
201,27,250936,1,8,0:0:0:0:
304,165,251022,1,0,0:0:0:0:
258,103,251193,1,0,0:0:0:0:
309,172,251279,1,8,0:0:0:0:
256,192,251450,12,0,251793,0:0:0:0:
227,149,252137,5,12,0:0:0:0:
227,149,252480,1,12,0:0:0:0:
294,162,252822,1,4,0:0:0:0:
484,308,253079,1,8,0:0:0:0:
427,264,253165,1,0,0:0:0:0:
303,177,253336,1,8,0:0:0:0:
352,234,253508,1,0,0:0:0:0:
352,234,253593,1,8,0:0:0:0:
352,234,253765,1,8,0:0:0:0:
352,234,253850,1,0,0:0:0:0:
197,161,254022,1,8,0:0:0:0:
342,234,254193,1,0,0:0:0:0:
253,189,254279,1,0,0:0:0:0:
370,250,254365,1,8,0:0:0:0:
215,158,254536,1,0,0:0:0:0:
271,190,254708,1,8,0:0:0:0:
271,190,254793,1,8,0:0:0:0:
369,247,254879,1,0,0:0:0:0:
346,185,254965,1,0,0:0:0:0:
320,115,255050,1,8,0:0:0:0:
490,132,255222,1,0,0:0:0:0:
307,113,255308,1,8,0:0:0:0:
415,126,255479,1,8,0:0:0:0:
288,110,255565,1,0,0:0:0:0:
355,150,255650,1,0,0:0:0:0:
449,169,255736,1,8,0:0:0:0:
320,115,255908,1,0,0:0:0:0:
307,113,256079,1,8,0:0:0:0:
307,113,256165,1,8,0:0:0:0:
219,107,256250,1,0,0:0:0:0:
280,110,256422,1,8,0:0:0:0:
280,110,256593,1,0,0:0:0:0:
280,110,256679,1,0,0:0:0:0:
280,110,256765,1,8,0:0:0:0:
236,225,256850,1,8,0:0:0:0:
119,102,256936,1,0,0:0:0:0:
275,132,257108,1,0,0:0:0:0:
216,76,257193,1,8,0:0:0:0:
279,136,257279,1,0,0:0:0:0:
259,109,257450,1,8,0:0:0:0:
259,109,257622,1,0,0:0:0:0:
300,167,257708,1,8,0:0:0:0:
358,103,257794,1,8,0:0:0:0:
299,169,257879,1,0,0:0:0:0:
299,169,257965,1,8,0:0:0:0:
374,135,258051,1,8,0:0:0:0:
299,169,258136,1,0,0:0:0:0:
294,162,258308,1,8,0:0:0:0:
484,308,258565,1,8,0:0:0:0:
427,264,258651,1,0,0:0:0:0:
303,177,258822,1,8,0:0:0:0:
352,234,258994,1,0,0:0:0:0:
352,234,259079,1,8,0:0:0:0:
352,234,259251,1,8,0:0:0:0:
352,234,259336,1,0,0:0:0:0:
271,190,259422,1,0,0:0:0:0:
197,161,259508,1,8,0:0:0:0:
342,234,259679,1,0,0:0:0:0:
370,250,259851,1,8,0:0:0:0:
253,189,259936,1,8,0:0:0:0:
215,158,260022,1,0,0:0:0:0:
271,190,260194,1,8,0:0:0:0:
369,247,260365,1,0,0:0:0:0:
346,185,260451,1,0,0:0:0:0:
320,115,260536,1,8,0:0:0:0:
259,122,260622,1,8,0:0:0:0:
490,132,260708,1,0,0:0:0:0:
321,113,260879,1,8,0:0:0:0:
288,110,261051,1,0,0:0:0:0:
355,150,261136,1,8,0:0:0:0:
449,169,261308,1,8,0:0:0:0:
320,115,261394,1,0,0:0:0:0:
307,113,261565,1,8,0:0:0:0:
219,107,261736,1,0,0:0:0:0:
288,110,261822,1,8,0:0:0:0:
288,110,261908,1,0,0:0:0:0:
288,110,261993,1,0,0:0:0:0:
280,110,262079,1,8,0:0:0:0:
280,110,262251,1,8,0:0:0:0:
236,225,262336,1,8,0:0:0:0:
119,102,262422,1,0,0:0:0:0:
173,55,262508,1,0,0:0:0:0:
275,132,262594,1,8,0:0:0:0:
279,136,262765,1,0,0:0:0:0:
445,78,262936,1,8,0:0:0:0:
291,186,263022,1,8,0:0:0:0:
256,103,263108,1,0,0:0:0:0:
320,184,263194,1,8,0:0:0:0:
256,103,263365,1,8,0:0:0:0:
256,103,263450,1,0,0:0:0:0:
320,184,263537,1,8,0:0:0:0:
256,100,263622,1,0,0:0:0:0:
279,136,263794,1,8,0:0:0:0:
279,136,263965,1,8,0:0:0:0:
279,136,264051,1,8,0:0:0:0:
254,61,264136,1,0,0:0:0:0:
460,243,264393,1,0,0:0:0:0:
405,194,264479,1,8,0:0:0:0:
292,316,264650,1,0,0:0:0:0:
419,179,264822,1,8,0:0:0:0:
338,216,264908,1,8,0:0:0:0:
338,216,264993,1,0,0:0:0:0:
338,216,265165,1,8,0:0:0:0:
338,216,265336,1,0,0:0:0:0:
338,216,265422,1,0,0:0:0:0:
338,216,265508,1,8,0:0:0:0:
338,216,265679,1,0,0:0:0:0:
330,205,265850,1,8,0:0:0:0:
276,129,265936,1,0,0:0:0:0:
276,129,266108,1,0,0:0:0:0:
276,129,266193,1,8,0:0:0:0:
276,129,266365,1,8,0:0:0:0:
346,290,266536,1,8,0:0:0:0:
294,213,266622,1,8,0:0:0:0:
350,296,266708,1,0,0:0:0:0:
363,314,266879,1,8,0:0:0:0:
258,160,267050,1,0,0:0:0:0:
158,154,267136,1,0,0:0:0:0:
362,312,267222,1,8,0:0:0:0:
408,375,267393,1,0,0:0:0:0:
346,199,267565,1,8,0:0:0:0:
364,249,267650,1,8,0:0:0:0:
364,249,267736,1,0,0:0:0:0:
364,249,267822,1,0,0:0:0:0:
364,249,267908,1,8,0:0:0:0:
364,249,268079,1,8,0:0:0:0:
364,249,268165,1,0,0:0:0:0:
364,249,268250,1,8,0:0:0:0:
364,249,268422,1,0,0:0:0:0:
364,249,268593,1,8,0:0:0:0:
322,202,268679,1,8,0:0:0:0:
364,249,268765,1,0,0:0:0:0:
364,249,268936,1,8,0:0:0:0:
246,144,269108,1,0,0:0:0:0:
305,199,269193,1,8,0:0:0:0:
126,39,269279,1,0,0:0:0:0:
286,139,269450,1,8,0:0:0:0:
424,268,269622,1,0,0:0:0:0:
301,153,269793,1,8,0:0:0:0:
282,163,269965,1,0,0:0:0:0:
240,193,270051,1,0,0:0:0:0:
293,147,270136,1,8,0:0:0:0:
432,274,270308,1,0,0:0:0:0:
293,148,270479,1,8,0:0:0:0:
345,99,270565,1,8,0:0:0:0:
431,275,270650,1,0,0:0:0:0:
295,146,270822,1,8,0:0:0:0:
431,276,270993,1,0,0:0:0:0:
281,131,271165,1,8,0:0:0:0:
419,264,271336,1,0,0:0:0:0:
307,205,271422,1,0,0:0:0:0:
298,149,271508,1,8,0:0:0:0:
334,170,271594,1,8,0:0:0:0:
426,271,271679,1,0,0:0:0:0:
296,146,271850,1,8,0:0:0:0:
133,134,272022,1,0,0:0:0:0:
367,214,272108,1,0,0:0:0:0:
367,214,272193,1,0,0:0:0:0:
367,214,272279,1,8,0:0:0:0:
367,214,272365,1,0,0:0:0:0:
367,214,272450,1,0,0:0:0:0:
367,214,272536,1,8,0:0:0:0:
307,205,272622,1,8,0:0:0:0:
367,214,272708,1,0,0:0:0:0:
367,214,272793,1,8,0:0:0:0:
367,214,272879,1,8,0:0:0:0:
367,214,272965,1,8,0:0:0:0:
287,143,273050,1,0,0:0:0:0:
351,144,273108,1,0,0:0:0:0:
351,144,273165,1,0,0:0:0:0:
351,144,273222,1,8,0:0:0:0:
310,199,273280,1,8,0:0:0:0:
164,164,273337,1,8,0:0:0:0:
310,199,273393,1,0,0:0:0:0:
358,189,274422,1,8,0:0:0:0:
358,189,274594,1,8,0:0:0:0:
358,189,274680,1,8,0:0:0:0:
192,77,274765,1,0,0:0:0:0:
339,166,275108,1,0,0:0:0:0:
189,159,275279,1,8,0:0:0:0:
302,164,275451,1,0,0:0:0:0:
302,164,275537,1,8,0:0:0:0:
302,164,275708,1,8,0:0:0:0:
302,164,275794,1,0,0:0:0:0:
302,164,275965,1,8,0:0:0:0:
302,164,276137,1,0,0:0:0:0:
310,65,276222,1,0,0:0:0:0:
302,164,276308,1,8,0:0:0:0:
302,164,276479,1,0,0:0:0:0:
223,132,276651,1,8,0:0:0:0:
302,164,276737,1,8,0:0:0:0:
302,164,276822,1,0,0:0:0:0:
258,273,276908,1,8,0:0:0:0:
297,175,277079,1,8,0:0:0:0:
235,145,277165,1,0,0:0:0:0:
392,223,277337,1,8,0:0:0:0:
358,210,277394,1,8,0:0:0:0:
316,194,277451,1,8,0:0:0:0:
242,148,277508,1,0,0:0:0:0:
372,257,277679,1,8,0:0:0:0:
223,132,277851,1,0,0:0:0:0:
283,183,277937,1,0,0:0:0:0:
367,246,278022,1,8,0:0:0:0:
378,254,278194,1,0,0:0:0:0:
225,139,278365,1,8,0:0:0:0:
283,183,278451,1,8,0:0:0:0:
353,236,278537,1,0,0:0:0:0:
161,240,278708,1,8,0:0:0:0:
240,238,278879,1,0,0:0:0:0:
319,238,278965,1,8,0:0:0:0:
234,236,279051,1,8,0:0:0:0:
391,239,279222,1,0,0:0:0:0:
233,149,279394,1,0,0:0:0:0:
304,190,279480,1,8,0:0:0:0:
245,161,279565,1,0,0:0:0:0:
245,161,279651,1,0,0:0:0:0:
245,161,279737,1,8,0:0:0:0:
245,161,279908,1,8,0:0:0:0:
245,161,280080,1,8,0:0:0:0:
192,77,280251,1,0,0:0:0:0:
339,166,280594,1,0,0:0:0:0:
189,159,280765,1,8,0:0:0:0:
302,164,280937,1,0,0:0:0:0:
302,164,281022,1,8,0:0:0:0:
302,164,281194,1,8,0:0:0:0:
302,164,281280,1,0,0:0:0:0:
302,164,281451,1,8,0:0:0:0:
302,164,281623,1,0,0:0:0:0:
336,92,281708,1,0,0:0:0:0:
302,164,281794,1,8,0:0:0:0:
302,164,281965,1,0,0:0:0:0:
124,120,282137,1,8,0:0:0:0:
302,164,282223,1,8,0:0:0:0:
302,164,282308,1,0,0:0:0:0:
297,175,282394,1,8,0:0:0:0:
118,206,282565,1,8,0:0:0:0:
235,145,282651,1,0,0:0:0:0:
392,223,282823,1,8,0:0:0:0:
358,210,282880,1,8,0:0:0:0:
316,194,282937,1,8,0:0:0:0:
242,148,282994,1,0,0:0:0:0:
372,257,283165,1,8,0:0:0:0:
223,132,283337,1,0,0:0:0:0:
154,195,283422,1,0,0:0:0:0:
367,246,283508,1,8,0:0:0:0:
378,254,283680,1,0,0:0:0:0:
225,139,283851,1,8,0:0:0:0:
283,183,283937,1,8,0:0:0:0:
353,236,284023,1,0,0:0:0:0:
313,72,284194,1,8,0:0:0:0:
330,174,284365,1,0,0:0:0:0:
263,165,284451,1,8,0:0:0:0:
206,158,284537,1,8,0:0:0:0:
362,113,284708,1,8,0:0:0:0:
362,113,284751,1,8,0:0:0:0:
362,113,284880,1,8,0:0:0:0:
122,161,285051,1,0,0:0:0:0:
184,149,285137,1,8,0:0:0:0:
376,211,285394,1,12,0:0:0:0:
422,193,285737,5,12,0:0:0:0:
273,186,285908,1,0,0:0:0:0:
423,193,286079,1,8,0:0:0:0:
249,157,286251,1,0,0:0:0:0:
343,161,286337,1,0,0:0:0:0:
394,188,286422,1,8,0:0:0:0:
343,177,286594,1,0,0:0:0:0:
257,47,286765,1,8,0:0:0:0:
340,191,286937,1,8,0:0:0:0:
305,131,287108,1,8,0:0:0:0:
305,131,287279,1,0,0:0:0:0:
305,131,287451,1,8,0:0:0:0:
305,131,287622,1,0,0:0:0:0:
221,134,287708,1,0,0:0:0:0:
305,131,287794,1,8,0:0:0:0:
305,131,287965,1,0,0:0:0:0:
280,204,288137,1,8,0:0:0:0:
292,128,288222,1,8,0:0:0:0:
397,113,288308,1,0,0:0:0:0:
282,142,288479,1,8,0:0:0:0:
432,227,288651,1,0,0:0:0:0:
277,139,288822,1,8,0:0:0:0:
255,126,288994,1,0,0:0:0:0:
277,139,289080,1,0,0:0:0:0:
404,212,289165,1,8,0:0:0:0:
259,128,289337,1,0,0:0:0:0:
313,159,289508,1,8,0:0:0:0:
313,159,289679,1,8,0:0:0:0:
239,130,289765,1,8,0:0:0:0:
313,159,289851,1,8,0:0:0:0:
313,159,290022,1,0,0:0:0:0:
313,159,290194,1,8,0:0:0:0:
212,259,290365,1,0,0:0:0:0:
272,199,290451,1,0,0:0:0:0:
272,199,290537,1,8,0:0:0:0:
119,103,290708,1,0,0:0:0:0:
182,134,290765,1,0,0:0:0:0:
233,174,290822,1,0,0:0:0:0:
182,134,290880,1,8,0:0:0:0:
182,134,291051,1,8,0:0:0:0:
272,199,291222,1,0,0:0:0:0:
272,199,291394,1,8,0:0:0:0:
272,199,291565,1,8,0:0:0:0:
272,199,291737,1,8,0:0:0:0:
217,142,291822,1,8,0:0:0:0:
272,199,291908,1,8,0:0:0:0:
272,199,292080,1,8,0:0:0:0:
272,199,292251,1,8,0:0:0:0:
272,199,292422,1,8,0:0:0:0:
211,135,292508,1,8,0:0:0:0:
272,199,292594,1,0,0:0:0:0:
272,199,292765,1,8,0:0:0:0:
272,199,292937,1,8,0:0:0:0:
272,199,293108,1,8,0:0:0:0:
384,119,293280,1,0,0:0:0:0:
210,130,293365,1,8,0:0:0:0:
272,199,293537,1,8,0:0:0:0:
272,199,293622,1,8,0:0:0:0:
272,199,293794,1,8,0:0:0:0:
430,240,293965,1,0,0:0:0:0:
430,240,294080,1,8,0:0:0:0:
430,240,294194,1,8,0:0:0:0:
430,240,294308,1,0,0:0:0:0:
430,240,294422,1,8,0:0:0:0:
430,240,294537,1,8,0:0:0:0:
430,240,294651,1,0,0:0:0:0:
430,240,294765,1,0,0:0:0:0:
430,240,294880,1,8,0:0:0:0:
430,240,294994,1,0,0:0:0:0:
430,240,295108,1,0,0:0:0:0:
430,240,295222,1,8,0:0:0:0:
430,240,295337,1,4,0:0:0:0:
256,192,295508,12,0,296365,0:0:0:0:
332,110,296708,5,4,0:0:0:0:
332,110,297051,1,8,0:0:0:0:
334,260,297222,1,8,0:0:0:0:
332,110,297394,1,0,0:0:0:0:
332,110,297737,1,8,0:0:0:0:
332,110,298080,1,0,0:0:0:0:
357,240,298251,1,0,0:0:0:0:
332,110,298422,1,8,0:0:0:0:
332,110,298765,1,0,0:0:0:0:
332,110,299108,1,8,0:0:0:0:
332,110,299451,1,0,0:0:0:0:
443,165,299622,1,0,0:0:0:0:
332,110,299794,1,8,0:0:0:0:
279,255,299965,1,8,0:0:0:0:
332,110,300137,1,0,0:0:0:0:
332,110,300480,1,8,0:0:0:0:
332,110,300822,1,0,0:0:0:0:
429,171,300994,1,8,0:0:0:0:
332,110,301165,1,8,0:0:0:0:
332,110,301508,1,0,0:0:0:0:
361,270,301680,1,8,0:0:0:0:
331,105,301851,1,0,0:0:0:0:
361,273,302022,1,0,0:0:0:0:
332,110,302194,1,0,0:0:0:0:
332,110,302537,1,8,0:0:0:0:
419,239,302708,1,8,0:0:0:0:
332,110,302880,1,0,0:0:0:0:
332,110,303222,1,8,0:0:0:0:
332,110,303565,1,0,0:0:0:0:
415,232,303737,1,0,0:0:0:0:
332,110,303908,1,8,0:0:0:0:
332,110,304251,1,0,0:0:0:0:
332,110,304594,1,8,0:0:0:0:
332,110,304937,1,0,0:0:0:0:
450,237,305108,1,0,0:0:0:0:
332,110,305280,1,8,0:0:0:0:
219,208,305451,1,8,0:0:0:0:
332,110,305622,1,0,0:0:0:0:
332,110,305965,1,8,0:0:0:0:
332,110,306308,1,0,0:0:0:0:
245,221,306480,1,8,0:0:0:0:
332,110,306651,1,8,0:0:0:0:
438,290,307165,1,8,0:0:0:0:
438,290,307251,1,8,0:0:0:0:
438,290,307337,1,8,0:0:0:0:
438,290,307508,1,8,0:0:0:0:
293,113,307680,1,4,0:0:0:0:
173,71,308022,1,0,0:0:0:0:
192,62,308365,1,0,0:0:0:0:
192,62,308708,1,0,0:0:0:0:
192,62,309051,1,0,0:0:0:0:
192,62,309394,1,0,0:0:0:0:
192,62,309737,1,0,0:0:0:0:
192,62,310080,1,0,0:0:0:0:
192,62,310422,1,0,0:0:0:0:
192,62,310765,1,0,0:0:0:0:
192,62,311108,1,0,0:0:0:0:
192,62,311451,1,0,0:0:0:0:
192,62,311794,1,0,0:0:0:0:
192,62,312137,1,0,0:0:0:0:
192,62,312480,1,0,0:0:0:0:
192,62,312822,1,0,0:0:0:0:
192,62,312994,1,0,0:0:0:0:
192,62,313165,1,12,0:0:0:0:
192,62,313508,1,0,0:0:0:0:
192,62,313851,1,0,0:0:0:0:
192,62,314194,1,0,0:0:0:0:
192,62,314537,1,12,0:0:0:0:
443,344,314880,1,0,0:0:0:0:
201,72,315222,1,0,0:0:0:0:
447,350,315565,1,0,0:0:0:0:
200,71,315908,1,12,0:0:0:0:
240,116,316594,1,12,0:0:0:0:
240,116,317280,1,12,0:0:0:0:
256,192,317622,12,12,319165,0:0:0:0:
