osu file format v14

[General]
AudioFilename: audio.mp3
AudioLeadIn: 0
PreviewTime: 0
Countdown: 0
SampleSet: Soft
StackLeniency: 0.7
Mode: 0
LetterboxInBreaks: 0
WidescreenStoryboard: 0

[Editor]
DistanceSpacing: 2.5
BeatDivisor: 4
GridSize: 4
TimelineZoom: 1

[Metadata]
Title:Tsukematsukeru
TitleUnicode:つけまつける
Artist:Kyary Pamyu Pamyu
ArtistUnicode:またはきゃりーぱみゅぱみゅ
Creator:Revero
Version:Roll up
Source:Pamyu Pamyu Revolution
Tags:J - Pop
BeatmapID:1827439
BeatmapSetID:874350

[Difficulty]
HPDrainRate:6
CircleSize:4
OverallDifficulty:8.5
ApproachRate:9
SliderMultiplier:1.89999990463257
SliderTickRate:1

[Events]
//Background and Video events
0,0,"Tsukematsukeru.full.1283217.jpg",0,0
//Break Periods
//Storyboard Layer 0 (Background)
//Storyboard Layer 1 (Fail)
//Storyboard Layer 2 (Pass)
//Storyboard Layer 3 (Foreground)
//Storyboard Layer 4 (Overlay)
//Storyboard Sound Samples

[TimingPoints]
603,413.793103448276,4,2,0,80,1,0
1292,413.793103448276,4,2,0,80,1,0
1379,413.793103448276,4,2,0,80,1,0
1585,521.739130434783,4,2,0,80,1,0
1758,674.157303370787,4,2,0,80,1,0
2012,722.89156626506,4,2,0,80,1,0
2374,923.076923076923,4,2,0,80,1,0
3068,1276.59574468085,4,2,0,80,1,0
5312,-100,4,1,0,5,0,0
5575,413.793103448276,4,2,0,80,1,0
5575,-100,4,1,0,75,0,1
9667,-100,4,2,0,50,0,1
10029,-100,4,1,0,75,0,1
10651,-100,4,1,0,5,0,1
10858,-100,4,1,0,75,0,1
11065,-100,4,1,0,5,0,1
11272,-100,4,1,0,75,0,1
11324,-100,4,2,0,75,0,1
11738,-100,4,1,0,75,0,1
12247,-100,4,1,0,60,0,1
12350,-100,4,1,0,75,0,1
13075,-100,4,1,0,60,0,1
13178,-100,4,1,0,75,0,1
14639,-100,4,2,0,75,0,1
15053,-100,4,1,0,75,0,1
17954,-100,4,2,0,75,0,1
18368,-100,4,1,0,75,0,1
18816,-100,4,1,0,75,0,0
19611,-100,4,2,0,70,0,0
19922,-100,4,1,0,80,0,0
21217,-100,4,1,0,80,0,0
21631,-100,4,1,0,80,0,0
24584,-100,4,2,0,70,0,0
25412,-100,4,1,0,80,0,0
26316,-100,4,1,0,60,0,0
26419,-100,4,1,0,80,0,0
27847,-100,4,2,0,80,0,0
28261,-100,4,1,0,80,0,0
32301,-100,4,1,0,5,0,0
32419,-100,4,1,0,81,0,0
33129,-100,4,1,0,5,0,0
33247,-100,4,1,0,80,0,0
34799,-100,4,1,0,5,0,0
34902,-100,4,1,0,80,0,0
37791,-100,4,2,0,80,0,0
38205,-100,4,1,0,80,0,0
41158,-100,4,2,0,70,0,0
41468,-100,4,1,0,80,0,0
44523,-100,4,1,0,60,0,0
44626,-100,4,1,0,80,0,0
44730,-100,4,1,0,60,0,0
44833,-100,4,1,0,80,0,0
48816,-100,4,1,0,5,0,0
49023,-100,4,1,0,80,0,0
51040,-100,4,2,0,70,0,0
51350,-100,4,1,0,80,0,0
54454,-100,4,1,0,60,0,0
54557,-100,4,1,0,80,0,0
54661,-100,4,1,0,60,0,0
54764,-100,4,1,0,80,0,0
57609,-100,4,2,0,70,0,0
58126,-100,4,1,0,80,0,0
58437,-125,4,1,0,80,0,0
59161,-125,4,1,0,5,0,0
59368,-125,4,1,0,80,0,0
59575,-125,4,1,0,5,0,0
59781,-125,4,1,0,80,0,0
59988,-125,4,1,0,5,0,0
60195,-125,4,1,0,80,0,0
60712,-166.666666666667,4,1,0,80,0,0
61540,-125,4,1,0,80,0,0
62471,-125,4,1,0,5,0,0
62678,-125,4,1,0,80,0,0
62885,-125,4,1,0,5,0,0
63092,-125,4,1,0,80,0,0
63299,-125,4,1,0,5,0,0
63506,-125,4,1,0,80,0,0
64025,-166.666666666667,4,1,0,80,0,0
64850,-125,4,1,0,80,0,0
66195,-125,4,1,0,5,0,0
66402,-125,4,1,0,80,0,0
66613,-125,4,1,0,5,0,0
66816,-125,4,1,0,80,0,0
67023,-125,4,1,0,5,0,0
67230,-125,4,1,0,80,0,0
67643,-125,4,1,0,5,0,0
67850,-125,4,1,0,80,0,0
68161,-166.666666666667,4,1,0,80,0,0
68988,-125,4,1,0,80,0,0
69816,-125,4,2,0,70,0,0
71057,-125,4,1,0,80,0,0
71678,-100,4,1,0,80,0,0
71781,-100,4,1,0,80,0,1
71881,-100,4,1,0,5,0,1
72195,-100,4,1,0,80,0,1
72816,-100,4,1,0,5,0,1
73023,-100,4,1,0,80,0,1
74316,-100,4,1,0,60,0,1
74419,-100,4,1,0,80,0,1
74523,-100,4,1,0,60,0,1
74626,-100,4,1,0,80,0,1
76126,-100,4,1,0,5,0,1
76333,-100,4,1,0,80,0,1
76954,-100,4,1,0,5,0,1
77161,-100,4,1,0,80,0,1
77368,-100,4,1,0,5,0,1
77575,-100,4,2,0,70,0,1
77833,-100,4,1,0,80,0,1
78609,-100,4,1,0,5,0,1
78816,-100,4,1,0,80,0,1
79437,-100,4,1,0,5,0,1
79643,-100,4,1,0,80,0,1
81092,-100,4,1,0,5,0,1
81299,-100,4,1,0,80,0,1
82747,-100,4,1,0,5,0,1
82954,-100,4,1,0,80,0,1
83575,-100,4,1,0,5,0,1
83781,-100,4,1,0,80,0,1
84092,-100,4,2,0,70,0,1
84609,-100,4,1,0,80,0,1
85023,-100,4,1,0,50,0,0
85075,-100,4,1,0,30,0,0
85178,-100,4,1,0,50,0,0
85284,-100,4,1,0,30,0,0
85385,-100,4,1,0,50,0,0
85488,-100,4,1,0,30,0,0
85592,-100,4,1,0,50,0,0
85695,-100,4,1,0,30,0,0
85799,-100,4,1,0,50,0,0
85902,-100,4,1,0,30,0,0
86006,-100,4,1,0,50,0,0
86109,-100,4,1,0,30,0,0
86212,-100,4,1,0,50,0,0
86316,-100,4,1,0,30,0,0
86419,-100,4,1,0,50,0,0
86523,-100,4,1,0,30,0,0
86678,-100,4,1,0,80,0,0
88230,-100,4,1,0,50,0,0
88385,-100,4,1,0,30,0,0
88488,-100,4,1,0,50,0,0
88592,-100,4,1,0,30,0,0
88695,-100,4,1,0,50,0,0
88799,-100,4,1,0,30,0,0
88902,-100,4,1,0,50,0,0
89006,-100,4,1,0,30,0,0
89109,-100,4,1,0,50,0,0
89212,-100,4,1,0,30,0,0
89316,-100,4,1,0,50,0,0
89419,-100,4,1,0,30,0,0
89523,-100,4,1,0,50,0,0
89626,-100,4,1,0,30,0,0
89730,-100,4,1,0,50,0,0
89833,-100,4,1,0,30,0,0
89988,-100,4,1,0,80,0,0

[HitObjects]
168,270,603,5,0,0:0:0:0:
145,224,706,1,0,0:0:0:0:
148,179,809,1,0,0:0:0:0:
174,138,913,1,0,0:0:0:0:
215,116,1016,1,0,0:0:0:0:
262,112,1120,1,0,0:0:0:0:
306,128,1223,1,0,0:0:0:0:
345,177,1360,5,0,0:0:0:0:
353,237,1482,1,0,0:0:0:0:
331,298,1650,1,0,0:0:0:0:
249,339,1870,1,0,0:0:0:0:
94,223,2192,1,0,0:0:0:0:
245,79,2604,1,0,0:0:0:0:
374,169,3387,1,4,0:0:0:0:
256,192,3706,12,0,5302,0:0:0:0:
115,202,5575,6,0,B|83:69|83:69|145:81,1,189.999990463257
305,105,6195,1,0,0:0:0:0:
419,247,6402,2,0,B|347:358|347:358|328:302,1,189.999990463257
274,71,7023,5,0,0:0:0:0:
126,245,7230,1,0,0:0:0:0:
346,288,7437,1,0,0:0:0:0:
179,134,7643,1,0,0:0:0:0:
407,137,7850,1,0,0:0:0:0:
260,293,8057,2,0,P|176:280|200:195,1,189.999990463257,4|0,0:0|0:0,0:0:0:0:
373,54,8678,1,0,0:0:0:0:
192,192,8885,5,0,0:0:0:0:
411,254,9092,1,0,0:0:0:0:
248,94,9299,1,0,0:0:0:0:
292,317,9506,1,0,0:0:0:0:
92,208,9712,1,0,0:0:0:0:
92,208,9816,1,0,0:0:0:0:
92,208,9919,1,0,0:0:0:0:
306,130,10126,5,0,0:0:0:0:
254,352,10333,1,0,0:0:0:0:
111,184,10540,2,0,P|117:131|170:108,1,94.9999952316285
367,78,10954,2,0,P|409:104|413:159,1,94.9999952316285
388,248,11368,5,0,0:0:0:0:
363,288,11471,1,0,0:0:0:0:
320,309,11575,1,0,0:0:0:0:
272,305,11678,1,0,0:0:0:0:
192,248,11781,1,0,0:0:0:0:
336,71,11988,1,0,0:0:0:0:
77,84,12195,6,0,L|91:137,2,47.4999976158143
235,249,12609,1,0,0:0:0:0:
52,112,12816,1,0,0:0:0:0:
51,340,13023,2,0,L|90:313,2,47.4999976158143
247,221,13437,5,0,0:0:0:0:
106,42,13643,1,0,0:0:0:0:
333,59,13850,1,0,0:0:0:0:
298,259,14057,1,0,0:0:0:0:
182,62,14264,1,0,0:0:0:0:
387,161,14471,1,0,0:0:0:0:
268,286,14678,5,0,0:0:0:0:
243,245,14781,1,0,0:0:0:0:
242,196,14885,1,0,0:0:0:0:
260,153,14988,1,0,0:0:0:0:
310,49,15092,1,0,0:0:0:0:
286,275,15299,1,0,0:0:0:0:
147,94,15506,5,0,0:0:0:0:
224,307,15712,1,0,0:0:0:0:
393,154,15919,1,0,0:0:0:0:
166,180,16126,1,0,0:0:0:0:
196,88,16333,2,0,P|271:62|374:128,1,189.999990463257
410,210,16954,5,0,0:0:0:0:
337,279,17161,2,0,P|243:316|165:260,1,189.999990463257
75,152,17781,1,0,0:0:0:0:
174,119,17988,1,0,0:0:0:0:
216,118,18092,1,0,0:0:0:0:
252,147,18195,1,0,0:0:0:0:
259,194,18299,1,0,0:0:0:0:
231,349,18402,1,0,0:0:0:0:
129,144,18609,1,0,0:0:0:0:
356,125,18816,5,0,0:0:0:0:
374,352,19023,1,0,0:0:0:0:
168,253,19230,1,0,0:0:0:0:
368,143,19437,1,0,0:0:0:0:
242,332,19643,1,0,0:0:0:0:
242,332,19747,1,0,0:0:0:0:
242,332,19850,1,0,0:0:0:0:
368,143,20057,5,0,0:0:0:0:
305,362,20264,1,0,0:0:0:0:
183,168,20471,1,0,0:0:0:0:
305,362,20678,1,0,0:0:0:0:
77,340,20885,1,0,0:0:0:0:
26,117,21092,1,0,0:0:0:0:
242,248,21299,2,0,P|197:280|139:251,1,94.9999952316285,8|0,0:0|0:0,0:0:0:0:
63,246,21712,1,0,0:0:0:0:
281,171,21919,1,0,0:0:0:0:
76,70,22126,5,0,0:0:0:0:
214,251,22333,1,0,0:0:0:0:
317,47,22540,1,0,0:0:0:0:
140,191,22747,1,0,0:0:0:0:
362,211,22954,2,0,P|366:255|314:292,1,94.9999952316285
197,343,23368,5,0,0:0:0:0:
1,225,23575,1,0,0:0:0:0:
152,82,23781,2,0,P|207:80|250:121,1,94.9999952316285
366,214,24195,1,0,0:0:0:0:
165,322,24402,1,0,0:0:0:0:
90,240,24609,5,0,0:0:0:0:
102,183,24712,1,0,0:0:0:0:
150,150,24816,1,0,0:0:0:0:
207,161,24919,1,0,0:0:0:0:
258,192,25023,1,0,0:0:0:0:
309,223,25126,1,0,0:0:0:0:
366,236,25230,1,0,0:0:0:0:
407,204,25333,1,0,0:0:0:0:
454,99,25437,5,0,0:0:0:0:
228,73,25643,1,0,0:0:0:0:
394,229,25850,1,0,0:0:0:0:
165,224,26057,1,0,0:0:0:0:
297,70,26264,2,0,L|251:109,2,47.4999976158143
115,210,26678,5,0,0:0:0:0:
317,104,26885,1,0,0:0:0:0:
102,25,27092,1,0,0:0:0:0:
317,104,27299,1,0,0:0:0:0:
88,104,27506,1,0,0:0:0:0:
127,327,27712,1,0,0:0:0:0:
299,177,27919,5,0,0:0:0:0:
299,177,28023,1,0,0:0:0:0:
299,177,28126,1,0,0:0:0:0:
174,367,28333,1,0,0:0:0:0:
156,139,28540,1,0,0:0:0:0:
35,109,28747,5,0,0:0:0:0:
125,270,28954,1,0,0:0:0:0:
339,270,29161,1,0,0:0:0:0:
455,102,29368,1,0,0:0:0:0:
300,129,29575,2,0,B|250:141|250:141|221:106,1,94.9999952316285
170,52,29988,5,0,0:0:0:0:
254,236,30195,1,0,0:0:0:0:
398,82,30402,1,0,0:0:0:0:
430,278,30816,1,0,0:0:0:0:
256,130,31023,1,0,0:0:0:0:
70,262,31230,1,4,0:0:0:0:
265,196,32057,6,0,P|221:144|260:77,1,142.499992847443
355,38,32471,2,0,P|403:61|399:117,1,94.9999952316285
350,203,32885,2,0,P|276:229|215:179,1,142.499992847443
140,114,33299,2,0,P|138:64|191:41,1,94.9999952316285
273,36,33712,5,0,0:0:0:0:
424,206,33919,1,0,0:0:0:0:
248,351,34126,1,0,0:0:0:0:
21,308,34333,1,0,0:0:0:0:
129,133,34540,2,0,P|185:176|252:160,1,142.499992847443
335,97,34954,1,0,0:0:0:0:
282,318,35161,1,4,0:0:0:0:
445,145,35368,6,0,P|422:100|365:86,1,94.9999952316285
189,91,35781,1,0,0:0:0:0:
50,272,35988,1,0,0:0:0:0:
284,353,36195,2,0,P|346:349|365:304,1,94.9999952316285
417,165,36609,1,0,0:0:0:0:
285,23,36816,1,0,0:0:0:0:
110,107,37023,5,0,0:0:0:0:
294,241,37230,1,0,0:0:0:0:
240,19,37437,1,0,0:0:0:0:
202,242,37643,1,0,0:0:0:0:
158,130,37850,1,0,0:0:0:0:
203,122,37954,1,0,0:0:0:0:
248,114,38057,1,0,0:0:0:0:
470,62,38264,1,0,0:0:0:0:
303,217,38471,1,4,0:0:0:0:
116,122,38678,6,0,P|154:91|215:102,1,94.9999952316285
366,122,39092,2,0,P|403:160|370:191,1,94.9999952316285
205,268,39506,2,0,P|194:326|239:342,1,94.9999952316285
363,337,39919,2,0,P|372:294|346:249,1,94.9999952316285
180,94,40333,5,0,0:0:0:0:
59,287,40540,1,0,0:0:0:0:
286,288,40747,1,0,0:0:0:0:
435,115,40954,1,0,0:0:0:0:
225,25,41161,1,0,0:0:0:0:
225,25,41264,1,0,0:0:0:0:
225,25,41368,1,0,0:0:0:0:
93,211,41575,1,0,0:0:0:0:
301,301,41781,1,4,0:0:0:0:
172,308,41988,6,0,P|125:286|129:230,1,94.9999952316285
181,44,42402,2,0,P|181:84|238:113,1,94.9999952316285
415,202,42816,2,0,L|317:202,1,94.9999952316285
94,300,43230,2,0,L|203:300,1,94.9999952316285
306,368,43643,5,0,0:0:0:0:
281,141,43850,1,0,0:0:0:0:
112,294,44057,1,0,0:0:0:0:
317,194,44264,1,0,0:0:0:0:
201,174,44471,2,0,L|138:192,3,47.4999976158143
33,224,44885,1,0,0:0:0:0:
167,348,45092,1,4,0:0:0:0:
116,274,45299,6,0,P|75:246|112:209,1,94.9999952316285
333,220,45712,2,0,P|362:167|310:124,1,94.9999952316285
180,35,46126,2,0,P|172:84|234:119,1,94.9999952316285
401,170,46540,2,0,P|398:224|331:226,1,94.9999952316285
86,243,46954,5,0,0:0:0:0:
207,109,47161,1,0,0:0:0:0:
387,110,47368,1,0,0:0:0:0:
499,251,47575,1,0,0:0:0:0:
293,250,47781,2,0,L|178:249,1,94.9999952316285
96,251,48195,1,0,0:0:0:0:
276,250,48402,1,4,0:0:0:0:
245,154,48609,6,0,P|265:90|188:94,1,142.499992847443
63,164,49023,2,0,P|48:215|110:208,1,94.9999952316285
245,238,49437,2,0,P|302:233|341:276,1,94.9999952316285
425,348,49850,1,0,0:0:0:0:
408,168,50057,1,0,0:0:0:0:
263,59,50264,1,0,0:0:0:0:
141,192,50471,1,0,0:0:0:0:
313,137,50678,1,0,0:0:0:0:
351,313,50885,1,0,0:0:0:0:
180,253,51092,5,0,0:0:0:0:
180,253,51195,1,0,0:0:0:0:
180,253,51299,1,0,0:0:0:0:
75,105,51506,1,0,0:0:0:0:
180,253,51712,1,4,0:0:0:0:
278,172,51919,6,0,B|313:129|313:129|272:121,1,94.9999952316285
70,109,52333,2,0,P|51:163|107:188,1,94.9999952316285
298,325,52747,2,0,P|357:321|374:271,1,94.9999952316285
396,159,53161,2,0,P|397:115|346:106,1,94.9999952316285
168,134,53575,5,0,0:0:0:0:
295,260,53781,1,0,0:0:0:0:
470,303,53988,1,0,0:0:0:0:
292,338,54195,1,0,0:0:0:0:
329,157,54402,2,0,L|378:126,3,47.4999976158143
451,88,54816,1,0,0:0:0:0:
291,172,55023,1,4,0:0:0:0:
239,76,55230,6,0,P|332:117|342:233,1,189.999990463257
355,341,55850,1,0,0:0:0:0:
431,166,56057,1,0,0:0:0:0:
249,178,56264,1,0,0:0:0:0:
235,358,56471,1,0,0:0:0:0:
249,178,56678,1,0,0:0:0:0:
186,347,56885,5,0,0:0:0:0:
326,234,57092,1,0,0:0:0:0:
179,128,57299,1,0,0:0:0:0:
333,34,57506,1,0,0:0:0:0:
330,136,57712,1,0,0:0:0:0:
293,166,57815,1,0,0:0:0:0:
256,196,57918,1,0,0:0:0:0:
219,226,58022,1,0,0:0:0:0:
182,256,58125,1,0,0:0:0:0:
209,47,58954,6,0,P|176:106|179:167,1,113.999994277954
200,223,59368,2,0,P|235:266|314:284,1,113.999994277954
363,276,59781,2,0,P|416:244|411:181,1,113.999994277954
391,125,60195,2,0,P|319:74|244:110,1,151.999992370606
197,183,60816,2,0,P|191:254|276:248,1,170.999986198426
432,107,61850,1,4,0:0:0:0:
250,61,62264,6,0,P|190:93|171:154,1,113.999994277954
174,209,62678,2,0,P|185:266|249:313,1,113.999994277954
298,319,63092,2,0,P|363:309|407:265,1,113.999994277954
430,209,63506,2,0,P|418:137|362:84,1,151.999992370606
293,58,64126,2,0,B|205:42|205:42|174:128,1,170.999986198426
113,310,65161,1,4,0:0:0:0:
260,228,65575,5,0,0:0:0:0:
260,228,65781,1,0,0:0:0:0:
180,254,65988,2,0,P|137:227|130:161,1,113.999994277954
142,93,66402,2,0,P|173:44|231:42,1,113.999994277954
290,78,66816,6,0,P|318:132|293:191,1,113.999994277954
261,248,67230,1,0,0:0:0:0:
387,163,67437,2,0,P|422:214|392:267,1,113.999994277954
352,314,67850,1,0,0:0:0:0:
243,215,68057,1,0,0:0:0:0:
132,114,68264,2,0,B|185:15|289:70,1,170.999986198426
374,108,69299,1,0,0:0:0:0:
176,210,69506,5,0,0:0:0:0:
176,210,69712,1,0,0:0:0:0:
179,215,69919,1,0,0:0:0:0:
179,252,70022,1,0,0:0:0:0:
195,287,70125,1,0,0:0:0:0:
223,312,70229,1,0,0:0:0:0:
259,324,70332,1,0,0:0:0:0:
297,321,70436,1,0,0:0:0:0:
330,304,70539,1,0,0:0:0:0:
355,275,70643,5,0,0:0:0:0:
373,240,70746,1,0,0:0:0:0:
371,203,70850,1,0,0:0:0:0:
361,171,70953,1,0,0:0:0:0:
222,39,71161,1,0,0:0:0:0:
131,205,71368,1,0,0:0:0:0:
313,259,71575,1,0,0:0:0:0:
237,182,71781,6,0,P|164:197|154:139,1,142.499992847443
178,53,72195,1,0,0:0:0:0:
40,246,72402,1,0,0:0:0:0:
280,206,72609,2,0,P|348:191|383:249,1,142.499992847443
404,338,73023,5,0,0:0:0:0:
472,110,73230,1,0,0:0:0:0:
288,268,73437,1,0,0:0:0:0:
508,354,73643,1,0,0:0:0:0:
376,155,73850,1,0,0:0:0:0:
142,200,74057,1,0,0:0:0:0:
172,111,74264,2,0,L|146:66,3,47.4999976158143
251,247,74678,1,0,0:0:0:0:
398,297,74885,1,4,0:0:0:0:
290,105,75092,5,0,0:0:0:0:
179,299,75299,1,0,0:0:0:0:
386,203,75506,1,0,0:0:0:0:
149,175,75712,1,0,0:0:0:0:
355,291,75919,2,0,P|288:288|302:213,1,142.499992847443
338,136,76333,5,0,0:0:0:0:
175,344,76540,1,0,0:0:0:0:
97,221,76747,2,0,L|246:182,1,142.499992847443
310,173,77161,2,0,P|377:186|406:257,1,142.499992847443
441,345,77575,1,0,0:0:0:0:
441,345,77678,1,0,0:0:0:0:
441,345,77781,1,0,0:0:0:0:
449,138,77988,1,0,0:0:0:0:
260,97,78195,1,4,0:0:0:0:
161,244,78402,6,0,P|157:309|221:333,1,142.499992847443
358,308,78816,1,0,0:0:0:0:
398,146,79023,1,0,0:0:0:0:
255,67,79230,2,0,B|161:84|161:84|208:111,1,142.499992847443
296,175,79643,5,0,0:0:0:0:
418,213,79850,1,0,0:0:0:0:
356,333,80057,1,0,0:0:0:0:
205,270,80264,1,0,0:0:0:0:
318,156,80471,1,0,0:0:0:0:
468,211,80678,1,0,0:0:0:0:
345,249,80885,2,0,B|254:292|254:292|277:239,1,142.499992847443
309,146,81299,1,0,0:0:0:0:
417,171,81506,1,4,0:0:0:0:
317,43,81712,5,0,0:0:0:0:
149,211,81919,1,0,0:0:0:0:
371,295,82126,1,0,0:0:0:0:
337,59,82333,1,0,0:0:0:0:
113,161,82540,2,0,P|140:259|190:277,1,142.499992847443
359,295,82954,5,0,0:0:0:0:
450,122,83161,1,0,0:0:0:0:
286,54,83368,2,0,B|209:33|209:33|201:116,1,142.499992847443
191,203,83781,5,0,0:0:0:0:
183,309,83988,1,0,0:0:0:0:
283,223,84195,1,0,0:0:0:0:
317,190,84298,1,0,0:0:0:0:
351,157,84401,1,0,0:0:0:0:
385,123,84505,1,0,0:0:0:0:
434,69,84609,1,4,0:0:0:0:
260,27,85023,6,0,L|281:75,3,47.4999976158143
326,179,85437,2,0,L|289:220,3,47.4999976158143
233,287,85850,2,0,L|192:240,3,47.4999976158143
177,125,86264,2,0,L|152:176,3,47.4999976158143
105,286,86678,5,0,0:0:0:0:
293,141,86885,1,0,0:0:0:0:
342,373,87092,1,0,0:0:0:0:
167,211,87299,1,0,0:0:0:0:
407,185,87506,2,0,P|433:138|326:106,1,189.999990463257
239,132,88126,1,4,0:0:0:0:
255,292,88333,6,0,L|316:290,3,47.4999976158143
460,301,88747,2,0,L|399:270,3,47.4999976158143
167,142,89161,2,0,L|152:193,3,47.4999976158143
122,294,89575,2,0,L|169:316,3,47.4999976158143
277,350,89988,5,0,0:0:0:0:
331,118,90195,1,0,0:0:0:0:
487,297,90402,1,0,0:0:0:0:
271,197,90609,1,0,0:0:0:0:
412,155,90816,2,0,P|381:208|244:264,1,189.999990463257,0|4,0:0|0:0,0:0:0:0:
