osu file format v14

[General]
AudioFilename: audio.mp3
AudioLeadIn: 0
PreviewTime: -1
Countdown: 1
SampleSet: Soft
StackLeniency: 0.7
Mode: 0
LetterboxInBreaks: 0
WidescreenStoryboard: 0

[Editor]
DistanceSpacing: 1
BeatDivisor: 4
GridSize: 8
TimelineZoom: 1

[Metadata]
Title:PONPONPON (Music box Ver.)
TitleUnicode:PONPONPON (Music box Ver.)
Artist:Kyary Pamyu Pamyu
ArtistUnicode:Kyary Pamyu Pamyu
Creator:Totty
Version:Normal
Source:
Tags:
BeatmapID:1128229
BeatmapSetID:532443

[Difficulty]
HPDrainRate:5
CircleSize:3
OverallDifficulty:5
ApproachRate:5
SliderMultiplier:1.2
SliderTickRate:1

[Events]
//Background and Video events
0,0,"maxresdefault.jpg",0,0
//Break Periods
//Storyboard Layer 0 (Background)
//Storyboard Layer 1 (Fail)
//Storyboard Layer 2 (Pass)
//Storyboard Layer 3 (Foreground)
//Storyboard Sound Samples

[TimingPoints]
555,468.75,4,2,0,100,1,0

[Colours]
Combo1 : 255,128,64
Combo2 : 255,128,128
Combo3 : 128,255,255
Combo4 : 255,128,192

[HitObjects]
284,83,726,6,0,B|281:91|285:83|166:254|158:262|161:269,1,210
276,296,2132,1,0,0:0:0:0:
103,264,3187,1,0,0:0:0:0:
188,178,3421,1,0,0:0:0:0:
111,193,4242,6,0,L|399:45,1,300
364,108,5999,1,0,0:0:0:0:
124,304,8109,2,0,B|168:128|312:180|384:216|356:84,1,360
360,88,9984,1,0,0:0:0:0:
330,264,11859,2,0,B|158:264|222:256|222:160|254:96|198:64|150:72|86:104|62:216|70:200,1,420
65,244,13851,1,0,0:0:0:0:
266,295,15492,2,0,B|328:373|330:375|328:376|330:374|381:237|373:233|448:283|457:260|430:205|393:182|347:155|312:157|278:177|275:188|268:202,1,420
125,247,19359,1,0,0:0:0:0:
230,308,20179,1,0,0:0:0:0:
352,248,21117,1,0,0:0:0:0:
57,217,22757,2,0,P|96:331|293:235,1,390
295,215,24632,5,0,0:0:0:0:
256,192,26859,12,0,29554,0:0:0:0:
103,135,30555,6,0,L|105:277,3,120
334,178,32430,6,0,L|425:290,3,120
134,256,34305,1,0,0:0:0:0:
243,272,34773,1,0,0:0:0:0:
346,273,35242,1,0,0:0:0:0:
415,242,35476,1,0,0:0:0:0:
394,167,35711,1,0,0:0:0:0:
137,317,36180,2,0,L|248:245,3,120
190,90,38055,2,0,L|176:227,1,120
158,120,38992,1,0,0:0:0:0:
78,172,39226,1,0,0:0:0:0:
145,253,39461,1,0,0:0:0:0:
377,262,39930,1,0,0:0:0:0:
488,211,40164,1,0,0:0:0:0:
433,133,40398,1,0,0:0:0:0:
277,97,40867,1,0,0:0:0:0:
257,195,41101,1,0,0:0:0:0:
254,279,41336,1,0,0:0:0:0:
51,289,41805,2,0,L|179:283,3,120
242,246,43680,2,0,L|359:155,3,120
61,148,45555,2,0,L|172:219,3,120
156,234,47430,1,0,0:0:0:0:
214,161,47898,1,0,0:0:0:0:
297,120,48367,1,0,0:0:0:0:
387,177,48601,1,0,0:0:0:0:
403,249,48836,1,0,0:0:0:0:
110,269,49305,2,0,L|244:224,3,120
263,82,51180,2,0,L|265:228,3,120
113,163,53055,1,0,0:0:0:0:
152,237,53523,1,0,0:0:0:0:
253,277,53992,1,0,0:0:0:0:
328,277,54226,1,0,0:0:0:0:
391,213,54461,1,0,0:0:0:0:
95,258,54930,2,0,L|228:220,3,120
97,283,56805,2,0,L|240:281,3,120
291,264,58680,2,0,L|408:195,3,120
