osu file format v14

[General]
AudioFilename: audio.mp3
AudioLeadIn: 0
PreviewTime: 14505
Countdown: 0
SampleSet: Soft
StackLeniency: 0.6
Mode: 0
LetterboxInBreaks: 0
EpilepsyWarning: 1
WidescreenStoryboard: 1

[Editor]
Bookmarks: 11966
DistanceSpacing: 1
BeatDivisor: 4
GridSize: 32
TimelineZoom: 2.399999

[Metadata]
Title:Ninja Re Bang Bang
TitleUnicode:にんじゃりばんばん
Artist:Kyary Pamyu Pamyu
ArtistUnicode:きゃりーぱみゅぱみゅ
Creator:Ensi
Version:hs
Source:
Tags:Kiriko Ononoki Takemura Caroline Charonplop Full Control Tokyo Megapcmx Route_174 Block_Head Japanese pop jpop j-pop Jason X Dayzeek Enzo_
BeatmapID:4465694
BeatmapSetID:662472

[Difficulty]
HPDrainRate:5
CircleSize:4.2
OverallDifficulty:8
ApproachRate:9
SliderMultiplier:1.6
SliderTickRate:1

[Events]
//Background and Video events
0,0,"bg.jpg",0,0
//Break Periods
//Storyboard Layer 0 (Background)
//Storyboard Layer 1 (Fail)
//Storyboard Layer 2 (Pass)
//Storyboard Layer 3 (Foreground)
//Storyboard Layer 4 (Overlay)
//Storyboard Sound Samples

[TimingPoints]
890,461.538461538462,4,2,1,45,1,0
6428,-100,4,2,1,45,0,0
8274,-100,4,2,1,55,0,0
13813,-100,4,2,1,40,0,0
14043,-100,4,2,0,40,0,0
15197,-100,4,2,1,40,0,0
15659,-100,4,2,1,64,0,1
17043,-100,4,2,1,64,0,1
17736,-100,4,2,1,64,0,1
19351,-100,4,2,1,64,0,1
21197,-100,4,2,1,64,0,1
24428,-100,4,2,1,64,0,1
25120,-100,4,2,1,64,0,1
26736,-100,4,2,1,64,0,1
29966,-100,4,2,1,45,0,1
30428,-100,4,2,1,64,0,1
31813,-100,4,2,1,64,0,1
32736,-100,4,2,1,64,0,1
34120,-100,4,2,1,64,0,1
35966,-100,4,2,1,64,0,1
39197,-100,4,2,1,64,0,1
39890,-100,4,2,1,64,0,1
41505,-100,4,2,1,64,0,1
44736,-100,4,2,1,64,0,1
45197,-100,4,2,1,55,0,0
52582,-100,4,2,1,55,0,0
58582,-100,4,2,1,40,0,0
59966,-100,4,2,2,35,0,0
62274,-100,4,2,2,35,0,0
62505,-100,4,2,2,35,0,0
63428,-100,4,2,2,35,0,0
65966,-100,4,2,2,35,0,0
66197,-100,4,2,2,35,0,0
67121,-100,4,2,2,35,0,0
69659,-100,4,2,2,35,0,0
69890,-100,4,2,2,35,0,0
70582,-100,4,2,2,35,0,0
73351,-100,4,2,1,35,0,0
73582,-100,4,2,2,35,0,0
74620,-100,4,2,1,35,0,0
74736,-100,4,2,1,45,0,0
81659,-100,4,2,1,45,0,0
82120,-100,4,2,1,50,0,0
87659,-100,4,2,1,50,0,0
88351,-100,4,2,0,50,0,0
89505,-100,4,2,1,70,0,1
90890,-100,4,2,1,70,0,1
91582,-100,4,2,1,70,0,1
93197,-100,4,2,1,70,0,1
96890,-100,4,2,1,70,0,1
98274,-100,4,2,1,70,0,1
99197,-100,4,2,1,70,0,1
100582,-100,4,2,1,70,0,1
103813,-100,4,2,1,50,0,1
104274,-100,4,2,1,75,0,1
105659,-100,4,2,1,75,0,1
106582,-100,4,2,1,75,0,1
113043,-100,4,2,1,75,0,1
113736,-100,4,2,1,75,0,1
115351,-100,4,2,1,75,0,1
118582,-100,4,2,1,75,0,1
119043,-100,4,2,1,60,0,0
126428,-100,4,2,1,56,0,0
132428,-100,4,2,1,50,0,0
133813,-100,4,2,1,35,0,0
134736,-100,4,2,1,25,0,0
135659,-100,4,2,1,15,0,0
136582,-100,4,2,1,5,0,0
137505,-100,4,2,1,40,0,0

[Colours]
Combo1 : 172,172,215
Combo2 : 44,188,101
Combo3 : 208,118,102
Combo4 : 243,219,44
SliderBorder : 172,173,181

[HitObjects]
256,192,890,5,2,2:0:0:0:
256,192,1120,5,0,0:0:0:0:
256,192,1351,5,2,0:0:0:0:
256,192,1582,5,0,0:0:0:0:
256,192,1813,5,0,0:0:0:0:
256,192,2043,5,0,0:0:0:0:
256,192,2274,5,8,0:0:0:0:
256,192,2505,5,8,0:0:0:0:
256,192,2736,5,2,0:0:0:0:
256,192,2966,5,0,0:0:0:0:
256,192,3197,5,2,0:0:0:0:
256,192,3428,5,0,0:0:0:0:
256,192,3659,5,0,0:0:0:0:
256,192,3890,5,8,0:0:0:0:
256,192,4005,5,8,0:0:0:0:
256,192,4120,5,8,0:0:0:0:
256,192,4351,5,8,0:0:0:0:
256,192,4582,5,2,0:2:0:0:
256,192,4813,5,0,0:0:0:0:
256,192,5043,5,8,0:0:0:0:
256,192,5274,5,0,0:0:0:0:
256,192,5505,5,2,0:0:0:0:
256,192,5736,5,0,0:0:0:0:
256,192,5966,5,8,0:0:0:0:
256,192,6197,5,0,0:0:0:0:
256,192,6428,5,2,0:0:0:0:
256,192,6659,5,0,0:0:0:0:
256,192,6890,5,8,0:0:0:0:
256,192,7120,5,0,0:0:0:0:
256,192,7351,5,2,0:0:0:0:
256,192,7466,5,2,0:0:0:0:
256,192,7582,5,8,0:0:0:0:
256,192,7697,5,8,0:0:0:0:
256,192,7813,5,8,0:0:0:0:
256,192,8043,5,2,0:0:0:0:
256,192,8274,5,2,0:0:0:0:
256,192,8505,5,0,0:0:0:0:
256,192,8736,5,8,0:0:0:0:
256,192,8966,5,0,0:0:0:0:
256,192,9197,5,2,0:0:0:0:
256,192,9428,5,0,0:0:0:0:
256,192,9659,5,8,0:0:0:0:
256,192,9890,5,0,0:0:0:0:
256,192,10120,5,2,0:0:0:0:
256,192,10351,5,2,0:0:0:0:
256,192,10582,5,8,0:0:0:0:
256,192,10813,5,0,0:0:0:0:
256,192,11043,5,2,0:0:0:0:
256,192,11274,5,0,0:0:0:0:
256,192,11505,5,8,0:0:0:0:
256,192,11736,5,0,0:0:0:0:
256,192,11966,5,2,0:0:0:0:
256,192,12197,5,2,0:0:0:0:
256,192,12313,5,2,0:0:0:0:
256,192,12428,5,8,0:0:0:0:
256,192,12659,5,2,0:0:0:0:
256,192,12774,5,2,0:0:0:0:
256,192,12890,5,8,0:0:0:0:
256,192,13120,5,2,0:0:0:0:
256,192,13236,5,2,0:0:0:0:
256,192,13351,5,8,0:0:0:0:
256,192,13582,5,8,0:0:0:0:
256,192,13813,5,8,0:0:0:0:
256,192,14043,5,2,0:0:0:0:
256,192,14274,5,2,0:0:0:0:
256,192,14390,5,2,0:0:0:0:
256,192,14505,5,2,0:0:0:0:
256,192,14736,5,2,0:0:0:0:
256,192,14966,5,2,0:3:0:0:
256,192,15082,5,2,0:3:0:0:
256,192,15197,5,2,0:3:0:0:
256,192,15428,5,2,0:0:0:0:
256,192,15659,5,4,0:3:0:0:
256,192,15890,5,0,0:0:0:0:
256,192,16120,5,8,0:0:0:0:
256,192,16351,5,2,0:0:0:0:
256,192,16466,5,2,0:0:0:0:
256,192,16582,5,2,0:0:0:0:
256,192,16813,5,2,0:0:0:0:
256,192,16928,5,2,0:0:0:0:
256,192,17043,5,8,0:0:0:0:
256,192,17274,5,2,0:0:0:0:
256,192,17390,5,0,0:0:0:0:
256,192,17505,5,2,0:0:0:0:
256,192,17736,5,2,0:0:0:0:
256,192,17966,5,8,0:0:0:0:
256,192,18197,5,2,0:0:0:0:
256,192,18313,5,2,0:0:0:0:
256,192,18428,5,2,0:0:0:0:
256,192,18659,5,2,0:0:0:0:
256,192,18774,5,2,0:0:0:0:
256,192,18890,5,8,0:0:0:0:
256,192,19120,5,2,0:0:0:0:
256,192,19236,5,0,0:0:0:0:
256,192,19351,5,4,0:3:0:0:
256,192,19582,5,2,0:0:0:0:
256,192,19813,5,8,0:0:0:0:
256,192,20043,5,2,0:0:0:0:
256,192,20159,5,0,0:0:0:0:
256,192,20274,5,4,0:3:0:0:
256,192,20505,5,2,0:0:0:0:
256,192,20736,5,8,0:0:0:0:
256,192,20966,5,2,0:0:0:0:
256,192,21082,5,2,0:0:0:0:
256,192,21197,5,4,0:3:0:0:
256,192,21428,5,2,0:0:0:0:
256,192,21543,5,2,0:0:0:0:
256,192,21659,5,8,0:0:0:0:
256,192,21890,5,2,0:0:0:0:
256,192,22005,5,0,0:0:0:0:
256,192,22120,5,4,0:3:0:0:
256,192,22351,5,2,0:0:0:0:
256,192,22466,5,2,0:0:0:0:
256,192,22582,5,8,0:0:0:0:
256,192,22813,5,2,0:0:0:0:
256,192,23043,5,4,0:3:0:0:
256,192,23274,5,2,0:0:0:0:
256,192,23505,5,8,0:0:0:0:
256,192,23736,5,2,0:0:0:0:
256,192,23851,5,2,0:0:0:0:
256,192,23966,5,2,0:0:0:0:
256,192,24197,5,2,0:0:0:0:
256,192,24313,5,2,0:0:0:0:
256,192,24428,5,8,0:0:0:0:
256,192,24659,5,2,0:0:0:0:
256,192,24774,5,0,0:0:0:0:
256,192,24890,5,4,0:3:0:0:
256,192,25005,5,0,0:0:0:0:
256,192,25120,5,2,0:0:0:0:
256,192,25351,5,8,0:0:0:0:
256,192,25582,5,2,0:0:0:0:
256,192,25697,5,2,0:0:0:0:
256,192,25813,5,2,0:0:0:0:
256,192,26043,5,2,0:0:0:0:
256,192,26159,5,2,0:0:0:0:
256,192,26274,5,8,0:0:0:0:
256,192,26505,5,2,0:0:0:0:
256,192,26620,5,2,0:0:0:0:
256,192,26736,5,4,0:3:0:0:
256,192,26966,5,2,0:0:0:0:
256,192,27197,5,8,0:0:0:0:
256,192,27428,5,2,0:0:0:0:
256,192,27543,5,2,0:0:0:0:
256,192,27659,5,4,0:3:0:0:
256,192,27890,5,2,0:0:0:0:
256,192,28120,5,8,0:0:0:0:
256,192,28351,5,2,0:0:0:0:
256,192,28466,5,0,0:0:0:0:
256,192,28582,5,4,0:3:0:0:
256,192,28813,5,2,0:0:0:0:
256,192,28928,5,2,0:0:0:0:
256,192,29043,5,8,0:0:0:0:
256,192,29274,5,2,0:0:0:0:
256,192,29390,5,2,0:0:0:0:
256,192,29505,5,4,0:3:0:0:
256,192,29736,5,4,0:3:0:0:
256,192,29851,5,4,3:0:0:0:
256,192,29966,5,4,0:3:0:0:
256,192,30197,5,2,0:0:0:0:
256,192,30428,5,4,3:0:0:0:
256,192,30659,5,0,0:0:0:0:
256,192,30890,5,8,0:0:0:0:
256,192,31120,5,2,0:0:0:0:
256,192,31236,5,2,0:0:0:0:
256,192,31351,5,2,0:0:0:0:
256,192,31582,5,2,0:0:0:0:
256,192,31697,5,2,0:0:0:0:
256,192,31813,5,8,0:0:0:0:
256,192,32043,5,2,0:0:0:0:
256,192,32159,5,0,0:0:0:0:
256,192,32274,5,4,0:3:0:0:
256,192,32505,5,0,0:0:0:0:
256,192,32736,5,8,0:0:0:0:
256,192,32966,5,2,0:0:0:0:
256,192,33082,5,2,0:0:0:0:
256,192,33197,5,2,0:0:0:0:
256,192,33428,5,2,0:0:0:0:
256,192,33543,5,2,0:0:0:0:
256,192,33659,5,8,0:0:0:0:
256,192,33890,5,0,0:0:0:0:
256,192,34120,5,4,0:3:0:0:
256,192,34351,5,0,0:0:0:0:
256,192,34582,5,8,0:0:0:0:
256,192,34813,5,2,0:0:0:0:
256,192,34928,5,2,0:0:0:0:
256,192,35043,5,4,0:3:0:0:
256,192,35274,5,0,0:0:0:0:
256,192,35505,5,8,0:0:0:0:
256,192,35736,5,0,0:0:0:0:
256,192,35966,5,4,0:3:0:0:
256,192,36082,5,2,0:0:0:0:
256,192,36197,5,2,0:0:0:0:
256,192,36313,5,2,0:0:0:0:
256,192,36428,5,8,0:0:0:0:
256,192,36659,5,2,0:0:0:0:
256,192,36890,5,4,0:3:0:0:
256,192,37120,5,2,0:0:0:0:
256,192,37236,5,2,0:0:0:0:
256,192,37351,5,8,0:0:0:0:
256,192,37582,5,2,0:0:0:0:
256,192,37813,5,4,3:0:0:0:
256,192,38043,5,0,0:0:0:0:
256,192,38274,5,8,0:0:0:0:
256,192,38505,5,2,0:0:0:0:
256,192,38620,5,2,0:0:0:0:
256,192,38736,5,2,0:0:0:0:
256,192,38966,5,2,0:0:0:0:
256,192,39082,5,2,0:0:0:0:
256,192,39197,5,8,0:0:0:0:
256,192,39428,5,2,0:0:0:0:
256,192,39543,5,2,0:0:0:0:
256,192,39659,5,4,0:3:0:0:
256,192,39890,5,2,0:0:0:0:
256,192,40120,5,8,0:0:0:0:
256,192,40236,5,0,0:0:0:0:
256,192,40351,5,2,0:0:0:0:
256,192,40466,5,0,0:0:0:0:
256,192,40582,5,2,0:0:0:0:
256,192,40813,5,2,0:0:0:0:
256,192,40928,5,2,0:0:0:0:
256,192,41043,5,8,0:0:0:0:
256,192,41274,5,2,0:0:0:0:
256,192,41390,5,0,0:0:0:0:
256,192,41505,5,4,0:3:0:0:
256,192,41736,5,2,0:0:0:0:
256,192,41966,5,8,0:0:0:0:
256,192,42197,5,2,0:0:0:0:
256,192,42313,5,2,0:0:0:0:
256,192,42428,5,4,0:3:0:0:
256,192,42659,5,2,0:0:0:0:
256,192,42890,5,8,0:0:0:0:
256,192,43120,5,2,0:0:0:0:
256,192,43351,5,4,0:3:0:0:
256,192,43582,5,2,0:0:0:0:
256,192,43697,5,2,0:0:0:0:
256,192,43813,5,8,0:0:0:0:
256,192,44043,5,2,0:0:0:0:
256,192,44159,5,2,0:0:0:0:
256,192,44274,5,4,0:3:0:0:
256,192,44505,5,4,0:3:0:0:
256,192,44620,5,4,0:3:0:0:
256,192,44736,5,8,0:0:0:0:
256,192,44966,5,2,0:0:0:0:
256,192,45197,5,4,3:0:0:0:
256,192,45428,5,2,0:0:0:0:
256,192,45659,5,8,0:0:0:0:
256,192,45774,5,2,0:0:0:0:
256,192,45890,5,2,0:0:0:0:
256,192,46005,5,0,0:0:0:0:
256,192,46120,5,2,0:0:0:0:
256,192,46351,5,2,0:0:0:0:
256,192,46582,5,8,0:0:0:0:
256,192,46697,5,2,0:0:0:0:
256,192,46813,5,0,0:0:0:0:
256,192,46928,5,2,0:0:0:0:
256,192,47043,5,2,0:0:0:0:
256,192,47274,5,2,0:0:0:0:
256,192,47505,5,8,0:0:0:0:
256,192,47620,5,2,0:0:0:0:
256,192,47736,5,2,0:0:0:0:
256,192,47851,5,2,0:0:0:0:
256,192,47966,5,2,0:0:0:0:
256,192,48197,5,2,0:0:0:0:
256,192,48428,5,8,0:0:0:0:
256,192,48543,5,2,0:0:0:0:
256,192,48659,5,0,0:0:0:0:
256,192,48774,5,2,0:0:0:0:
256,192,48890,5,2,0:0:0:0:
256,192,49120,5,2,0:0:0:0:
256,192,49351,5,8,0:0:0:0:
256,192,49466,5,2,0:0:0:0:
256,192,49582,5,2,0:0:0:0:
256,192,49697,5,2,0:0:0:0:
256,192,49813,5,2,0:0:0:0:
256,192,50043,5,2,0:0:0:0:
256,192,50274,5,8,0:0:0:0:
256,192,50390,5,2,0:0:0:0:
256,192,50505,5,2,0:0:0:0:
256,192,50620,5,2,0:0:0:0:
256,192,50736,5,2,0:0:0:0:
256,192,50966,5,2,0:0:0:0:
256,192,51197,5,4,0:3:0:0:
256,192,51313,5,2,0:0:0:0:
256,192,51428,5,2,0:0:0:0:
256,192,51543,5,2,0:0:0:0:
256,192,51659,5,4,0:3:0:0:
256,192,51774,5,2,0:0:0:0:
256,192,51890,5,2,0:0:0:0:
256,192,52005,5,2,0:0:0:0:
256,192,52120,5,4,0:3:0:0:
256,192,52236,5,2,0:0:0:0:
256,192,52351,5,4,0:3:0:0:
256,192,52466,5,2,0:0:0:0:
256,192,52582,5,4,0:0:0:0:
256,192,52813,5,2,0:0:0:0:
256,192,53043,5,8,0:0:0:0:
256,192,53159,5,2,0:0:0:0:
256,192,53274,5,2,0:0:0:0:
256,192,53390,5,2,0:0:0:0:
256,192,53505,5,2,0:0:0:0:
256,192,53736,5,2,0:0:0:0:
256,192,53966,5,8,0:0:0:0:
256,192,54082,5,2,0:0:0:0:
256,192,54197,5,2,0:0:0:0:
256,192,54313,5,2,0:0:0:0:
256,192,54428,5,2,0:0:0:0:
256,192,54659,5,2,0:0:0:0:
256,192,54890,5,8,0:0:0:0:
256,192,55005,5,2,0:0:0:0:
256,192,55120,5,2,0:0:0:0:
256,192,55236,5,2,0:0:0:0:
256,192,55351,5,2,0:0:0:0:
256,192,55582,5,2,0:0:0:0:
256,192,55813,5,8,0:0:0:0:
256,192,55928,5,2,0:0:0:0:
256,192,56043,5,2,0:0:0:0:
256,192,56159,5,2,0:0:0:0:
256,192,56274,5,2,0:0:0:0:
256,192,56505,5,2,0:0:0:0:
256,192,56736,5,8,0:0:0:0:
256,192,56851,5,2,0:0:0:0:
256,192,56966,5,2,0:0:0:0:
256,192,57082,5,2,0:0:0:0:
256,192,57197,5,2,0:0:0:0:
256,192,57428,5,2,0:0:0:0:
256,192,57659,5,8,0:0:0:0:
256,192,57774,5,2,0:0:0:0:
256,192,57890,5,2,0:0:0:0:
256,192,58005,5,2,0:0:0:0:
256,192,58120,5,2,0:0:0:0:
256,192,58351,5,2,0:0:0:0:
256,192,58466,5,0,0:0:0:0:
256,192,58582,5,8,0:0:0:0:
256,192,58813,5,2,0:0:0:0:
256,192,58928,5,2,0:0:0:0:
256,192,59043,5,2,0:3:0:0:
256,192,59159,5,2,0:3:0:0:
256,192,59274,5,2,0:3:0:0:
256,192,59390,5,2,0:3:0:0:
256,192,59505,5,2,0:3:0:0:
256,192,59620,5,2,0:3:0:0:
256,192,59736,5,2,0:3:0:0:
256,192,59851,5,2,0:3:0:0:
256,192,59966,5,6,0:0:0:0:
256,192,60197,5,0,0:0:0:0:
256,192,60428,5,2,0:0:0:0:
256,192,60890,5,2,0:0:0:0:
256,192,61120,5,2,0:0:0:0:
256,192,61351,5,2,0:0:0:0:
256,192,61582,5,0,0:0:0:0:
256,192,61813,5,2,0:0:0:0:
256,192,62043,5,2,0:0:0:0:
256,192,62274,5,8,0:0:0:0:
256,192,62505,5,0,0:0:0:0:
256,192,62736,5,2,0:0:0:0:
256,192,62966,5,2,0:0:0:0:
256,192,63197,5,10,0:0:0:0:
256,192,63428,5,0,0:0:0:0:
256,192,63659,5,2,0:0:0:0:
256,192,63890,5,0,0:0:0:0:
256,192,64120,5,2,0:0:0:0:
256,192,64351,5,0,0:0:0:0:
256,192,64582,5,2,0:0:0:0:
256,192,64813,5,2,0:0:0:0:
256,192,65043,5,2,0:0:0:0:
256,192,65274,5,0,0:0:0:0:
256,192,65505,5,2,0:0:0:0:
256,192,65736,5,2,0:0:0:0:
256,192,65966,5,10,0:0:0:0:
256,192,66197,5,0,0:0:0:0:
256,192,66428,5,2,0:0:0:0:
256,192,66659,5,2,0:0:0:0:
256,192,66890,5,10,0:0:0:0:
256,192,67120,5,0,0:0:0:0:
256,192,67351,5,2,0:0:0:0:
256,192,67582,5,0,0:0:0:0:
256,192,67813,5,2,0:0:0:0:
256,192,68043,5,0,0:0:0:0:
256,192,68274,5,2,0:0:0:0:
256,192,68505,5,2,0:0:0:0:
256,192,68736,5,2,0:0:0:0:
256,192,68966,5,0,0:0:0:0:
256,192,69197,5,2,0:0:0:0:
256,192,69428,5,2,0:0:0:0:
256,192,69659,5,8,0:0:0:0:
256,192,69890,5,0,0:0:0:0:
256,192,70120,5,2,0:0:0:0:
256,192,70351,5,2,0:0:0:0:
256,192,70582,5,8,0:0:0:0:
256,192,70813,5,0,0:0:0:0:
256,192,71043,5,2,0:0:0:0:
256,192,71274,5,0,0:0:0:0:
256,192,71505,5,2,0:0:0:0:
256,192,71736,5,0,0:0:0:0:
256,192,71966,5,2,0:0:0:0:
256,192,72197,5,2,0:0:0:0:
256,192,72428,5,2,0:0:0:0:
256,192,72659,5,0,0:0:0:0:
256,192,72890,5,2,0:0:0:0:
256,192,73120,5,2,0:0:0:0:
256,192,73351,5,2,0:0:0:0:
256,192,73582,5,2,0:0:0:0:
256,192,73813,5,2,0:0:0:0:
256,192,74043,5,2,0:0:0:0:
256,192,74274,5,2,0:0:0:0:
256,192,74505,5,0,0:0:0:0:
256,192,74736,5,4,3:0:0:0:
256,192,74966,5,0,0:0:0:0:
256,192,75197,5,10,0:0:0:0:
256,192,75428,5,2,0:0:0:0:
256,192,75543,5,2,0:0:0:0:
256,192,75659,5,2,0:0:0:0:
256,192,75890,5,2,0:0:0:0:
256,192,76120,5,10,0:0:0:0:
256,192,76351,5,2,0:0:0:0:
256,192,76466,5,2,0:0:0:0:
256,192,76582,5,4,0:3:0:0:
256,192,76813,5,4,0:3:0:0:
256,192,77043,5,10,0:0:0:0:
256,192,77274,5,2,0:0:0:0:
256,192,77390,5,2,0:0:0:0:
256,192,77505,5,2,0:0:0:0:
256,192,77736,5,0,0:0:0:0:
256,192,77966,5,8,0:0:0:0:
256,192,78197,5,2,0:0:0:0:
256,192,78313,5,2,0:0:0:0:
256,192,78428,5,4,0:3:0:0:
256,192,78659,5,2,0:0:0:0:
256,192,78890,5,8,0:0:0:0:
256,192,79120,5,2,0:0:0:0:
256,192,79236,5,2,0:0:0:0:
256,192,79351,5,2,0:0:0:0:
256,192,79582,5,2,0:0:0:0:
256,192,79813,5,8,0:0:0:0:
256,192,80043,5,2,0:0:0:0:
256,192,80159,5,2,0:0:0:0:
256,192,80274,5,4,0:3:0:0:
256,192,80505,5,2,0:0:0:0:
256,192,80736,5,8,0:0:0:0:
256,192,80966,5,2,0:0:0:0:
256,192,81082,5,2,0:0:0:0:
256,192,81197,5,4,0:3:0:0:
256,192,81428,5,2,0:0:0:0:
256,192,81543,5,2,0:0:0:0:
256,192,81659,5,4,0:3:0:0:
256,192,81890,5,2,0:0:0:0:
256,192,82005,5,2,0:0:0:0:
256,192,82120,5,4,3:0:0:0:
256,192,82351,5,2,0:0:0:0:
256,192,82582,5,8,0:0:0:0:
256,192,82813,5,2,0:0:0:0:
256,192,82928,5,2,0:0:0:0:
256,192,83043,5,8,0:0:0:0:
256,192,83274,5,2,0:0:0:0:
256,192,83505,5,8,0:0:0:0:
256,192,83736,5,2,0:0:0:0:
256,192,83851,5,2,0:0:0:0:
256,192,83966,5,8,0:0:0:0:
256,192,84197,5,2,0:0:0:0:
256,192,84428,5,8,0:0:0:0:
256,192,84659,5,2,0:0:0:0:
256,192,84774,5,2,0:0:0:0:
256,192,84890,5,8,0:0:0:0:
256,192,85120,5,2,0:0:0:0:
256,192,85351,5,8,0:0:0:0:
256,192,85582,5,2,0:0:0:0:
256,192,85697,5,2,0:0:0:0:
256,192,85813,5,8,0:0:0:0:
256,192,86043,5,2,0:0:0:0:
256,192,86274,5,8,0:0:0:0:
256,192,86505,5,2,0:0:0:0:
256,192,86620,5,2,0:0:0:0:
256,192,86736,5,8,0:0:0:0:
256,192,86966,5,2,0:0:0:0:
256,192,87197,5,8,0:0:0:0:
256,192,87428,5,8,0:0:0:0:
256,192,87543,5,8,0:0:0:0:
256,192,87659,5,12,0:0:0:0:
256,192,88351,5,2,0:0:0:0:
256,192,88582,5,2,0:0:0:0:
256,192,88813,5,2,0:3:0:0:
256,192,88928,5,2,0:3:0:0:
256,192,89043,5,2,0:3:0:0:
256,192,89274,5,2,0:0:0:0:
256,192,89505,5,4,0:3:0:0:
256,192,89736,5,0,0:0:0:0:
256,192,89966,5,8,0:0:0:0:
256,192,90197,5,2,0:0:0:0:
256,192,90313,5,2,0:0:0:0:
256,192,90428,5,2,0:0:0:0:
256,192,90659,5,2,0:0:0:0:
256,192,90774,5,2,0:0:0:0:
256,192,90890,5,8,0:0:0:0:
256,192,91120,5,2,0:0:0:0:
256,192,91236,5,0,0:0:0:0:
256,192,91351,5,2,0:0:0:0:
256,192,91582,5,2,0:0:0:0:
256,192,91813,5,8,0:0:0:0:
256,192,92043,5,2,0:0:0:0:
256,192,92159,5,2,0:0:0:0:
256,192,92274,5,2,0:0:0:0:
256,192,92505,5,2,0:0:0:0:
256,192,92620,5,2,0:0:0:0:
256,192,92736,5,8,0:0:0:0:
256,192,92966,5,2,0:0:0:0:
256,192,93082,5,0,0:0:0:0:
256,192,93197,5,4,0:3:0:0:
256,192,93428,5,2,0:0:0:0:
256,192,93659,5,8,0:0:0:0:
256,192,93890,5,2,0:0:0:0:
256,192,94005,5,0,0:0:0:0:
256,192,94120,5,4,0:3:0:0:
256,192,94351,5,2,0:0:0:0:
256,192,94582,5,8,0:0:0:0:
256,192,94813,5,2,0:0:0:0:
256,192,94928,5,2,0:0:0:0:
256,192,95043,5,4,0:3:0:0:
256,192,95274,5,2,0:0:0:0:
256,192,95390,5,2,0:0:0:0:
256,192,95505,5,8,0:0:0:0:
256,192,95736,5,2,0:0:0:0:
256,192,95851,5,0,0:0:0:0:
256,192,95966,5,4,0:3:0:0:
256,192,96197,5,2,0:0:0:0:
256,192,96313,5,2,0:0:0:0:
256,192,96428,5,8,0:0:0:0:
256,192,96659,5,2,0:0:0:0:
256,192,96890,5,4,0:3:0:0:
256,192,97120,5,2,0:0:0:0:
256,192,97351,5,8,0:0:0:0:
256,192,97582,5,2,0:0:0:0:
256,192,97697,5,2,0:0:0:0:
256,192,97813,5,2,0:0:0:0:
256,192,98043,5,2,0:0:0:0:
256,192,98159,5,2,0:0:0:0:
256,192,98274,5,8,0:0:0:0:
256,192,98505,5,2,0:0:0:0:
256,192,98620,5,0,0:0:0:0:
256,192,98736,5,4,0:3:0:0:
256,192,98851,5,0,0:0:0:0:
256,192,98966,5,2,0:0:0:0:
256,192,99197,5,8,0:0:0:0:
256,192,99428,5,2,0:0:0:0:
256,192,99543,5,2,0:0:0:0:
256,192,99659,5,2,0:0:0:0:
256,192,99890,5,2,0:0:0:0:
256,192,100005,5,2,0:0:0:0:
256,192,100120,5,8,0:0:0:0:
256,192,100351,5,2,0:0:0:0:
256,192,100466,5,2,0:0:0:0:
256,192,100582,5,4,0:3:0:0:
256,192,100813,5,2,0:0:0:0:
256,192,101043,5,8,0:0:0:0:
256,192,101274,5,2,0:0:0:0:
256,192,101390,5,2,0:0:0:0:
256,192,101505,5,4,0:3:0:0:
256,192,101736,5,2,0:0:0:0:
256,192,101966,5,8,0:0:0:0:
256,192,102197,5,2,0:0:0:0:
256,192,102313,5,0,0:0:0:0:
256,192,102428,5,4,0:3:0:0:
256,192,102659,5,2,0:0:0:0:
256,192,102774,5,2,0:0:0:0:
256,192,102890,5,8,0:0:0:0:
256,192,103120,5,2,0:0:0:0:
256,192,103236,5,2,0:0:0:0:
256,192,103351,5,4,0:3:0:0:
256,192,103582,5,4,0:3:0:0:
256,192,103697,5,4,3:0:0:0:
256,192,103813,5,4,0:3:0:0:
256,192,104043,5,2,0:0:0:0:
256,192,104274,5,4,3:0:0:0:
256,192,104505,5,0,0:0:0:0:
256,192,104736,5,8,0:0:0:0:
256,192,104966,5,2,0:0:0:0:
256,192,105082,5,2,0:0:0:0:
256,192,105197,5,2,0:0:0:0:
256,192,105428,5,2,0:0:0:0:
256,192,105543,5,2,0:0:0:0:
256,192,105659,5,8,0:0:0:0:
256,192,105890,5,2,0:0:0:0:
256,192,106005,5,0,0:0:0:0:
256,192,106120,5,4,0:3:0:0:
256,192,106351,5,0,0:0:0:0:
256,192,106582,5,8,0:0:0:0:
256,192,106813,5,2,0:0:0:0:
256,192,106928,5,2,0:0:0:0:
256,192,107043,5,2,0:0:0:0:
256,192,107274,5,2,0:0:0:0:
256,192,107390,5,2,0:0:0:0:
256,192,107505,5,8,0:0:0:0:
256,192,107736,5,0,0:0:0:0:
256,192,107966,5,4,0:3:0:0:
256,192,108197,5,0,0:0:0:0:
256,192,108428,5,8,0:0:0:0:
256,192,108659,5,2,0:0:0:0:
256,192,108774,5,2,0:0:0:0:
256,192,108890,5,4,0:3:0:0:
256,192,109120,5,0,0:0:0:0:
256,192,109351,5,8,0:0:0:0:
256,192,109582,5,0,0:0:0:0:
256,192,109813,5,4,0:3:0:0:
256,192,109928,5,2,0:0:0:0:
256,192,110043,5,2,0:0:0:0:
256,192,110159,5,2,0:0:0:0:
256,192,110274,5,8,0:0:0:0:
256,192,110505,5,2,0:0:0:0:
256,192,110736,5,4,0:3:0:0:
256,192,110966,5,2,0:0:0:0:
256,192,111082,5,2,0:0:0:0:
256,192,111197,5,8,0:0:0:0:
256,192,111428,5,2,0:0:0:0:
256,192,111659,5,4,3:0:0:0:
256,192,111890,5,0,0:0:0:0:
256,192,112120,5,8,0:0:0:0:
256,192,112351,5,2,0:0:0:0:
256,192,112466,5,2,0:0:0:0:
256,192,112582,5,2,0:0:0:0:
256,192,112813,5,2,0:0:0:0:
256,192,112928,5,2,0:0:0:0:
256,192,113043,5,8,0:0:0:0:
256,192,113274,5,2,0:0:0:0:
256,192,113390,5,2,0:0:0:0:
256,192,113505,5,4,0:3:0:0:
256,192,113736,5,2,0:0:0:0:
256,192,113966,5,8,0:0:0:0:
256,192,114082,5,0,0:0:0:0:
256,192,114197,5,2,0:0:0:0:
256,192,114313,5,0,0:0:0:0:
256,192,114428,5,2,0:0:0:0:
256,192,114659,5,2,0:0:0:0:
256,192,114774,5,2,0:0:0:0:
256,192,114890,5,8,0:0:0:0:
256,192,115120,5,2,0:0:0:0:
256,192,115236,5,0,0:0:0:0:
256,192,115351,5,4,0:3:0:0:
256,192,115582,5,2,0:0:0:0:
256,192,115813,5,8,0:0:0:0:
256,192,116043,5,2,0:0:0:0:
256,192,116159,5,2,0:0:0:0:
256,192,116274,5,4,0:3:0:0:
256,192,116505,5,2,0:0:0:0:
256,192,116736,5,8,0:0:0:0:
256,192,116966,5,2,0:0:0:0:
256,192,117197,5,4,0:3:0:0:
256,192,117428,5,2,0:0:0:0:
256,192,117543,5,2,0:0:0:0:
256,192,117659,5,8,0:0:0:0:
256,192,117890,5,2,0:0:0:0:
256,192,118005,5,2,0:0:0:0:
256,192,118120,5,4,0:3:0:0:
256,192,118351,5,4,0:3:0:0:
256,192,118466,5,4,0:3:0:0:
256,192,118582,5,8,0:0:0:0:
256,192,118813,5,2,0:0:0:0:
256,192,119043,5,4,3:0:0:0:
256,192,119274,5,2,0:0:0:0:
256,192,119505,5,8,0:0:0:0:
256,192,119620,5,2,0:0:0:0:
256,192,119736,5,2,0:0:0:0:
256,192,119851,5,0,0:0:0:0:
256,192,119966,5,2,0:0:0:0:
256,192,120197,5,2,0:0:0:0:
256,192,120428,5,8,0:0:0:0:
256,192,120543,5,2,0:0:0:0:
256,192,120659,5,0,0:0:0:0:
256,192,120774,5,2,0:0:0:0:
256,192,120890,5,2,0:0:0:0:
256,192,121120,5,2,0:0:0:0:
256,192,121351,5,8,0:0:0:0:
256,192,121466,5,2,0:0:0:0:
256,192,121582,5,2,0:0:0:0:
256,192,121697,5,2,0:0:0:0:
256,192,121813,5,2,0:0:0:0:
256,192,122043,5,2,0:0:0:0:
256,192,122274,5,8,0:0:0:0:
256,192,122390,5,2,0:0:0:0:
256,192,122505,5,0,0:0:0:0:
256,192,122620,5,2,0:0:0:0:
256,192,122736,5,2,0:0:0:0:
256,192,122966,5,2,0:0:0:0:
256,192,123197,5,8,0:0:0:0:
256,192,123313,5,2,0:0:0:0:
256,192,123428,5,2,0:0:0:0:
256,192,123543,5,2,0:0:0:0:
256,192,123659,5,2,0:0:0:0:
256,192,123890,5,2,0:0:0:0:
256,192,124120,5,8,0:0:0:0:
256,192,124236,5,2,0:0:0:0:
256,192,124351,5,2,0:0:0:0:
256,192,124466,5,2,0:0:0:0:
256,192,124582,5,2,0:0:0:0:
256,192,124813,5,2,0:0:0:0:
256,192,125043,5,4,0:3:0:0:
256,192,125159,5,2,0:0:0:0:
256,192,125274,5,2,0:0:0:0:
256,192,125390,5,2,0:0:0:0:
256,192,125505,5,4,0:3:0:0:
256,192,125620,5,2,0:0:0:0:
256,192,125736,5,2,0:0:0:0:
256,192,125851,5,2,0:0:0:0:
256,192,125966,5,4,0:3:0:0:
256,192,126082,5,2,0:0:0:0:
256,192,126197,5,4,0:3:0:0:
256,192,126313,5,2,0:0:0:0:
256,192,126428,5,4,0:0:0:0:
256,192,126659,5,2,0:0:0:0:
256,192,126890,5,8,0:0:0:0:
256,192,127005,5,2,0:0:0:0:
256,192,127120,5,2,0:0:0:0:
256,192,127236,5,2,0:0:0:0:
256,192,127351,5,2,0:0:0:0:
256,192,127582,5,2,0:0:0:0:
256,192,127813,5,8,0:0:0:0:
256,192,127928,5,2,0:0:0:0:
256,192,128043,5,2,0:0:0:0:
256,192,128159,5,2,0:0:0:0:
256,192,128274,5,2,0:0:0:0:
256,192,128505,5,2,0:0:0:0:
256,192,128736,5,8,0:0:0:0:
256,192,128851,5,2,0:0:0:0:
256,192,128966,5,2,0:0:0:0:
256,192,129082,5,2,0:0:0:0:
256,192,129197,5,2,0:0:0:0:
256,192,129428,5,2,0:0:0:0:
256,192,129659,5,8,0:0:0:0:
256,192,129774,5,2,0:0:0:0:
256,192,129890,5,2,0:0:0:0:
256,192,130005,5,2,0:0:0:0:
256,192,130120,5,2,0:0:0:0:
256,192,130351,5,2,0:0:0:0:
256,192,130582,5,8,0:0:0:0:
256,192,130697,5,2,0:0:0:0:
256,192,130813,5,2,0:0:0:0:
256,192,130928,5,2,0:0:0:0:
256,192,131043,5,2,0:0:0:0:
256,192,131274,5,2,0:0:0:0:
256,192,131505,5,8,0:0:0:0:
256,192,131620,5,0,0:0:0:0:
256,192,131736,5,2,0:0:0:0:
256,192,131851,5,2,0:0:0:0:
256,192,131966,5,2,0:0:0:0:
256,192,132197,5,2,0:0:0:0:
256,192,132313,5,0,0:0:0:0:
256,192,132428,5,8,0:0:0:0:
256,192,132659,5,2,0:0:0:0:
256,192,132774,5,2,0:0:0:0:
256,192,132890,5,2,0:3:0:0:
256,192,133005,5,2,0:3:0:0:
256,192,133120,5,2,0:3:0:0:
256,192,133236,5,2,0:3:0:0:
256,192,133351,5,2,0:3:0:0:
256,192,133466,5,2,0:3:0:0:
256,192,133582,5,2,0:3:0:0:
256,192,133697,5,2,0:3:0:0:
256,192,133813,5,4,3:0:0:0:
256,192,134274,5,2,0:0:0:0:
256,192,134736,5,6,3:0:0:0:
256,192,135197,5,2,0:0:0:0:
256,192,135659,5,6,3:0:0:0:
256,192,136120,5,2,0:0:0:0:
256,192,136582,5,6,3:0:0:0:
256,192,137043,5,2,0:0:0:0:
256,192,137505,5,6,3:0:0:0:
