osu file format v14

[General]
AudioFilename: audio.mp3
AudioLeadIn: 0
PreviewTime: 14505
Countdown: 0
SampleSet: Soft
StackLeniency: 0.6
Mode: 0
LetterboxInBreaks: 0
EpilepsyWarning: 1
WidescreenStoryboard: 1

[Editor]
Bookmarks: 7341,59966,61351,61813,63197,63659,65043,65505,66428,67351,68736,69197,70582,71043,73813,74274,74736
DistanceSpacing: 1.3
BeatDivisor: 2
GridSize: 32
TimelineZoom: 2.899999

[Metadata]
Title:Ninja Re Bang Bang
TitleUnicode:にんじゃりばんばん
Artist:Kyary Pamyu Pamyu
ArtistUnicode:きゃりーぱみゅぱみゅ
Creator:Ensi
Version:Normal
Source:
Tags:Kiriko Ononoki Takemura Caroline Charonplop Full Control Tokyo Megapcmx Route_174 Block_Head Japanese pop jpop j-pop Jason X Dayzeek Enzo_
BeatmapID:4466900
BeatmapSetID:662472

[Difficulty]
HPDrainRate:3
CircleSize:3.6
OverallDifficulty:3
ApproachRate:4
SliderMultiplier:1.25
SliderTickRate:1

[Events]
//Background and Video events
0,0,"bg.jpg",0,0
//Break Periods
//Storyboard Layer 0 (Background)
//Storyboard Layer 1 (Fail)
//Storyboard Layer 2 (Pass)
//Storyboard Layer 3 (Foreground)
//Storyboard Layer 4 (Overlay)
//Storyboard Sound Samples

[TimingPoints]
890,461.538461538462,4,2,1,45,1,0
8274,-100,4,2,1,55,0,0
13813,-100,4,2,1,40,0,0
14043,-100,4,2,0,40,0,0
15197,-100,4,2,1,40,0,0
15659,-100,4,2,1,64,0,1
29966,-100,4,2,1,45,0,1
30428,-100,4,2,1,64,0,1
45197,-100,4,2,1,55,0,0
58582,-100,4,2,1,40,0,0
59966,-100,4,2,2,35,0,0
62274,-100,4,2,2,35,0,0
62505,-100,4,2,2,35,0,0
63197,-100,4,2,2,35,0,0
63428,-100,4,2,2,35,0,0
65966,-100,4,2,2,35,0,0
66197,-100,4,2,2,35,0,0
66890,-100,4,2,2,35,0,0
67121,-100,4,2,2,35,0,0
69659,-100,4,2,2,35,0,0
69890,-100,4,2,2,35,0,0
70582,-100,4,2,2,35,0,0
70813,-100,4,2,2,35,0,0
71505,-100,4,2,2,35,0,0
71736,-100,4,2,2,35,0,0
72428,-100,4,2,2,35,0,0
72659,-100,4,2,2,35,0,0
73351,-100,4,2,1,35,0,0
73582,-100,4,2,2,35,0,0
74274,-100,4,2,2,35,0,0
74620,-100,4,2,1,35,0,0
74736,-100,4,2,1,45,0,0
82120,-100,4,2,1,50,0,0
88351,-100,4,2,0,50,0,0
89505,-100,4,2,1,70,0,1
103813,-100,4,2,1,50,0,1
104274,-100,4,2,1,75,0,1
119043,-100,4,2,1,60,0,0
126428,-100,4,2,1,56,0,0
132428,-100,4,2,1,50,0,0
133813,-100,4,2,1,35,0,0
134736,-100,4,2,1,25,0,0
135659,-100,4,2,1,15,0,0
136582,-100,4,2,1,5,0,0
137505,-100,4,2,1,40,0,0

[Colours]
Combo1 : 172,172,215
Combo2 : 44,188,101
Combo3 : 208,118,102
Combo4 : 243,219,44
SliderBorder : 172,173,181

[HitObjects]
276,65,890,6,0,P|341:63|418:72,2,125,2|2|0,2:0|0:0|0:0,0:0:0:0:
217,121,2043,1,0,0:0:0:0:
217,121,2274,2,0,P|151:118|146:117,1,62.5,8|8,0:0|0:0,0:0:0:0:
88,166,2736,6,0,P|72:242|88:304,2,125,2|2|0,0:0|0:0|0:0,0:0:0:0:
154,118,3890,1,8,0:0:0:0:
216,168,4120,2,0,P|248:149|282:117,1,62.5,8|8,0:0|0:0,0:0:0:0:
342,100,4582,6,0,B|341:159|337:240,1,125,2|8,0:2|0:0,0:0:0:0:
441,350,5505,2,0,P|492:318|498:257,1,125,2|8,0:0|0:0,0:0:0:0:
468,97,6428,6,0,P|391:100|309:113,1,125,2|8,0:0|0:0,0:0:0:0:
187,152,7351,2,0,P|248:164|270:250,1,125,2|8,0:0|0:0,0:0:0:0:
232,285,8043,1,2,0:0:0:0:
232,285,8274,6,0,P|127:276|91:280,2,125,2|8|2,0:0|0:0|0:0,0:0:0:0:
292,342,9428,1,0,0:0:0:0:
292,342,9659,2,0,L|401:326,1,62.5,8|0,0:0|0:0,0:0:0:0:
427,297,10120,6,0,P|450:225|416:153,1,125,2|8,0:0|0:0,0:0:0:0:
399,106,10813,1,0,0:0:0:0:
321,83,11043,2,0,P|210:71|149:52,1,125,2|8,0:0|0:0,0:0:0:0:
35,47,11966,6,0,P|35:76|44:124,1,62.5,2|2,0:0|0:0,0:0:0:0:
99,164,12428,2,0,P|97:191|83:227,1,62.5,8|2,0:0|0:0,0:0:0:0:
38,291,12890,2,0,P|77:300|155:332,1,125,8|8,0:0|0:0,0:0:0:0:
236,324,13582,1,8,0:0:0:0:
236,324,13813,1,8,0:0:0:0:
487,115,15659,6,0,P|445:75|375:73,1,125,4|8,0:3|0:0,0:0:0:0:
241,155,16582,1,2,0:0:0:0:
146,23,17043,1,8,0:0:0:0:
65,31,17274,1,2,0:0:0:0:
21,100,17505,6,0,L|25:249,1,125,2|8,0:0|0:0,0:0:0:0:
136,342,18428,1,2,0:0:0:0:
289,289,18890,1,8,0:0:0:0:
359,328,19120,1,2,0:0:0:0:
416,270,19351,6,0,P|424:231|425:179,1,62.5,4|2,0:3|0:0,0:0:0:0:
489,157,19813,2,0,P|475:127|466:91,1,62.5,8|2,0:0|0:0,0:0:0:0:
407,43,20274,2,0,B|345:50|345:50|346:54|346:54|247:67,1,125,4|8,0:3|0:0,0:0:0:0:
129,24,21197,6,0,P|107:80|125:173,1,125,4|8,0:3|0:0,0:0:0:0:
88,221,21890,1,2,0:0:0:0:
126,292,22120,2,0,P|189:295|265:313,1,125,4|8,0:3|0:0,0:0:0:0:
409,338,23043,6,0,B|417:276|417:276|415:270|415:270|423:204,1,125,4|8,0:3|0:0,0:0:0:0:
404,134,23736,1,2,0:0:0:0:
444,64,23966,2,0,L|523:43,2,62.5,2|2|8,0:0|0:0|0:0,0:0:0:0:
282,44,24890,6,0,B|223:49|223:49|220:47|220:47|151:56,1,125,4|8,0:3|0:0,0:0:0:0:
95,107,25582,1,2,0:0:0:0:
59,180,25813,2,0,P|26:169|-2:161,2,62.5,2|2|8,0:0|0:0|0:0,0:0:0:0:
137,322,26736,6,0,L|209:314,1,62.5,4|2,0:3|0:0,0:0:0:0:
249,251,27197,2,0,L|310:270,1,62.5,8|2,0:0|0:0,0:0:0:0:
369,323,27659,2,0,P|429:320|467:273,1,125,4|8,0:3|0:0,0:0:0:0:
493,112,28582,6,0,P|490:73|469:38,1,62.5,4|2,0:3|0:0,0:0:0:0:
403,26,29043,1,8,0:0:0:0:
327,55,29274,1,2,0:0:0:0:
327,55,29505,2,0,L|177:38,1,125,4|4,0:3|0:3,0:0:0:0:
55,110,30428,6,0,P|49:176|69:235,1,125,4|8,3:0|0:0,0:0:0:0:
173,354,31351,1,2,0:0:0:0:
318,280,31813,1,8,0:0:0:0:
392,311,32043,1,2,0:0:0:0:
464,274,32274,6,0,B|472:212|472:212|470:206|470:206|478:140,1,125,4|8,0:3|0:0,0:0:0:0:
362,34,33197,1,2,0:0:0:0:
199,42,33659,1,8,0:0:0:0:
117,39,33890,1,0,0:0:0:0:
69,104,34120,6,0,P|69:142|78:196,1,62.5,4|0,0:3|0:0,0:0:0:0:
28,235,34582,2,0,P|33:268|33:297,1,62.5,8|2,0:0|0:0,0:0:0:0:
101,341,35043,2,0,P|177:341|217:296,1,125,4|8,0:3|0:0,0:0:0:0:
372,301,35966,6,0,B|378:238|378:238|382:232|382:232|390:163,1,125,4|8,0:3|0:0,0:0:0:0:
435,111,36659,1,2,0:0:0:0:
376,54,36890,2,0,P|310:41|233:65,1,125,4|8,0:3|0:0,0:0:0:0:
91,53,37813,6,0,L|107:176,1,125,4|8,3:0|0:0,0:0:0:0:
153,244,38505,1,2,0:0:0:0:
161,324,38736,2,0,L|101:342,2,62.5,2|2|8,0:0|0:0|0:0,0:0:0:0:
323,326,39659,6,0,B|355:274|355:274|355:268|355:268|400:196,1,125,4|8,0:3|0:0,0:0:0:0:
438,157,40351,1,2,0:0:0:0:
446,76,40582,2,0,L|528:42,2,62.5,2|2|8,0:0|0:0|0:0,0:0:0:0:
285,51,41505,6,0,B|214:29,1,62.5,4|2,0:3|0:0,0:0:0:0:
227,113,41966,2,0,L|167:95,1,62.5,8|2,0:0|0:0,0:0:0:0:
94,133,42428,2,0,B|101:191|101:191|105:198|105:198|113:264,1,125,4|8,0:3|0:0,0:0:0:0:
250,340,43351,6,0,P|283:348|326:343,1,62.5,4|2,0:3|0:0,0:0:0:0:
388,321,43813,1,8,0:0:0:0:
421,247,44043,1,2,0:0:0:0:
421,247,44274,2,0,B|428:188|428:188|432:181|432:181|439:123,1,125,4|8,0:3|0:0,0:0:0:0:
301,37,45197,6,0,P|236:40|181:76,1,125,4|8,3:0|0:0,0:0:0:0:
191,232,46120,2,0,L|263:254,1,62.5,2|2,0:0|0:0,0:0:0:0:
203,317,46582,2,0,L|262:335,1,62.5,8|0,0:0|0:0,0:0:0:0:
342,353,47043,6,0,P|401:320|428:254,1,125,2|8,0:0|0:0,0:0:0:0:
414,108,47966,2,0,L|340:126,1,62.5,2|2,0:0|0:0,0:0:0:0:
359,41,48428,2,0,L|298:56,1,62.5,8|0,0:0|0:0,0:0:0:0:
234,106,48890,6,0,B|176:91|176:91|174:95|174:95|112:78,1,125,2|8,0:0|0:0,0:0:0:0:
23,214,49813,2,0,L|43:273,1,62.5,2|2,0:0|0:0,0:0:0:0:
108,223,50275,2,0,L|128:282,1,62.5,8|2,0:0|0:0,0:0:0:0:
203,313,50736,6,0,B|303:339|303:339|351:328,2,125,2|4|4,0:0|0:3|0:3,0:0:0:0:
206,231,51890,1,2,0:0:0:0:
206,231,52120,2,0,L|185:171,1,62.5,4|4,0:3|0:3,0:0:0:0:
200,91,52582,6,0,P|263:68|328:91,1,125,4|8,0:0|0:0,0:0:0:0:
449,177,53505,2,0,L|445:239,1,62.5,2|2,0:0|0:0,0:0:0:0:
369,209,53967,2,0,L|365:271,1,62.5,8|2,0:0|0:0,0:0:0:0:
299,318,54428,6,0,B|265:331|265:331|175:333,1,125,2|8,0:0|0:0,0:0:0:0:
46,235,55351,2,0,L|49:172,1,62.5,2|2,0:0|0:0,0:0:0:0:
126,203,55813,2,0,L|129:140,1,62.5,8|2,0:0|0:0,0:0:0:0:
184,80,56274,6,0,B|220:74|220:74|308:92,1,125,2|8,0:0|0:0,0:0:0:0:
428,200,57197,2,0,L|365:203,1,62.5,2|2,0:0|0:0,0:0:0:0:
396,280,57659,2,0,L|333:283,1,62.5,8|2,0:0|0:0,0:0:0:0:
263,324,58120,2,0,B|166:289|166:289|144:298,2,125,2|8|2,0:0|0:0|0:3,0:0:0:0:
359,13,59966,6,0,P|493:101|368:201,1,375,6|2,0:0|0:0,0:0:0:0:
259,80,61813,6,0,P|101:45|117:206,1,375,2|10,0:0|0:0,0:0:0:0:
277,238,63659,6,0,P|439:238|399:81,1,375,2|2,0:0|0:0,0:0:0:0:
239,42,65505,2,0,P|150:38|96:45,2,125,2|10|2,0:0|0:0|0:0,0:0:0:0:
349,161,66890,1,10,0:0:0:0:
455,38,67351,6,0,B|463:74|494:122|494:122|493:170|460:183|493:276|493:276|483:321|440:339|389:319,1,375,2|2,0:0|0:0,0:0:0:0:
234,292,69197,6,0,B|94:266,2,125,2|8|2,0:0|0:0|0:0,0:0:0:0:
376,213,70582,1,8,0:0:0:0:
292,75,71043,6,0,P|177:48|107:144,2,250,2|2|2,0:0|0:0|0:0,0:0:0:0:
341,229,73351,6,0,L|328:303,2,62.5,2|2|2,0:0|0:0|0:0,0:0:0:0:
279,175,74043,1,2,0:0:0:0:
279,175,74274,2,0,P|249:164|218:161,1,62.5,2|0,0:0|0:0,0:0:0:0:
147,202,74736,6,0,P|147:245|204:305,1,125,4|10,3:0|0:0,0:0:0:0:
358,336,75659,2,0,P|423:324|457:234,1,125,2|10,0:0|0:0,0:0:0:0:
466,198,76351,1,2,0:0:0:0:
466,198,76582,6,0,L|448:71,1,125,4|10,0:3|0:0,0:0:0:0:
293,25,77505,2,0,B|239:39|239:39|235:44|235:44|167:65,1,125,2|8,0:0|0:0,0:0:0:0:
47,172,78428,6,0,P|34:234|66:300,1,125,4|8,0:3|0:0,0:0:0:0:
212,334,79351,2,0,P|257:332|357:326,1,125,2|8,0:0|0:0,0:0:0:0:
387,263,80043,1,2,0:0:0:0:
463,234,80274,6,0,P|468:290|478:359,2,125,4|8|4,0:3|0:0|0:3,0:0:0:0:
485,72,81659,5,4,0:3:0:0:
323,55,82120,2,0,B|290:44|290:44|194:44,1,125,4|8,3:0|0:0,0:0:0:0:
82,156,83043,2,0,B|114:166|114:166|210:166,1,125,8|8,0:0|0:0,0:0:0:0:
278,130,83736,1,2,0:0:0:0:
341,180,83966,6,0,P|328:241|321:303,1,125,8|8,0:0|0:0,0:0:0:0:
389,348,84659,1,2,0:0:0:0:
466,324,84890,6,0,P|478:262|485:200,1,125,8|8,0:0|0:0,0:0:0:0:
490,119,85582,1,2,0:0:0:0:
434,59,85813,6,0,P|372:49|310:37,1,125,8|8,0:0|0:0,0:0:0:0:
208,164,86736,2,0,P|269:154|331:142,1,125,8|8,0:0|0:0,0:0:0:0:
482,208,87659,1,12,0:0:0:0:
25,115,89505,6,0,P|67:75|137:73,1,125,4|8,0:3|0:0,0:0:0:0:
271,155,90428,1,2,0:0:0:0:
366,23,90889,1,8,0:0:0:0:
447,31,91120,1,2,0:0:0:0:
491,100,91351,6,0,L|487:249,1,125,2|8,0:0|0:0,0:0:0:0:
376,342,92274,1,2,0:0:0:0:
223,289,92736,1,8,0:0:0:0:
153,328,92966,1,2,0:0:0:0:
96,270,93197,6,0,P|88:231|87:179,1,62.5,4|2,0:3|0:0,0:0:0:0:
23,157,93659,2,0,P|37:127|46:91,1,62.5,8|2,0:0|0:0,0:0:0:0:
105,43,94120,2,0,B|167:50|167:50|166:54|166:54|265:67,1,125,4|8,0:3|0:0,0:0:0:0:
383,24,95043,6,0,P|405:80|387:173,1,125,4|8,0:3|0:0,0:0:0:0:
424,221,95736,1,2,0:0:0:0:
386,292,95966,2,0,P|323:295|247:313,1,125,4|8,0:3|0:0,0:0:0:0:
103,338,96889,6,0,B|95:276|95:276|97:270|97:270|89:204,1,125,4|8,0:3|0:0,0:0:0:0:
108,134,97582,1,2,0:0:0:0:
68,64,97812,2,0,L|-11:43,2,62.5,2|2|8,0:0|0:0|0:0,0:0:0:0:
230,44,98736,6,0,B|289:49|289:49|292:47|292:47|361:56,1,125,4|8,0:3|0:0,0:0:0:0:
417,107,99428,1,2,0:0:0:0:
453,180,99659,2,0,P|486:169|514:161,2,62.5,2|2|8,0:0|0:0|0:0,0:0:0:0:
375,322,100582,6,0,L|303:314,1,62.5,4|2,0:3|0:0,0:0:0:0:
263,251,101043,2,0,L|202:270,1,62.5,8|2,0:0|0:0,0:0:0:0:
143,323,101505,2,0,P|82:320|44:273,1,125,4|8,0:3|0:0,0:0:0:0:
19,112,102428,6,0,P|22:73|43:38,1,62.5,4|2,0:3|0:0,0:0:0:0:
109,26,102889,1,8,0:0:0:0:
185,55,103120,1,2,0:0:0:0:
185,55,103351,2,0,L|335:38,1,125,4|4,0:3|0:3,0:0:0:0:
457,110,104274,6,0,P|463:176|443:235,1,125,4|8,3:0|0:0,0:0:0:0:
339,354,105197,1,2,0:0:0:0:
194,280,105659,1,8,0:0:0:0:
120,311,105889,1,2,0:0:0:0:
48,274,106120,6,0,B|40:212|40:212|42:206|42:206|34:140,1,125,4|8,0:3|0:0,0:0:0:0:
150,34,107043,1,2,0:0:0:0:
313,42,107505,1,8,0:0:0:0:
395,39,107736,1,0,0:0:0:0:
443,104,107966,6,0,P|443:142|434:196,1,62.5,4|0,0:3|0:0,0:0:0:0:
484,235,108428,2,0,P|479:268|479:297,1,62.5,8|2,0:0|0:0,0:0:0:0:
411,341,108889,2,0,P|335:341|295:296,1,125,4|8,0:3|0:0,0:0:0:0:
140,301,109812,6,0,B|134:238|134:238|130:232|130:232|122:163,1,125,4|8,0:3|0:0,0:0:0:0:
77,111,110505,1,2,0:0:0:0:
136,54,110736,2,0,P|202:41|279:65,1,125,4|8,0:3|0:0,0:0:0:0:
421,53,111659,6,0,L|404:176,1,125,4|8,3:0|0:0,0:0:0:0:
359,244,112351,1,2,0:0:0:0:
351,324,112582,2,0,L|411:342,2,62.5,2|2|8,0:0|0:0|0:0,0:0:0:0:
189,326,113505,6,0,B|156:274|156:274|156:268|156:268|111:196,1,125,4|8,0:3|0:0,0:0:0:0:
74,157,114197,1,2,0:0:0:0:
66,76,114428,2,0,L|-16:42,2,62.5,2|2|8,0:0|0:0|0:0,0:0:0:0:
227,51,115351,6,0,B|298:29,1,62.5,4|2,0:3|0:0,0:0:0:0:
285,113,115812,2,0,L|344:95,1,62.5,8|2,0:0|0:0,0:0:0:0:
418,133,116274,2,0,B|411:191|411:191|407:198|407:198|399:264,1,125,4|8,0:3|0:0,0:0:0:0:
262,340,117197,6,0,P|229:348|186:343,1,62.5,4|2,0:3|0:0,0:0:0:0:
124,321,117659,1,8,0:0:0:0:
91,247,117889,1,2,0:0:0:0:
91,247,118120,2,0,B|83:188|83:188|79:181|79:181|72:123,1,125,4|8,0:3|0:0,0:0:0:0:
211,37,119043,6,0,P|276:40|331:76,1,125,4|8,3:0|0:0,0:0:0:0:
321,232,119966,2,0,L|249:254,1,62.5,2|2,0:0|0:0,0:0:0:0:
309,317,120428,2,0,L|249:335,1,62.5,8|0,0:0|0:0,0:0:0:0:
170,353,120889,6,0,P|111:320|84:254,1,125,2|8,0:0|0:0,0:0:0:0:
98,108,121812,2,0,L|171:126,1,62.5,2|2,0:0|0:0,0:0:0:0:
153,41,122274,2,0,L|213:56,1,62.5,8|0,0:0|0:0,0:0:0:0:
278,106,122736,6,0,B|336:91|336:91|338:95|338:95|399:78,1,125,2|8,0:0|0:0,0:0:0:0:
489,214,123659,2,0,L|468:273,1,62.5,2|2,0:0|0:0,0:0:0:0:
404,223,124121,2,0,L|383:282,1,62.5,8|2,0:0|0:0,0:0:0:0:
309,313,124582,6,0,B|209:339|209:339|161:328,2,125,2|4|4,0:0|0:3|0:3,0:0:0:0:
306,231,125736,1,2,0:0:0:0:
306,231,125966,2,0,L|326:171,1,62.5,4|4,0:3|0:3,0:0:0:0:
312,91,126428,6,0,P|249:68|184:91,1,125,4|8,0:0|0:0,0:0:0:0:
63,177,127351,2,0,L|66:239,1,62.5,2|2,0:0|0:0,0:0:0:0:
143,209,127813,2,0,L|146:271,1,62.5,8|2,0:0|0:0,0:0:0:0:
213,318,128274,6,0,B|247:331|247:331|336:333,1,125,2|8,0:0|0:0,0:0:0:0:
466,235,129197,2,0,L|462:172,1,62.5,2|2,0:0|0:0,0:0:0:0:
386,203,129659,2,0,L|382:140,1,62.5,8|2,0:0|0:0,0:0:0:0:
328,80,130120,6,0,B|291:74|291:74|203:92,1,125,2|8,0:0|0:0,0:0:0:0:
84,200,131043,2,0,L|146:203,1,62.5,2|2,0:0|0:0,0:0:0:0:
116,280,131505,2,0,L|178:283,1,62.5,8|2,0:0|0:0,0:0:0:0:
249,324,131966,6,0,B|345:289|345:289|368:298,2,125,2|8|2,0:0|0:0|0:3,0:0:0:0:
256,192,133120,12,6,137505,3:0:0:0:
