osu file format v14

[General]
AudioFilename: audio.mp3
AudioLeadIn: 0
PreviewTime: 14505
Countdown: 0
SampleSet: Soft
StackLeniency: 0.6
Mode: 0
LetterboxInBreaks: 0
EpilepsyWarning: 1
WidescreenStoryboard: 1

[Editor]
Bookmarks: 74956
DistanceSpacing: 2.5
BeatDivisor: 2
GridSize: 16
TimelineZoom: 8

[Metadata]
Title:Ninja Re Bang Bang
TitleUnicode:にんじゃりばんばん
Artist:Kyary Pamyu Pamyu
ArtistUnicode:きゃりーぱみゅぱみゅ
Creator:Ensi
Version:Insane
Source:
Tags:Kiriko Ononoki Takemura Caroline Charonplop Full Control Tokyo Megapcmx Route_174 Block_Head Japanese pop jpop j-pop Jason X Dayzeek Enzo_
BeatmapID:4401850
BeatmapSetID:662472

[Difficulty]
HPDrainRate:7
CircleSize:4.4
OverallDifficulty:6
ApproachRate:8
SliderMultiplier:1.5
SliderTickRate:1

[Events]
//Background and Video events
0,0,"bg.jpg",0,0
//Break Periods
//Storyboard Layer 0 (Background)
//Storyboard Layer 1 (Fail)
//Storyboard Layer 2 (Pass)
//Storyboard Layer 3 (Foreground)
//Storyboard Layer 4 (Overlay)
//Storyboard Sound Samples

[TimingPoints]
890,461.538461538462,4,2,1,45,1,0
8274,-100,4,2,1,55,0,0
13813,-100,4,2,1,40,0,0
14043,-100,4,2,0,40,0,0
15197,-100,4,2,1,40,0,0
15659,-86.9565217391304,4,2,1,64,0,1
29966,-86.9565217391304,4,2,1,45,0,1
30428,-86.9565217391304,4,2,1,64,0,1
45197,-100,4,2,1,55,0,0
58582,-100,4,2,1,40,0,0
59966,-133.333333333333,4,2,2,35,0,0
62274,-133.333333333333,4,2,2,35,0,0
62505,-133.333333333333,4,2,2,35,0,0
63197,-133.333333333333,4,2,2,35,0,0
63428,-133.333333333333,4,2,2,35,0,0
65966,-133.333333333333,4,2,2,35,0,0
66197,-133.333333333333,4,2,2,35,0,0
66890,-133.333333333333,4,2,2,35,0,0
67121,-133.333333333333,4,2,2,35,0,0
69659,-133.333333333333,4,2,2,35,0,0
69890,-133.333333333333,4,2,2,35,0,0
70582,-133.333333333333,4,2,2,35,0,0
70813,-133.333333333333,4,2,2,35,0,0
71505,-133.333333333333,4,2,2,35,0,0
71736,-133.333333333333,4,2,2,35,0,0
72428,-133.333333333333,4,2,2,35,0,0
72659,-133.333333333333,4,2,2,35,0,0
73351,-133.333333333333,4,2,1,35,0,0
73582,-133.333333333333,4,2,2,35,0,0
74274,-133.333333333333,4,2,2,35,0,0
74620,-133.333333333333,4,2,1,35,0,0
74736,-100,4,2,1,45,0,0
82120,-100,4,2,1,50,0,0
88351,-100,4,2,0,50,0,0
89505,-86.9565217391304,4,2,1,70,0,1
103813,-86.9565217391304,4,2,1,50,0,1
104274,-86.9565217391304,4,2,1,75,0,1
119043,-86.9565217391304,4,2,1,60,0,0
126428,-86.9565217391304,4,2,1,56,0,0
132428,-86.9565217391304,4,2,1,50,0,0
133813,-86.9565217391304,4,2,1,35,0,0
134736,-86.9565217391304,4,2,1,25,0,0
135659,-86.9565217391304,4,2,1,15,0,0
136582,-86.9565217391304,4,2,1,5,0,0
137505,-86.9565217391304,4,2,1,40,0,0

[Colours]
Combo1 : 172,172,215
Combo2 : 44,188,101
Combo3 : 208,118,102
Combo4 : 243,219,44
SliderBorder : 172,173,181

[HitObjects]
42,335,890,6,0,P|50:278|53:228,1,75,2|0,2:0|0:0,0:0:0:0:
127,189,1351,2,0,P|130:227|136:264,1,75,2|0,0:0|0:0,0:0:0:0:
221,326,1813,2,0,P|227:260|306:202,1,150,0|8,0:0|0:0,0:0:0:0:
374,149,2505,1,8,0:0:0:0:
451,220,2736,6,0,P|461:271|455:314,1,75,2|0,0:0|0:0,0:0:0:0:
374,356,3197,2,0,P|366:320|369:282,1,75,2|0,0:0|0:0,0:0:0:0:
307,197,3659,2,0,P|248:230|141:220,1,150,0|8,0:0|0:0,0:0:0:0:
102,148,4351,1,8,0:0:0:0:
169,68,4582,6,0,P|239:67|203:132,1,150,2|8,0:2|0:0,0:0:0:0:
338,237,5505,2,0,P|330:173|395:180,1,150,2|8,0:0|0:0,0:0:0:0:
205,327,6428,2,0,P|212:263|147:270,1,150,2|8,0:0|0:0,0:0:0:0:
372,352,7351,1,2,0:0:0:0:
427,253,7582,1,8,0:0:0:0:
427,253,7697,1,8,0:0:0:0:
427,253,7813,1,8,0:0:0:0:
418,141,8043,1,2,0:0:0:0:
418,141,8274,6,0,B|363:149|270:112,1,150,2|8,0:0|0:0,0:0:0:0:
186,54,8966,1,0,0:0:0:0:
72,114,9197,2,0,P|68:174|159:219,1,150,2|8,0:0|0:0,0:0:0:0:
196,309,9890,1,0,0:0:0:0:
317,382,10120,6,0,P|317:321|308:224,1,150,2|8,0:0|0:0,0:0:0:0:
361,141,10813,1,0,0:0:0:0:
503,196,11043,2,0,P|468:254|381:262,1,150,2|8,0:0|0:0,0:0:0:0:
307,202,11736,1,0,0:0:0:0:
192,258,11966,6,0,P|189:315|193:352,1,75,2|2,0:0|0:0,0:0:0:0:
312,371,12428,2,0,P|315:314|311:277,1,75,8|2,0:0|0:0,0:0:0:0:
169,245,12890,2,0,P|163:294|166:331,1,75,8|2,0:0|0:0,0:0:0:0:
263,239,13351,1,8,0:0:0:0:
182,141,13582,1,8,0:0:0:0:
58,174,13813,1,8,0:0:0:0:
256,192,13928,12,2,15197,0:3:0:0:
82,61,15659,6,0,P|126:68|168:80,1,86.2500016450882,4|0,0:3|0:0,0:0:0:0:
248,167,16120,1,8,0:0:0:0:
329,77,16351,2,0,L|336:34,2,43.1250008225441,2|2|2,0:0|0:0|0:0,0:0:0:0:
384,185,16813,1,2,0:0:0:0:
428,242,16928,1,2,0:0:0:0:
483,194,17043,2,0,P|495:152|511:112,1,86.2500016450882,8|2,0:0|0:0,0:0:0:0:
356,259,17505,6,0,P|273:252|229:181,1,172.500003290176,2|8,0:0|0:0,0:0:0:0:
309,91,18197,2,0,L|352:80,2,43.1250008225441,2|2|2,0:0|0:0|0:0,0:0:0:0:
191,35,18659,1,2,0:0:0:0:
118,26,18774,1,2,0:0:0:0:
58,69,18890,2,0,P|54:111|61:154,1,86.2500016450882,8|2,0:0|0:0,0:0:0:0:
199,257,19351,6,0,P|242:241|287:227,1,86.2500016450882,4|2,0:3|0:0,0:0:0:0:
412,319,19813,2,0,P|372:311|328:296,1,86.2500016450882,8|2,0:0|0:0,0:0:0:0:
188,224,20274,2,0,P|231:208|276:194,1,86.2500016450882,4|2,0:3|0:0,0:0:0:0:
385,159,20736,1,8,0:0:0:0:
461,251,20966,1,2,0:0:0:0:
468,41,21197,6,0,P|480:83|479:126,1,86.2500016450882,4|2,0:3|0:0,0:0:0:0:
335,222,21659,2,0,P|323:180|323:137,1,86.2500016450882,8|2,0:0|0:0,0:0:0:0:
464,238,22120,1,4,0:3:0:0:
314,325,22351,2,0,L|253:309,1,43.1250008225441,2|2,0:0|0:0,0:0:0:0:
201,294,22582,1,8,0:0:0:0:
76,259,22813,1,2,0:0:0:0:
76,259,23043,6,0,P|66:215|61:175,1,86.2500016450882,4|2,0:3|0:0,0:0:0:0:
120,68,23505,1,8,0:0:0:0:
225,127,23736,2,0,L|174:146,2,43.1250008225441,2|2|2,0:0|0:0|0:0,0:0:0:0:
338,85,24197,1,2,0:0:0:0:
395,39,24313,1,2,0:0:0:0:
467,50,24428,2,0,P|457:91|449:134,1,86.2500016450882,8|2,0:0|0:0,0:0:0:0:
311,301,24890,6,0,P|232:278|206:199,1,172.500003290176,4|8,0:3|0:0,0:0:0:0:
291,113,25582,2,0,L|334:124,2,43.1250008225441,2|2|2,0:0|0:0|0:0,0:0:0:0:
168,71,26043,1,2,0:0:0:0:
111,23,26159,1,2,0:0:0:0:
44,52,26274,2,0,P|46:95|56:136,1,86.2500016450882,8|2,0:0|0:0,0:0:0:0:
193,242,26736,6,0,L|152:349,1,86.2500016450882,4|2,0:3|0:0,0:0:0:0:
260,180,27197,2,0,L|301:287,1,86.2500016450882,8|2,0:0|0:0,0:0:0:0:
155,125,27659,2,0,L|114:232,1,86.2500016450882,4|2,0:3|0:0,0:0:0:0:
276,64,28120,5,8,0:0:0:0:
410,172,28351,1,2,0:0:0:0:
509,30,28582,2,0,P|461:37|404:42,1,86.2500016450882,4|2,0:3|0:0,0:0:0:0:
324,161,29043,2,0,P|372:168|429:173,2,86.2500016450882,8|2|4,0:0|0:0|0:3,0:0:0:0:
151,143,29736,1,4,0:3:0:0:
90,91,29851,1,4,3:0:0:0:
45,149,29966,2,0,P|37:201|34:264,1,86.2500016450882,4|2,0:3|0:0,0:0:0:0:
181,326,30428,6,0,P|225:323|266:312,1,86.2500016450882,4|0,3:0|0:0,0:0:0:0:
352,227,30890,1,8,0:0:0:0:
454,289,31120,2,0,L|460:361,2,43.1250008225441,2|2|2,0:0|0:0|0:0,0:0:0:0:
430,161,31582,1,2,0:0:0:0:
445,89,31697,1,2,0:0:0:0:
385,45,31813,2,0,P|338:66|294:77,1,86.2500016450882,8|2,0:0|0:0,0:0:0:0:
97,85,32274,6,0,P|185:96|222:173,1,172.500003290176,4|8,0:3|0:0,0:0:0:0:
132,257,32966,2,0,L|84:246,2,43.1250008225441,2|2|2,0:0|0:0|0:0,0:0:0:0:
233,324,33428,1,2,0:0:0:0:
300,295,33543,1,2,0:0:0:0:
362,334,33659,2,0,P|406:326|446:316,1,86.2500016450882,8|0,0:0|0:0,0:0:0:0:
460,169,34120,6,0,P|432:135|398:109,1,86.2500016450882,4|0,0:3|0:0,0:0:0:0:
252,91,34582,2,0,P|289:69|318:38,1,86.2500016450882,8|2,0:0|0:0,0:0:0:0:
436,196,35043,2,0,P|408:162|374:136,1,86.2500016450882,4|0,0:3|0:0,0:0:0:0:
262,183,35505,5,8,0:0:0:0:
172,102,35736,1,0,0:0:0:0:
83,278,35966,2,0,P|75:235|76:192,1,86.2500016450882,4|2,0:3|0:0,0:0:0:0:
238,253,36428,2,0,P|231:295|217:336,1,86.2500016450882,8|2,0:0|0:0,0:0:0:0:
162,171,36890,1,4,0:3:0:0:
294,61,37120,2,0,L|338:68,1,43.1250008225441,2|2,0:0|0:0,0:0:0:0:
408,83,37351,1,8,0:0:0:0:
494,179,37582,1,2,0:0:0:0:
494,179,37813,6,0,P|502:221|507:263,1,86.2500016450882,4|0,3:0|0:0,0:0:0:0:
414,340,38274,1,8,0:0:0:0:
327,255,38505,2,0,L|370:261,2,43.1250008225441,2|2|2,0:0|0:0|0:0,0:0:0:0:
207,304,38966,1,2,0:0:0:0:
148,259,39082,1,2,0:0:0:0:
75,251,39197,2,0,P|73:293|76:338,1,86.2500016450882,8|2,0:0|0:0,0:0:0:0:
231,198,39659,6,0,P|215:117|138:86,1,172.500003290176,4|8,0:3|0:0,0:0:0:0:
18,67,40351,2,0,L|3:6,2,43.1250008225441,2|0|2,0:0|0:0|0:0,0:0:0:0:
52,192,40813,1,2,0:0:0:0:
54,265,40928,1,2,0:0:0:0:
118,299,41043,2,0,P|158:306|196:336,1,86.2500016450882,8|2,0:0|0:0,0:0:0:0:
366,319,41505,6,0,P|390:279|407:238,1,86.2500016450882,4|2,0:3|0:0,0:0:0:0:
249,167,41966,2,0,P|266:206|288:243,1,86.2500016450882,8|2,0:0|0:0,0:0:0:0:
378,95,42428,2,0,P|341:72|301:55,1,86.2500016450882,4|2,0:3|0:0,0:0:0:0:
186,93,42890,1,8,0:0:0:0:
75,45,43120,1,2,0:0:0:0:
66,217,43351,6,0,P|109:199|153:187,1,86.2500016450882,4|2,0:3|0:0,0:0:0:0:
281,78,43813,2,0,P|271:120|264:168,1,86.2500016450882,8|2,0:0|0:0,0:0:0:0:
358,307,44274,5,4,0:3:0:0:
479,184,44505,1,4,0:3:0:0:
460,113,44620,1,4,0:3:0:0:
389,91,44736,2,0,L|382:61,6,21.5625004112721,8|0|0|0|2|0|0,0:0|0:0|0:0|0:0|0:0|0:0|0:0,0:0:0:0:
336,143,45197,6,0,P|294:126|238:121,1,75,4|2,3:0|0:0,0:0:0:0:
138,97,45659,2,0,L|128:47,2,37.5,8|2|2,0:0|0:0|0:0,0:0:0:0:
82,148,46005,1,0,0:0:0:0:
91,222,46120,2,0,P|147:212|198:215,1,75,2|2,0:0|0:0,0:0:0:0:
278,271,46582,6,0,L|259:322,1,37.5,8|2,0:0|0:0,0:0:0:0:
340,312,46813,2,0,L|353:367,1,37.5,0|2,0:0|0:0,0:0:0:0:
419,325,47043,1,2,0:0:0:0:
482,214,47274,1,2,0:0:0:0:
445,91,47505,6,0,L|457:53,2,37.5,8|2|2,0:0|0:0|0:0,0:0:0:0:
382,133,47851,1,2,0:0:0:0:
315,98,47966,2,0,P|276:92|237:92,1,75,2|2,0:0|0:0,0:0:0:0:
36,213,48428,6,0,P|73:212|110:206,1,75,8|0,0:0|0:0,0:0:0:0:
165,155,48774,1,2,0:0:0:0:
232,189,48890,2,0,P|218:235|209:283,1,75,2|2,0:0|0:0,0:0:0:0:
320,329,49351,2,0,L|312:281,2,37.5,8|2|2,0:0|0:0|0:0,0:0:0:0:
389,357,49697,1,2,0:0:0:0:
447,309,49813,2,0,P|454:272|455:234,1,75,2|2,0:0|0:0,0:0:0:0:
449,107,50274,6,0,L|386:122,1,37.5,8|2,0:0|0:0,0:0:0:0:
352,69,50505,2,0,L|315:58,1,37.5,2|2,0:0|0:0,0:0:0:0:
251,97,50736,1,2,0:0:0:0:
141,32,50966,1,2,0:0:0:0:
18,119,51197,6,0,L|29:168,1,37.5,4|2,0:3|0:0,0:0:0:0:
100,166,51428,2,0,L|88:209,1,37.5,2|2,0:0|0:0,0:0:0:0:
22,236,51659,2,0,L|36:279,1,37.5,4|2,0:3|0:0,0:0:0:0:
107,285,51890,2,0,L|94:323,1,37.5,2|2,0:0|0:0,0:0:0:0:
168,241,52120,5,4,0:3:0:0:
168,241,52235,1,2,0:0:0:0:
216,298,52351,1,4,0:3:0:0:
216,298,52466,1,2,0:0:0:0:
283,331,52582,2,0,P|322:321|369:303,1,75,4|2,0:0|0:0,0:0:0:0:
467,159,53043,6,0,L|518:177,2,37.5,8|2|2,0:0|0:0|0:0,0:0:0:0:
419,100,53390,1,2,0:0:0:0:
354,62,53505,2,0,P|321:81|293:106,1,75,2|2,0:0|0:0,0:0:0:0:
146,79,53966,2,0,L|132:39,2,37.5,8|2|2,0:0|0:0|0:0,0:0:0:0:
103,142,54313,1,2,0:0:0:0:
64,205,54428,2,0,P|75:240|90:275,1,75,2|2,0:0|0:0,0:0:0:0:
222,348,54890,6,0,L|255:332,1,37.5,8|2,0:0|0:0,0:0:0:0:
309,279,55120,2,0,L|347:298,1,37.5,2|2,0:0|0:0,0:0:0:0:
411,326,55351,2,0,P|433:296|449:262,1,75,2|2,0:0|0:0,0:0:0:0:
468,112,55813,2,0,L|523:124,2,37.5,8|2|2,0:0|0:0|0:0,0:0:0:0:
412,61,56159,1,2,0:0:0:0:
338,72,56274,2,0,P|304:55|268:45,1,75,2|2,0:0|0:0,0:0:0:0:
118,59,56736,6,0,L|122:98,1,37.5,8|2,0:0|0:0,0:0:0:0:
50,119,56966,2,0,L|62:175,1,37.5,2|2,0:0|0:0,0:0:0:0:
47,230,57197,2,0,L|121:240,1,75,2|2,0:0|0:0,0:0:0:0:
253,313,57659,6,0,L|204:331,2,37.5,8|2|2,0:0|0:0|0:0,0:0:0:0:
326,328,58005,1,2,0:0:0:0:
391,292,58120,2,0,P|403:256|410:219,1,75,2|2,0:0|0:0,0:0:0:0:
289,130,58582,2,0,P|300:166|312:202,1,75,8|2,0:0|0:0,0:0:0:0:
415,42,59043,1,2,0:3:0:0:
415,42,59966,6,0,L|393:104,2,56.2500021457673,6|0|2,0:0|0:0|0:0,0:0:0:0:
292,141,60890,2,0,L|276:87,2,56.2500021457673,2|2|2,0:0|0:0|0:0,0:0:0:0:
426,276,61813,5,2,0:0:0:0:
456,185,62043,1,2,0:0:0:0:
366,149,62274,2,0,P|372:195|377:224,1,56.2500021457673,8|0,0:0|0:0,0:0:0:0:
307,274,62736,5,2,0:0:0:0:
216,304,62966,1,2,0:0:0:0:
180,214,63197,2,0,P|226:220|255:225,1,56.2500021457673,10|0,0:0|0:0,0:0:0:0:
101,295,63659,6,0,L|70:221,2,56.2500021457673,2|0|2,0:0|0:0|0:0,0:0:0:0:
187,163,64582,2,0,L|164:223,2,56.2500021457673,2|2|2,0:0|0:0|0:0,0:0:0:0:
22,65,65505,5,2,0:0:0:0:
110,27,65736,1,2,0:0:0:0:
183,88,65966,2,0,P|211:84|239:80,1,56.2500021457673,10|0,0:0|0:0,0:0:0:0:
308,145,66428,1,2,0:0:0:0:
385,88,66659,1,2,0:0:0:0:
453,154,66890,2,0,L|457:228,1,56.2500021457673,10|0,0:0|0:0,0:0:0:0:
341,310,67351,6,0,L|271:288,2,56.2500021457673,2|0|2,0:0|0:0|0:0,0:0:0:0:
221,207,68274,2,0,L|148:235,2,56.2500021457673,2|2|2,0:0|0:0|0:0,0:0:0:0:
371,89,69197,5,2,0:0:0:0:
290,37,69428,1,2,0:0:0:0:
205,81,69659,2,0,L|195:136,1,56.2500021457673,8|0,0:0|0:0,0:0:0:0:
177,235,70120,1,2,0:0:0:0:
260,281,70351,1,2,0:0:0:0:
336,223,70582,2,0,L|326:167,1,56.2500021457673,8|0,0:0|0:0,0:0:0:0:
177,235,71043,5,2,0:0:0:0:
104,297,71274,1,0,0:0:0:0:
31,234,71505,2,0,L|29:157,1,56.2500021457673,2|0,0:0|0:0,0:0:0:0:
94,107,71966,1,2,0:0:0:0:
172,161,72197,1,2,0:0:0:0:
249,104,72428,2,0,L|238:23,1,56.2500021457673,2|0,0:0|0:0,0:0:0:0:
335,69,72890,2,0,L|338:127,1,56.2500021457673,2|2,0:0|0:0,0:0:0:0:
359,218,73351,5,2,0:0:0:0:
423,147,73582,1,2,0:0:0:0:
487,217,73813,2,0,P|485:270|440:299,1,112.500004291535,2|2,0:0|0:0,0:0:0:0:
345,314,74505,1,0,0:0:0:0:
241,239,74736,6,0,P|243:201|246:164,1,75,4|0,3:0|0:0,0:0:0:0:
153,75,75197,1,10,0:0:0:0:
44,142,75428,1,2,0:0:0:0:
44,142,75543,1,2,0:0:0:0:
44,142,75659,2,0,P|42:180|41:224,1,75,2|2,0:0|0:0,0:0:0:0:
129,309,76120,2,0,L|129:233,1,75,10|2,0:0|0:0,0:0:0:0:
210,135,76582,5,4,0:3:0:0:
308,215,76813,1,4,0:3:0:0:
407,135,77043,1,10,0:0:0:0:
311,50,77274,1,2,0:0:0:0:
311,50,77390,1,2,0:0:0:0:
311,50,77505,2,0,L|308:140,1,75,2|0,0:0|0:0,0:0:0:0:
303,252,77966,1,8,0:0:0:0:
183,297,78197,1,2,0:0:0:0:
84,217,78428,6,0,L|168:205,1,75,4|2,0:3|0:0,0:0:0:0:
213,90,78890,1,8,0:0:0:0:
99,33,79120,1,2,0:0:0:0:
99,33,79236,1,2,0:0:0:0:
99,33,79351,2,0,L|104:133,1,75,2|2,0:0|0:0,0:0:0:0:
116,235,79813,5,8,0:0:0:0:
208,322,80043,1,2,0:0:0:0:
325,271,80274,2,0,P|367:209|354:124,1,150,4|8,0:3|0:0,0:0:0:0:
250,72,80966,1,2,0:0:0:0:
250,72,81082,1,2,0:0:0:0:
250,72,81197,2,0,L|262:147,1,75,4|2,0:3|0:0,0:0:0:0:
193,254,81659,2,0,P|190:200|135:169,1,112.5,4|2,0:3|0:0,0:0:0:0:
104,188,82120,6,0,P|64:189|34:171,1,75,4|2,3:0|0:0,0:0:0:0:
4,47,82582,2,0,P|44:46|74:64,1,75,8|2,0:0|0:0,0:0:0:0:
188,7,83043,6,0,L|180:82,1,75,8|2,0:0|0:0,0:0:0:0:
283,58,83505,2,0,L|276:132,1,75,8|2,0:0|0:0,0:0:0:0:
367,242,83966,6,0,P|422:216|436:174,1,75,8|2,0:0|0:0,0:0:0:0:
324,98,84428,2,0,P|333:134|360:159,1,75,8|2,0:0|0:0,0:0:0:0:
468,55,84890,2,0,P|412:82|399:123,1,75,8|2,0:0|0:0,0:0:0:0:
509,199,85351,2,0,P|499:164|473:138,1,75,8|2,0:0|0:0,0:0:0:0:
324,98,85813,5,8,0:0:0:0:
187,157,86043,1,2,0:0:0:0:
332,195,86274,1,8,0:0:0:0:
226,299,86504,1,2,0:0:0:0:
226,299,86620,1,0,0:0:0:0:
226,299,86736,5,10,0:0:0:0:
246,108,86966,1,2,0:0:0:0:
419,179,87197,1,8,0:0:0:0:
233,209,87428,1,10,0:0:0:0:
364,75,87659,1,12,0:0:0:0:
256,192,87774,12,2,89043,0:3:0:0:
463,307,89505,6,0,P|467:259|459:198,1,86.2500016450882,4|0,0:3|0:0,0:0:0:0:
377,124,89966,1,8,0:0:0:0:
278,208,90197,2,0,L|230:190,1,43.1250008225441,2|2,0:0|0:0,0:0:0:0:
156,276,90428,2,0,L|212:258,1,43.1250008225441,2|0,0:0|0:0,0:0:0:0:
141,159,90659,1,2,0:0:0:0:
73,130,90774,1,2,0:0:0:0:
23,184,90890,2,0,P|33:225|51:264,1,86.2500016450882,8|2,0:0|0:0,0:0:0:0:
241,348,91351,6,0,P|314:304|407:328,1,172.500003290176,2|8,0:0|0:0,0:0:0:0:
476,219,92043,2,0,L|498:150,1,43.1250008225441,2|2,0:0|0:0,0:0:0:0:
388,117,92274,2,0,L|401:158,1,43.1250008225441,2|0,0:0|0:0,0:0:0:0:
470,63,92505,1,2,0:0:0:0:
412,18,92620,1,2,0:0:0:0:
344,47,92736,2,0,P|308:59|241:64,1,86.2500016450882,8|2,0:0|0:0,0:0:0:0:
90,32,93197,6,0,P|93:78|101:117,1,86.2500016450882,4|2,0:3|0:0,0:0:0:0:
216,246,93659,2,0,P|224:203|227:160,1,86.2500016450882,8|2,0:0|0:0,0:0:0:0:
53,33,94120,2,0,P|56:79|64:118,1,86.2500016450882,4|2,0:3|0:0,0:0:0:0:
121,234,94582,1,8,0:0:0:0:
161,110,94813,1,2,0:0:0:0:
351,29,95043,6,0,P|366:90|367:120,1,86.2500016450882,4|2,0:3|0:0,0:0:0:0:
240,219,95505,2,0,P|243:176|256:134,1,86.2500016450882,8|2,0:0|0:0,0:0:0:0:
415,202,95966,1,4,0:3:0:0:
299,330,96197,2,0,L|249:320,1,43.1250008225441,2|2,0:0|0:0,0:0:0:0:
185,304,96428,1,8,0:0:0:0:
43,263,96659,1,2,0:0:0:0:
43,263,96890,6,0,P|35:217|35:177,1,86.2500016450882,4|2,0:3|0:0,0:0:0:0:
94,62,97351,1,8,0:0:0:0:
212,113,97582,2,0,L|260:131,1,43.1250008225441,2|2,0:0|0:0,0:0:0:0:
334,45,97813,2,0,L|278:63,1,43.1250008225441,2|0,0:0|0:0,0:0:0:0:
386,128,98043,1,2,0:0:0:0:
453,100,98159,1,2,0:0:0:0:
497,158,98274,2,0,P|484:199|477:241,1,86.2500016450882,8|2,0:0|0:0,0:0:0:0:
294,340,98736,6,0,P|223:290|132:305,1,172.500003290176,4|8,0:3|0:0,0:0:0:0:
41,217,99428,2,0,L|23:169,1,43.1250008225441,2|2,0:0|0:0,0:0:0:0:
109,95,99659,2,0,L|91:151,1,43.1250008225441,2|0,0:0|0:0,0:0:0:0:
48,29,99890,1,2,0:0:0:0:
119,11,100005,1,2,0:0:0:0:
188,33,100120,2,0,P|231:42|274:47,1,86.2500016450882,8|2,0:0|0:0,0:0:0:0:
419,140,100582,6,0,P|406:175|395:223,1,86.2500016450882,4|2,0:3|0:0,0:0:0:0:
264,335,101043,2,0,P|255:292|240:252,1,86.2500016450882,8|2,0:0|0:0,0:0:0:0:
455,151,101505,2,0,P|442:186|431:234,1,86.2500016450882,4|2,0:3|0:0,0:0:0:0:
279,150,101966,1,8,0:0:0:0:
162,277,102197,5,2,0:0:0:0:
109,225,102313,1,0,0:0:0:0:
42,254,102428,2,0,L|29:339,1,86.2500016450882,4|2,0:3|0:0,0:0:0:0:
184,187,102890,2,0,L|175:101,2,86.2500016450882,8|2|4,0:0|0:0|0:3,0:0:0:0:
293,320,103582,1,4,0:3:0:0:
363,338,103697,1,4,3:0:0:0:
418,289,103813,2,0,P|427:246|429:203,1,86.2500016450882,4|2,0:3|0:0,0:0:0:0:
330,62,104274,6,0,P|288:68|248:83,1,86.2500016450882,4|0,3:0|0:0,0:0:0:0:
158,178,104736,1,8,0:0:0:0:
37,130,104966,2,0,L|19:178,1,43.1250008225441,2|2,0:0|0:0,0:0:0:0:
105,252,105197,2,0,L|87:196,1,43.1250008225441,2|0,0:0|0:0,0:0:0:0:
27,309,105428,1,2,0:0:0:0:
86,351,105543,1,2,0:0:0:0:
157,332,105659,2,0,P|190:303|227:281,1,86.2500016450882,8|2,0:0|0:0,0:0:0:0:
304,89,106120,6,0,P|311:183|376:251,1,172.500003290176,4|8,0:3|0:0,0:0:0:0:
484,207,106813,2,0,L|502:159,1,43.1250008225441,2|2,0:0|0:0,0:0:0:0:
416,85,107043,2,0,L|434:141,1,43.1250008225441,2|0,0:0|0:0,0:0:0:0:
504,37,107274,1,2,0:0:0:0:
437,5,107390,1,2,0:0:0:0:
364,14,107505,2,0,B|326:31|288:55,1,86.2500016450882,8|0,0:0|0:0,0:0:0:0:
164,175,107966,6,0,P|124:157|93:128,1,86.2500016450882,4|0,0:3|0:0,0:0:0:0:
225,240,108428,2,0,P|265:222|296:193,1,86.2500016450882,8|2,0:0|0:0,0:0:0:0:
153,331,108890,2,0,P|113:313|82:284,1,86.2500016450882,4|0,0:3|0:0,0:0:0:0:
236,130,109351,5,8,0:0:0:0:
384,42,109582,1,0,0:0:0:0:
454,60,109697,1,0,0:0:0:0:
484,126,109813,2,0,P|486:186|488:223,1,86.2500016450882,4|2,0:3|0:0,0:0:0:0:
351,318,110274,2,0,P|353:274|354:231,1,86.2500016450882,8|2,0:0|0:0,0:0:0:0:
258,87,110736,1,4,0:3:0:0:
107,169,110966,6,0,L|124:245,1,43.1250008225441,2|2,0:0|0:0,0:0:0:0:
132,282,111197,1,8,0:0:0:0:
83,71,111428,1,2,0:0:0:0:
83,71,111659,6,0,P|123:54|186:41,1,86.2500016450882,4|0,3:0|0:0,0:0:0:0:
268,121,112120,1,8,0:0:0:0:
390,79,112351,2,0,L|408:127,1,43.1250008225441,2|2,0:0|0:0,0:0:0:0:
322,201,112582,2,0,L|340:145,1,43.1250008225441,2|0,0:0|0:0,0:0:0:0:
417,243,112813,1,2,0:0:0:0:
374,302,112928,1,2,0:0:0:0:
304,323,113043,2,0,P|280:286|245:253,1,86.2500016450882,8|2,0:0|0:0,0:0:0:0:
54,327,113505,6,0,P|117:269|120:153,1,172.500003290176,4|8,0:3|0:0,0:0:0:0:
35,98,114197,2,0,L|83:116,1,43.1250008225441,2|0,0:0|0:0,0:0:0:0:
157,32,114428,2,0,L|101:50,1,43.1250008225441,2|0,0:0|0:0,0:0:0:0:
215,107,114659,1,2,0:0:0:0:
271,60,114774,1,2,0:0:0:0:
338,88,114890,2,0,P|329:135|326:187,1,86.2500016450882,8|2,0:0|0:0,0:0:0:0:
415,320,115351,6,0,P|443:285|431:218,1,86.2500016450882,4|2,0:3|0:0,0:0:0:0:
234,204,115813,2,0,P|255:241|294:259,1,86.2500016450882,8|2,0:0|0:0,0:0:0:0:
423,61,116274,2,0,P|380:65|347:92,1,86.2500016450882,4|2,0:3|0:0,0:0:0:0:
367,263,116736,5,8,0:0:0:0:
269,121,116966,1,2,0:0:0:0:
205,83,117082,1,0,0:0:0:0:
135,103,117197,2,0,P|135:179|129:218,1,86.2500016450882,4|2,0:3|0:0,0:0:0:0:
247,320,117659,2,0,P|243:277|245:233,1,86.2500016450882,8|2,0:0|0:0,0:0:0:0:
353,99,118120,1,4,0:3:0:0:
195,29,118351,5,4,0:3:0:0:
128,59,118466,1,4,0:3:0:0:
55,72,118582,2,0,L|48:42,6,21.5625004112721,8|0|0|0|2|0|0,0:0|0:0|0:0|0:0|0:0|0:0|0:0,0:0:0:0:
22,137,119043,6,0,P|18:172|7:231,1,86.2500016450882,4|2,3:0|0:0,0:0:0:0:
87,347,119505,2,0,P|108:341|128:333,1,43.1250008225441,8|2,0:0|0:0,0:0:0:0:
179,263,119736,2,0,P|199:268|219:276,1,43.1250008225441,2|0,0:0|0:0,0:0:0:0:
288,327,119966,2,0,P|322:283|349:231,1,86.2500016450882,2|2,0:0|0:0,0:0:0:0:
336,169,120313,1,0,0:0:0:0:
416,138,120428,6,0,L|463:156,2,43.1250008225441,8|2|0,0:0|0:0|0:0,0:0:0:0:
385,56,120774,1,2,0:0:0:0:
304,24,120890,2,0,L|184:43,1,86.2500016450882,2|2,0:0|0:0,0:0:0:0:
76,73,121351,6,0,L|67:129,1,43.1250008225441,8|2,0:0|0:0,0:0:0:0:
152,138,121582,2,0,L|161:194,1,43.1250008225441,2|2,0:0|0:0,0:0:0:0:
99,244,121813,1,2,0:0:0:0:
208,341,122043,1,2,0:0:0:0:
354,326,122274,2,0,P|376:287|393:238,1,86.2500016450882,8|0,0:0|0:0,0:0:0:0:
439,176,122620,1,2,0:0:0:0:
432,89,122736,6,0,P|387:80|336:80,1,86.2500016450882,2|2,0:0|0:0,0:0:0:0:
216,147,123197,2,0,L|196:212,2,43.1250008225441,8|2|2,0:0|0:0|0:0,0:0:0:0:
177,70,123543,1,2,0:0:0:0:
90,80,123659,2,0,P|98:115|107:171,1,86.2500016450882,2|2,0:0|0:0,0:0:0:0:
81,309,124120,6,0,P|102:303|122:295,1,43.1250008225441,8|2,0:0|0:0,0:0:0:0:
173,225,124351,2,0,P|193:230|213:238,1,43.1250008225441,2|2,0:0|0:0,0:0:0:0:
269,304,124582,1,2,0:0:0:0:
407,254,124813,1,2,0:0:0:0:
374,111,125043,6,0,L|323:125,1,43.1250008225441,4|2,0:3|0:0,0:0:0:0:
239,39,125274,2,0,L|279:53,1,43.1250008225441,2|2,0:0|0:0,0:0:0:0:
197,115,125505,6,0,L|146:129,1,43.1250008225441,4|2,0:3|0:0,0:0:0:0:
62,43,125736,2,0,L|102:57,1,43.1250008225441,2|2,0:0|0:0,0:0:0:0:
19,144,125966,5,4,0:3:0:0:
19,144,126082,1,2,0:0:0:0:
19,229,126197,1,4,0:3:0:0:
19,229,126313,1,2,0:0:0:0:
70,298,126428,6,0,P|111:287|154:280,1,86.2500016450882,4|2,0:0|0:0,0:0:0:0:
350,317,126890,2,0,L|294:285,2,43.1250008225441,8|2|2,0:0|0:0|0:0,0:0:0:0:
432,320,127236,1,2,0:0:0:0:
475,250,127351,2,0,L|459:157,1,86.2500016450882,2|2,0:0|0:0,0:0:0:0:
359,34,127813,6,0,P|333:41|312:49,1,43.1250008225441,8|2,0:0|0:0,0:0:0:0:
253,97,128043,2,0,P|222:91|194:81,1,43.1250008225441,2|2,0:0|0:0,0:0:0:0:
142,41,128274,1,2,0:0:0:0:
28,134,128505,1,2,0:0:0:0:
85,269,128736,6,0,L|31:254,2,43.1250008225441,8|2|2,0:0|0:0|0:0,0:0:0:0:
130,337,129082,1,2,0:0:0:0:
211,329,129197,2,0,P|251:310|292:300,1,86.2500016450882,2|2,0:0|0:0,0:0:0:0:
462,196,129659,6,0,P|408:183|367:179,1,86.2500016450882,8|2,0:0|0:0,0:0:0:0:
351,101,130005,1,2,0:0:0:0:
284,52,130120,2,0,P|240:49|198:72,1,86.2500016450882,2|2,0:0|0:0,0:0:0:0:
69,130,130582,6,0,L|79:186,1,43.1250008225441,8|2,0:0|0:0,0:0:0:0:
152,203,130813,2,0,L|142:259,1,43.1250008225441,2|2,0:0|0:0,0:0:0:0:
99,313,131043,1,2,0:0:0:0:
241,348,131274,1,2,0:0:0:0:
368,275,131505,6,0,L|406:300,2,43.1250008225441,8|0|2,0:0|0:0|0:0,0:0:0:0:
306,219,131851,1,2,0:0:0:0:
340,144,131966,2,0,P|397:137|442:128,2,86.2500016450882,2|2|8,0:0|0:0|0:0,0:0:0:0:
277,90,132543,1,0,0:0:0:0:
277,90,132659,2,0,P|250:84|216:76,1,43.1250008225441,2|2,0:0|0:0,0:0:0:0:
155,57,132890,1,2,0:3:0:0:
256,192,133005,12,6,137505,3:0:0:0:
