osu file format v14

[General]
AudioFilename: audio.mp3
AudioLeadIn: 0
PreviewTime: 14505
Countdown: 0
SampleSet: Soft
StackLeniency: 0.6
Mode: 0
LetterboxInBreaks: 0
EpilepsyWarning: 1
WidescreenStoryboard: 1

[Editor]
Bookmarks: 7341,59966,61351,61813,63197,63659,65043,65505,66428,67351,68736,69197,70582,71043,73813,74274,74736
DistanceSpacing: 1.3
BeatDivisor: 4
GridSize: 4
TimelineZoom: 2.999999

[Metadata]
Title:Ninja Re Bang Bang
TitleUnicode:にんじゃりばんばん
Artist:Kyary Pamyu Pamyu
ArtistUnicode:きゃりーぱみゅぱみゅ
Creator:Ensi
Version:Hard
Source:
Tags:Kiriko Ononoki Takemura Caroline Charonplop Full Control Tokyo Megapcmx Route_174 Block_Head Japanese pop jpop j-pop Jason X Dayzeek Enzo_
BeatmapID:4492948
BeatmapSetID:662472

[Difficulty]
HPDrainRate:6
CircleSize:4
OverallDifficulty:5
ApproachRate:6
SliderMultiplier:1.35
SliderTickRate:1

[Events]
//Background and Video events
0,0,"bg.jpg",0,0
//Break Periods
//Storyboard Layer 0 (Background)
//Storyboard Layer 1 (Fail)
//Storyboard Layer 2 (Pass)
//Storyboard Layer 3 (Foreground)
//Storyboard Layer 4 (Overlay)
//Storyboard Sound Samples

[TimingPoints]
890,461.538461538462,4,2,1,45,1,0
8274,-100,4,2,1,55,0,0
13813,-100,4,2,1,40,0,0
14043,-100,4,2,0,40,0,0
15197,-100,4,2,1,40,0,0
15659,-100,4,2,1,64,0,1
29966,-100,4,2,1,45,0,1
30428,-100,4,2,1,64,0,1
45197,-100,4,2,1,55,0,0
58582,-100,4,2,1,40,0,0
59966,-133.333333333333,4,2,2,35,0,0
62274,-133.333333333333,4,2,2,35,0,0
62505,-133.333333333333,4,2,2,35,0,0
63197,-133.333333333333,4,2,2,35,0,0
63428,-133.333333333333,4,2,2,35,0,0
65966,-133.333333333333,4,2,2,35,0,0
66197,-133.333333333333,4,2,2,35,0,0
66890,-133.333333333333,4,2,2,35,0,0
67121,-133.333333333333,4,2,2,35,0,0
69659,-133.333333333333,4,2,2,35,0,0
69890,-133.333333333333,4,2,2,35,0,0
70582,-133.333333333333,4,2,2,35,0,0
70813,-133.333333333333,4,2,2,35,0,0
71505,-133.333333333333,4,2,2,35,0,0
71736,-133.333333333333,4,2,2,35,0,0
72428,-133.333333333333,4,2,2,35,0,0
72659,-133.333333333333,4,2,2,35,0,0
73351,-100,4,2,1,35,0,0
73582,-100,4,2,2,35,0,0
74274,-100,4,2,2,35,0,0
74620,-100,4,2,1,35,0,0
74736,-100,4,2,1,45,0,0
82120,-100,4,2,1,50,0,0
88351,-100,4,2,0,50,0,0
89505,-100,4,2,1,70,0,1
103813,-100,4,2,1,50,0,1
104274,-100,4,2,1,75,0,1
119043,-100,4,2,1,60,0,0
126428,-100,4,2,1,56,0,0
132428,-100,4,2,1,50,0,0
133813,-100,4,2,1,35,0,0
134736,-100,4,2,1,25,0,0
135659,-100,4,2,1,15,0,0
136582,-100,4,2,1,5,0,0
137505,-100,4,2,1,40,0,0

[Colours]
Combo1 : 172,172,215
Combo2 : 44,188,101
Combo3 : 208,118,102
Combo4 : 243,219,44
SliderBorder : 172,173,181

[HitObjects]
276,65,890,6,0,P|341:63|419:94,2,135,2|2|0,2:0|0:0|0:0,0:0:0:0:
201,111,2043,1,0,0:0:0:0:
201,111,2274,2,0,P|198:177|197:182,1,67.5,8|8,0:0|0:0,0:0:0:0:
132,237,2736,6,0,P|68:214|1:216,2,135,2|2|0,0:0|0:0|0:0,0:0:0:0:
188,303,3890,1,8,0:0:0:0:
268,337,4120,2,0,P|301:320|323:280,1,67.5,8|8,0:0|0:0,0:0:0:0:
402,323,4582,6,0,P|420:252|425:181,1,135,2|8,0:2|0:0,0:0:0:0:
385,110,5274,1,0,0:0:0:0:
385,110,5505,2,0,P|319:120|296:208,1,135,2|8,0:0|0:0,0:0:0:0:
215,222,6197,1,0,0:0:0:0:
215,222,6428,6,0,P|138:225|53:214,1,135,2|8,0:0|0:0,0:0:0:0:
39,141,7120,1,0,0:0:0:0:
91,70,7351,1,2,0:0:0:0:
176,50,7582,2,0,L|177:-1,2,33.75,8|8|8,0:0|0:0|0:0,0:0:0:0:
253,90,8043,1,2,0:0:0:0:
253,90,8274,6,0,P|320:86|387:96,2,135,2|8|2,0:0|0:0|0:0,0:0:0:0:
194,155,9428,1,0,0:0:0:0:
171,239,9659,2,0,P|201:264|251:275,1,67.5,8|0,0:0|0:0,0:0:0:0:
310,301,10120,2,0,P|382:278|454:312,1,135,2|8,0:0|0:0,0:0:0:0:
465,213,10813,1,0,0:0:0:0:
438,129,11043,2,0,P|353:126|304:71,1,135,2|8,0:0|0:0,0:0:0:0:
245,45,11736,1,0,0:0:0:0:
245,45,11966,6,0,P|216:45|168:54,1,67.5,2|2,0:0|0:0,0:0:0:0:
128,123,12428,2,0,P|157:123|205:132,1,67.5,8|2,0:0|0:0,0:0:0:0:
232,209,12890,2,0,P|169:228|146:289,1,135,8|8,0:0|0:0,0:0:0:0:
215,344,13582,1,8,0:0:0:0:
292,302,13813,1,8,0:0:0:0:
483,133,15659,6,0,P|447:88|363:91,1,135,4|8,0:3|0:0,0:0:0:0:
326,158,16351,1,2,0:0:0:0:
245,123,16582,2,0,L|237:39,1,67.5,2|2,0:0|0:0,0:0:0:0:
201,31,16928,1,2,0:0:0:0:
201,31,17043,2,0,P|164:27|123:54,1,67.5,8|2,0:0|0:0,0:0:0:0:
60,83,17505,6,0,B|63:146|63:146|60:154|60:154|64:222,1,135,2|8,0:0|0:0,0:0:0:0:
78,304,18197,1,2,0:0:0:0:
162,278,18428,2,0,P|200:284|237:302,1,67.5,2|2,0:0|0:0,0:0:0:0:
254,329,18774,1,2,0:0:0:0:
254,329,18890,1,8,0:0:0:0:
317,269,19120,1,2,0:0:0:0:
377,332,19351,6,0,P|403:284|406:257,1,67.5,4|2,0:3|0:0,0:0:0:0:
481,315,19813,2,0,P|490:270|477:225,1,67.5,8|2,0:0|0:0,0:0:0:0:
486,161,20274,2,0,P|420:136|358:169,1,135,4|8,0:3|0:0,0:0:0:0:
298,219,20966,1,2,0:0:0:0:
260,139,21197,2,0,P|268:106|272:72,1,67.5,4|2,0:3|0:0,0:0:0:0:
196,27,21659,2,0,P|149:31|114:46,1,67.5,8|2,0:0|0:0,0:0:0:0:
43,52,22120,5,4,0:3:0:0:
31,139,22351,2,0,L|-23:124,2,33.75,2|2|8,0:0|0:0|0:0,0:0:0:0:
61,221,22813,1,2,0:0:0:0:
61,221,23043,6,0,P|129:219|172:292,1,135,4|8,0:3|0:0,0:0:0:0:
207,354,23736,1,2,0:0:0:0:
296,323,23966,2,0,L|307:231,1,67.5,2|2,0:0|0:0,0:0:0:0:
336,225,24313,1,2,0:0:0:0:
336,225,24428,2,0,P|372:210|428:228,1,67.5,8|2,0:0|0:0,0:0:0:0:
480,176,24890,6,0,B|489:113|489:113|487:105|487:105|497:37,1,135,4|8,0:3|0:0,0:0:0:0:
413,11,25582,1,2,0:0:0:0:
359,80,25813,2,0,P|321:73|274:58,1,67.5,2|2,0:0|0:0,0:0:0:0:
262,33,26159,1,2,0:0:0:0:
262,33,26274,1,8,0:0:0:0:
178,59,26505,1,2,0:0:0:0:
91,46,26736,6,0,P|80:86|80:132,1,67.5,4|2,0:3|0:0,0:0:0:0:
2,156,27197,2,0,P|19:184|43:207,1,67.5,8|2,0:0|0:0,0:0:0:0:
67,292,27659,2,0,P|132:292|175:243,1,135,4|8,0:3|0:0,0:0:0:0:
138,163,28351,1,2,0:0:0:0:
138,163,28582,6,0,L|143:74,1,67.5,4|2,0:3|0:0,0:0:0:0:
206,36,29043,1,8,0:0:0:0:
287,69,29274,1,2,0:0:0:0:
287,69,29505,2,0,B|359:72|359:72|420:37,1,135,4|4,0:3|0:3,0:0:0:0:
495,210,30428,6,0,P|425:189|345:224,1,135,4|8,3:0|0:0,0:0:0:0:
299,276,31120,1,2,0:0:0:0:
204,280,31351,2,0,L|199:200,1,67.5,2|2,0:0|0:0,0:0:0:0:
161,183,31697,1,2,0:0:0:0:
161,183,31813,2,0,P|126:188|83:227,1,67.5,8|2,0:0|0:0,0:0:0:0:
16,249,32274,6,0,B|13:185|13:185|10:177|10:177|9:107,1,135,4|8,0:3|0:0,0:0:0:0:
68,40,32966,1,2,0:0:0:0:
162,34,33197,2,0,P|195:33|229:36,1,67.5,2|2,0:0|0:0,0:0:0:0:
272,56,33543,1,2,0:0:0:0:
272,56,33659,1,8,0:0:0:0:
363,32,33890,1,0,0:0:0:0:
436,91,34120,6,0,P|418:121|368:141,1,67.5,4|0,0:3|0:0,0:0:0:0:
436,220,34582,2,0,P|392:231|346:218,1,67.5,8|2,0:0|0:0,0:0:0:0:
325,312,35043,2,0,P|300:287|287:256,1,67.5,4|0,0:3|0:0,0:0:0:0:
264,165,35505,1,8,0:0:0:0:
194,228,35736,1,0,0:0:0:0:
194,228,35966,6,0,B|131:219|131:219|123:221|123:221|55:211,1,135,4|8,0:3|0:0,0:0:0:0:
4,134,36659,1,2,0:0:0:0:
49,51,36890,1,4,0:3:0:0:
129,99,37120,2,0,L|139:130,2,33.75,2|2|8,0:0|0:0|0:0,0:0:0:0:
199,35,37582,1,2,0:0:0:0:
199,35,37813,6,0,B|262:30|262:30|269:27|269:27|338:22,1,135,4|8,3:0|0:0,0:0:0:0:
427,32,38505,1,2,0:0:0:0:
484,109,38736,2,0,L|481:197,1,67.5,2|2,0:0|0:0,0:0:0:0:
462,219,39082,1,2,0:0:0:0:
462,219,39197,2,0,P|416:245|378:232,1,67.5,8|2,0:0|0:0,0:0:0:0:
314,211,39659,6,0,B|320:272|320:272|324:276|324:276|334:368,1,135,4|8,0:3|0:0,0:0:0:0:
240,318,40351,1,2,0:0:0:0:
148,342,40582,2,0,L|58:330,1,67.5,2|2,0:0|0:0,0:0:0:0:
47,299,40928,1,2,0:0:0:0:
47,299,41043,2,0,P|45:251|51:212,1,67.5,8|2,0:0|0:0,0:0:0:0:
34,137,41505,6,0,B|65:105|90:100,1,67.5,4|2,0:3|0:0,0:0:0:0:
162,39,41966,2,0,P|177:80|199:102,1,67.5,8|2,0:0|0:0,0:0:0:0:
271,149,42428,2,0,P|312:134|329:110,1,67.5,4|2,0:3|0:0,0:0:0:0:
382,39,42890,1,8,0:0:0:0:
455,99,43120,1,2,0:0:0:0:
455,99,43351,6,0,L|458:190,1,67.5,4|2,0:3|0:0,0:0:0:0:
405,253,43813,2,0,P|359:247|336:226,1,67.5,8|2,0:0|0:0,0:0:0:0:
265,181,44274,1,4,0:3:0:0:
170,174,44505,2,0,L|173:138,2,33.75,4|4|8,0:3|0:3|0:0,0:0:0:0:
124,257,44966,1,2,0:0:0:0:
124,257,45197,6,0,P|167:259|248:309,1,135,4|8,3:0|0:0,0:0:0:0:
324,343,45890,1,2,0:0:0:0:
387,282,46120,2,0,P|393:233|396:200,1,67.5,2|2,0:0|0:0,0:0:0:0:
306,213,46582,2,0,P|305:162|305:134,1,67.5,8|0,0:0|0:0,0:0:0:0:
244,81,47043,2,0,P|200:75|121:135,1,135,2|8,0:0|0:0,0:0:0:0:
59,179,47736,1,2,0:0:0:0:
59,179,47966,2,0,P|54:220|56:248,1,67.5,2|2,0:0|0:0,0:0:0:0:
127,297,48428,6,0,P|134:259|136:213,1,67.5,8|0,0:0|0:0,0:0:0:0:
203,176,48890,2,0,P|238:184|333:250,1,135,2|8,0:0|0:0,0:0:0:0:
356,316,49582,1,2,0:0:0:0:
427,265,49813,2,0,L|443:191,1,67.5,2|2,0:0|0:0,0:0:0:0:
361,161,50274,2,0,L|348:68,1,67.5,8|2,0:0|0:0,0:0:0:0:
287,34,50736,1,2,0:0:0:0:
217,86,50966,1,2,0:0:0:0:
129,90,51197,6,0,L|116:56,2,33.75,4|2|2,0:3|0:0|0:0,0:0:0:0:
74,159,51659,2,0,L|27:126,2,33.75,4|2|2,0:3|0:0|0:0,0:0:0:0:
45,241,52120,2,0,L|-3:243,2,33.75,4|2|4,0:3|0:0|0:3,0:0:0:0:
103,315,52582,5,4,0:0:0:0:
186,269,52813,1,2,0:0:0:0:
186,269,53043,2,0,P|202:223|204:186,1,67.5,8|2,0:0|0:0,0:0:0:0:
270,137,53505,1,2,0:0:0:0:
325,214,53736,1,2,0:0:0:0:
325,214,53966,2,0,P|374:215|415:219,1,67.5,8|2,0:0|0:0,0:0:0:0:
470,163,54428,5,2,0:0:0:0:
432,76,54659,1,2,0:0:0:0:
432,76,54890,2,0,L|350:80,1,67.5,8|2,0:0|0:0,0:0:0:0:
278,40,55351,1,2,0:0:0:0:
197,90,55582,1,2,0:0:0:0:
197,90,55813,6,0,P|152:81|119:71,1,67.5,8|2,0:0|0:0,0:0:0:0:
39,98,56274,1,2,0:0:0:0:
8,187,56505,1,2,0:0:0:0:
8,187,56736,2,0,L|9:259,1,67.5,8|2,0:0|0:0,0:0:0:0:
81,315,57197,1,2,0:0:0:0:
152,252,57428,1,2,0:0:0:0:
152,252,57659,2,0,L|242:268,1,67.5,8|2,0:0|0:0,0:0:0:0:
288,327,58120,5,2,0:0:0:0:
379,303,58351,1,2,0:0:0:0:
379,303,58582,2,0,L|399:209,1,67.5,8|2,0:0|0:0,0:0:0:0:
411,144,59043,1,2,0:3:0:0:
128,336,59966,6,0,B|288:360|229:273|431:343,1,303.750011587143,6|2,0:0|0:0,0:0:0:0:
482,222,61813,6,0,P|506:185|345:136,1,303.750011587143,2|10,0:0|0:0,0:0:0:0:
269,234,63659,6,0,P|137:225|175:99,1,303.750011587143,2|2,0:0|0:0,0:0:0:0:
294,41,65505,6,0,P|383:21|403:15,2,101.250003862381,2|10|2,0:0|0:0|0:0,0:0:0:0:
164,17,66890,1,10,0:0:0:0:
164,17,67351,6,0,B|154:86|183:113|183:113|179:182|130:204|97:206|97:206|91:235|101:271,1,303.750011587143,2|2,0:0|0:0,0:0:0:0:
203,347,69197,5,2,0:0:0:0:
310,270,69659,1,8,0:0:0:0:
425,332,70120,1,2,0:0:0:0:
485,215,70582,1,8,0:0:0:0:
485,215,71043,6,0,P|459:123|356:111,2,202.500007724762,2|2|2,0:0|0:0|0:0,0:0:0:0:
325,289,73351,2,0,P|297:309|254:326,2,67.5,2|2|2,0:0|0:0|0:0,0:0:0:0:
312,202,74043,1,2,0:0:0:0:
312,202,74274,2,0,P|317:164|329:131,1,67.5,2|0,0:0|0:0,0:0:0:0:
378,65,74736,6,0,P|324:25|259:36,1,135,4|10,3:0|0:0,0:0:0:0:
189,88,75428,1,2,0:0:0:0:
189,88,75543,1,2,0:0:0:0:
189,88,75659,2,0,B|174:155|174:155|121:201,1,135,2|10,0:0|0:0,0:0:0:0:
54,252,76351,1,2,0:0:0:0:
113,316,76582,6,0,L|193:311,1,67.5,4|4,0:3|0:3,0:0:0:0:
261,277,77043,1,10,0:0:0:0:
345,301,77274,1,2,0:0:0:0:
345,301,77390,1,2,0:0:0:0:
345,301,77505,2,0,P|367:253|380:166,1,135,2|8,0:0|0:0,0:0:0:0:
405,88,78197,1,2,0:0:0:0:
330,40,78428,6,0,B|260:36|260:36|197:60,1,135,4|8,0:3|0:0,0:0:0:0:
130,113,79120,1,2,0:0:0:0:
130,113,79236,1,2,0:0:0:0:
130,113,79351,2,0,P|96:170|107:243,1,135,2|8,0:0|0:0,0:0:0:0:
171,291,80043,1,2,0:0:0:0:
257,277,80274,6,0,P|293:300|385:338,2,135,4|8|4,0:3|0:0|0:3,0:0:0:0:
249,189,81428,1,2,0:0:0:0:
302,119,81659,2,0,L|371:149,1,67.5,4|2,0:3|0:0,0:0:0:0:
448,169,82120,6,0,P|440:73|433:16,1,135,4|8,3:0|0:0,0:0:0:0:
259,26,83043,2,0,P|251:93|246:160,1,135,8|8,0:0|0:0,0:0:0:0:
181,219,83736,1,2,0:0:0:0:
181,219,83851,1,2,0:0:0:0:
181,219,83966,6,0,P|119:220|29:250,1,135,8|8,0:0|0:0,0:0:0:0:
71,325,84659,1,2,0:0:0:0:
71,325,84774,1,2,0:0:0:0:
71,325,84890,2,0,P|137:325|213:304,1,135,8|8,0:0|0:0,0:0:0:0:
268,248,85582,1,2,0:0:0:0:
268,248,85697,1,2,0:0:0:0:
268,248,85813,6,0,P|285:182|299:116,1,135,8|8,0:0|0:0,0:0:0:0:
451,30,86736,2,0,P|465:96|482:161,1,135,8|8,0:0|0:0,0:0:0:0:
373,299,87659,1,12,0:0:0:0:
483,251,89505,6,0,P|447:296|363:293,1,135,4|8,0:3|0:0,0:0:0:0:
322,227,90197,1,2,0:0:0:0:
234,236,90428,2,0,P|219:262|212:307,1,67.5,2|2,0:0|0:0,0:0:0:0:
195,339,90774,1,2,0:0:0:0:
195,339,90889,2,0,P|158:343|113:325,1,67.5,8|2,0:0|0:0,0:0:0:0:
56,284,91351,6,0,B|59:220|59:220|57:213|57:213|60:149,1,135,2|8,0:0|0:0,0:0:0:0:
85,65,92043,1,2,0:0:0:0:
165,29,92274,2,0,B|200:35|246:52,1,67.5,2|2,0:0|0:0,0:0:0:0:
258,80,92620,1,2,0:0:0:0:
258,80,92736,1,8,0:0:0:0:
338,44,92966,1,2,0:0:0:0:
408,96,93197,6,0,P|379:142|357:158,1,67.5,4|2,0:3|0:0,0:0:0:0:
448,190,93659,2,0,P|413:220|368:231,1,67.5,8|2,0:0|0:0,0:0:0:0:
439,303,94120,2,0,P|368:316|309:265,1,135,4|8,0:3|0:0,0:0:0:0:
264,213,94812,1,2,0:0:0:0:
182,244,95043,2,0,L|181:337,1,67.5,4|2,0:3|0:0,0:0:0:0:
96,334,95505,2,0,L|95:266,1,67.5,8|2,0:0|0:0,0:0:0:0:
41,197,95966,5,4,0:3:0:0:
66,112,96197,2,0,L|27:73,2,33.75,2|2|8,0:0|0:0|0:0,0:0:0:0:
149,140,96659,1,2,0:0:0:0:
149,140,96890,6,0,B|210:126|210:126|217:121|217:121|279:107,1,135,4|8,0:3|0:0,0:0:0:0:
351,57,97582,1,2,0:0:0:0:
427,99,97812,2,0,P|420:133|420:173,1,67.5,2|2,0:0|0:0,0:0:0:0:
442,203,98159,1,2,0:0:0:0:
442,203,98274,2,0,P|443:250|433:296,1,67.5,8|2,0:0|0:0,0:0:0:0:
383,338,98736,6,0,B|323:318|323:318|314:318|314:318|254:298,1,135,4|8,0:3|0:0,0:0:0:0:
173,332,99428,1,2,0:0:0:0:
91,298,99659,2,0,P|85:259|83:228,1,67.5,2|2,0:0|0:0,0:0:0:0:
106,193,100005,1,2,0:0:0:0:
106,193,100120,1,8,0:0:0:0:
59,118,100351,1,2,0:0:0:0:
123,57,100582,6,0,P|155:85|171:137,1,67.5,4|2,0:3|0:0,0:0:0:0:
244,67,101043,2,0,P|255:106|248:144,1,67.5,8|2,0:0|0:0,0:0:0:0:
340,135,101505,2,0,P|316:196|229:213,1,135,4|8,0:3|0:0,0:0:0:0:
197,285,102197,1,2,0:0:0:0:
266,338,102428,6,0,P|303:337|343:326,1,67.5,4|2,0:3|0:0,0:0:0:0:
393,266,102889,1,8,0:0:0:0:
467,313,103120,1,2,0:0:0:0:
499,231,103351,2,0,B|503:162|503:162|470:104,1,135,4|4,0:3|0:3,0:0:0:0:
293,37,104274,6,0,B|229:41|229:41|222:44|222:44|159:48,1,135,4|8,3:0|0:0,0:0:0:0:
70,80,104966,1,2,0:0:0:0:
42,170,105197,2,0,P|45:203|52:236,1,67.5,2|2,0:0|0:0,0:0:0:0:
69,281,105543,1,2,0:0:0:0:
69,281,105659,2,0,P|100:291|154:293,1,67.5,8|2,0:0|0:0,0:0:0:0:
215,245,106120,6,0,P|254:191|246:125,1,135,4|8,0:3|0:0,0:0:0:0:
276,36,106812,1,2,0:0:0:0:
363,70,107043,2,0,L|440:77,1,67.5,2|2,0:0|0:0,0:0:0:0:
477,81,107390,1,2,0:0:0:0:
477,81,107505,1,8,0:0:0:0:
507,170,107736,1,0,0:0:0:0:
453,247,107966,6,0,P|414:246|373:221,1,67.5,4|0,0:3|0:0,0:0:0:0:
346,321,108428,2,0,P|314:293|301:270,1,67.5,8|2,0:0|0:0,0:0:0:0:
220,320,108890,2,0,P|211:279|217:244,1,67.5,4|0,0:3|0:0,0:0:0:0:
134,203,109351,1,8,0:0:0:0:
45,235,109582,1,0,0:0:0:0:
45,235,109813,6,0,B|45:171|45:171|42:164|42:164|42:100,1,135,4|8,0:3|0:0,0:0:0:0:
104,29,110505,1,2,0:0:0:0:
170,96,110736,1,4,0:3:0:0:
255,56,110966,2,0,L|259:22,2,33.75,2|2|8,0:0|0:0|0:0,0:0:0:0:
323,123,111428,1,2,0:0:0:0:
323,123,111659,6,0,B|386:126|386:126|393:124|393:124|457:127,1,135,4|8,3:0|0:0,0:0:0:0:
501,210,112351,1,2,0:0:0:0:
442,284,112582,2,0,P|407:284|361:273,1,67.5,2|2,0:0|0:0,0:0:0:0:
341,244,112928,1,2,0:0:0:0:
341,244,113043,2,0,P|324:273|317:305,1,67.5,8|2,0:0|0:0,0:0:0:0:
231,347,113505,6,0,B|168:337|168:337|160:339|160:339|97:330,1,135,4|8,0:3|0:0,0:0:0:0:
4,343,114197,1,2,0:0:0:0:
4,248,114428,2,0,L|0:180,1,67.5,2|2,0:0|0:0,0:0:0:0:
23,139,114774,1,2,0:0:0:0:
23,139,114889,2,0,P|57:135|110:143,1,67.5,8|2,0:0|0:0,0:0:0:0:
168,84,115351,6,0,B|199:114|207:149,1,67.5,4|2,0:3|0:0,0:0:0:0:
285,188,115812,2,0,P|290:155|312:129,1,67.5,8|2,0:0|0:0,0:0:0:0:
403,102,116274,2,0,P|427:124|439:164,1,67.5,4|2,0:3|0:0,0:0:0:0:
434,251,116736,1,8,0:0:0:0:
363,313,116966,1,2,0:0:0:0:
363,313,117197,6,0,P|329:320|285:349,1,67.5,4|2,0:3|0:0,0:0:0:0:
205,342,117659,2,0,P|193:310|184:247,1,67.5,8|2,0:0|0:0,0:0:0:0:
102,232,118120,1,4,0:3:0:0:
64,145,118351,2,0,L|18:142,2,33.75,4|4|8,0:3|0:3|0:0,0:0:0:0:
128,75,118813,1,2,0:0:0:0:
128,75,119043,6,0,P|190:47|259:69,1,135,4|8,3:0|0:0,0:0:0:0:
319,121,119736,1,2,0:0:0:0:
390,70,119966,2,0,P|394:33|398:-4,1,67.5,2|2,0:0|0:0,0:0:0:0:
475,43,120428,2,0,L|468:112,1,67.5,8|0,0:0|0:0,0:0:0:0:
499,193,120890,6,0,P|498:241|408:268,1,135,2|8,0:0|0:0,0:0:0:0:
353,227,121582,1,2,0:0:0:0:
283,280,121813,2,0,P|218:303|198:304,1,67.5,2|2,0:0|0:0,0:0:0:0:
146,254,122274,2,0,P|172:233|204:222,1,67.5,8|0,0:0|0:0,0:0:0:0:
276,172,122736,6,0,P|285:108|268:28,1,135,2|8,0:0|0:0,0:0:0:0:
188,14,123428,1,2,0:0:0:0:
125,75,123659,2,0,L|128:149,1,67.5,2|2,0:0|0:0,0:0:0:0:
41,156,124120,2,0,L|52:231,1,67.5,8|2,0:0|0:0,0:0:0:0:
104,292,124582,5,2,0:0:0:0:
183,254,124812,1,2,0:0:0:0:
262,291,125043,2,0,L|313:309,2,33.75,4|2|2,0:3|0:0|0:0,0:0:0:0:
322,226,125505,2,0,L|371:250,2,33.75,4|2|2,0:3|0:0|0:0,0:0:0:0:
388,168,125966,2,0,L|430:205,2,33.75,4|2|4,0:3|0:0|0:3,0:0:0:0:
366,75,126428,5,4,0:0:0:0:
288,27,126659,1,2,0:0:0:0:
213,85,126890,2,0,P|155:88|126:82,1,67.5,8|2,0:0|0:0,0:0:0:0:
70,29,127351,1,2,0:0:0:0:
29,114,127582,1,2,0:0:0:0:
31,208,127813,2,0,P|40:246|52:280,1,67.5,8|2,0:0|0:0,0:0:0:0:
101,351,128274,5,2,0:0:0:0:
158,276,128505,1,2,0:0:0:0:
235,330,128736,2,0,P|277:335|302:338,1,67.5,8|2,0:0|0:0,0:0:0:0:
379,284,129197,1,2,0:0:0:0:
467,318,129428,1,2,0:0:0:0:
492,227,129659,2,0,P|488:188|483:147,1,67.5,8|2,0:0|0:0,0:0:0:0:
429,82,130120,5,2,0:0:0:0:
357,144,130351,1,2,0:0:0:0:
290,76,130582,2,0,L|212:62,1,67.5,8|2,0:0|0:0,0:0:0:0:
153,127,131043,1,2,0:0:0:0:
82,64,131274,1,2,0:0:0:0:
28,142,131505,2,0,P|33:184|35:223,1,67.5,8|2,0:0|0:0,0:0:0:0:
64,299,131966,5,2,0:0:0:0:
158,307,132197,1,2,0:0:0:0:
229,244,132428,2,0,P|266:257|298:283,1,67.5,8|2,0:0|0:0,0:0:0:0:
346,348,132889,1,2,0:3:0:0:
256,192,133005,12,6,137505,3:0:0:0:
