osu file format v14

[General]
AudioFilename: audio.mp3
AudioLeadIn: 0
PreviewTime: -1
Countdown: 1
SampleSet: Soft
StackLeniency: 0.7
Mode: 0
LetterboxInBreaks: 0
WidescreenStoryboard: 1

[Editor]
DistanceSpacing: 0.8
BeatDivisor: 4
GridSize: 16
TimelineZoom: 2.5

[Metadata]
Title:Harajuku Iyahoi
TitleUnicode:原宿いやほい
Artist:Kyary Pamyu Pamyu
ArtistUnicode:きゃりーぱみゅぱみゅ
Creator:My Angel Kitten
Version:Insane
Source:きゃりーぱみゅぱみゅ / 原宿いやほい KYARY PAMYU PAMYU / HARAJUKU IYAHOI
Tags:O-Moei My Angel Izumi Kyary Pamyu Pamy Harajuku Iyahoi Iyahoi!!
BeatmapID:1301788
BeatmapSetID:606732

[Difficulty]
HPDrainRate:6
CircleSize:4
OverallDifficulty:7
ApproachRate:8
SliderMultiplier:1.4
SliderTickRate:1

[Events]
//Background and Video events
0,0,"background.jpg",0,0
//Break Periods
//Storyboard Layer 0 (Background)
//Storyboard Layer 1 (Fail)
//Storyboard Layer 2 (Pass)
//Storyboard Layer 3 (Foreground)
//Storyboard Sound Samples

[TimingPoints]
586,468.75,4,2,1,50,1,0
15586,-133.333333333333,4,2,1,70,0,0
23086,-100,4,2,1,70,0,0
42071,-66.6666666666667,4,2,1,70,0,0
43477,-100,4,2,1,70,0,0
75586,-100,4,2,1,70,0,1
88711,-100,4,2,1,70,0,0
90586,-100,4,2,1,70,0,1
103711,-100,4,2,1,70,0,0
105586,-100,4,2,1,70,0,1
120586,-100,4,2,1,70,0,0
122929,-100,4,2,1,5,0,0

[HitObjects]
48,128,586,5,2,0:1:0:0:
128,256,821,1,0,0:0:0:0:
224,128,1055,1,2,0:1:0:0:
320,256,1289,5,0,0:0:0:0:
320,256,1407,1,0,0:0:0:0:
320,256,1524,1,2,0:1:0:0:
224,128,1758,1,2,0:1:0:0:
128,256,1993,1,2,0:1:0:0:
224,128,2227,1,2,0:1:0:0:
320,272,2461,1,2,0:1:0:0:
224,160,2696,1,0,0:0:0:0:
128,288,2930,1,2,0:1:0:0:
320,160,3164,5,0,0:0:0:0:
320,160,3282,1,0,0:0:0:0:
320,160,3399,1,2,0:1:0:0:
224,320,3633,1,2,0:1:0:0:
416,272,3868,1,2,0:1:0:0:
416,272,3985,1,2,0:1:0:0:
416,272,4102,1,2,0:1:0:0:
288,208,4336,5,2,0:1:0:0:
288,80,4571,1,0,0:0:0:0:
416,80,4805,1,2,0:1:0:0:
160,80,5039,1,0,0:0:0:0:
160,80,5157,1,0,0:0:0:0:
160,80,5274,2,0,B|144:112|144:128|160:144,2,70,2|2|2,0:1|0:1|0:1,0:0:0:0:
240,208,5977,5,2,0:1:0:0:
320,64,6211,1,2,0:1:0:0:
400,192,6446,1,0,0:0:0:0:
256,192,6680,1,2,0:1:0:0:
384,272,6914,5,0,0:0:0:0:
384,272,7032,1,0,0:0:0:0:
384,272,7149,2,0,L|384:352,2,70,2|2|2,0:1|0:1|0:1,0:0:0:0:
368,112,7852,1,2,0:1:0:0:
256,16,8086,1,10,0:1:0:0:
160,112,8321,1,0,0:0:0:0:
256,208,8555,1,10,0:1:0:0:
368,272,8789,5,0,0:0:0:0:
368,272,8907,1,0,0:0:0:0:
368,272,9024,2,0,L|448:272,2,70,10|2|10,0:1|0:1|0:1,0:0:0:0:
368,80,9727,5,0,0:0:0:0:
448,272,9961,1,0,0:0:0:0:
256,176,10196,1,0,0:0:0:0:
288,352,10430,1,0,0:0:0:0:
176,272,10664,1,0,0:0:0:0:
176,272,10782,1,0,0:0:0:0:
176,272,10899,1,0,0:0:0:0:
304,160,11133,5,2,0:1:0:0:
112,160,11368,1,10,0:1:0:0:
112,160,11485,1,2,0:1:0:0:
112,160,11602,1,2,0:1:0:0:
224,144,11836,2,0,B|256:128|272:112|272:112|320:144,1,105,10|0,1:1|0:0,0:0:0:0:
320,144,12305,2,0,B|368:144|368:144|400:192,1,105,10|0,0:1|0:0,0:0:0:0:
416,224,12774,6,0,L|416:304,2,70,10|0|10,1:1|0:0|0:1,0:0:0:0:
256,96,13477,1,0,0:0:0:0:
400,192,13711,1,10,1:1:0:0:
192,256,14180,1,2,0:2:0:0:
384,112,14532,1,2,0:2:0:0:
384,112,14649,1,2,0:2:0:0:
256,304,14883,1,2,1:2:0:0:
64,192,15118,1,2,0:1:0:0:
192,32,15352,1,2,0:1:0:0:
352,192,15586,6,0,B|240:192|240:192|208:160,1,157.500006008148
176,32,16524,1,0,3:0:0:0:
368,112,16758,1,0,3:0:0:0:
192,224,16993,1,0,3:0:0:0:
320,160,17227,1,0,3:0:0:0:
368,368,17461,2,0,P|256:336|240:304,1,157.500006008148,0|0,3:0|3:0,0:0:0:0:
128,240,18399,1,0,3:0:0:0:
224,112,18633,5,0,0:0:0:0:
224,208,18868,1,0,0:0:0:0:
320,112,19102,1,0,0:0:0:0:
320,208,19336,1,0,3:0:0:0:
144,64,19571,1,0,0:0:0:0:
144,256,19805,1,0,3:0:0:0:
336,64,20039,1,0,0:0:0:0:
336,272,20274,1,0,3:0:0:0:
240,64,20508,1,0,3:0:0:0:
240,304,20743,1,0,3:0:0:0:
144,256,20977,5,0,3:0:0:0:
144,144,21211,2,0,B|176:112|208:144|208:144|256:112|320:144|336:176,1,210.000008010865,0|0,3:0|0:0,0:0:0:0:
384,224,22383,1,0,0:0:0:0:
240,304,22618,5,0,3:0:0:0:
384,304,22852,1,0,3:0:0:0:
240,224,23086,1,0,1:0:0:0:
384,224,23321,1,0,0:0:0:0:
240,144,23555,1,0,1:0:0:0:
384,144,23789,1,0,0:0:0:0:
240,80,24024,1,0,1:0:0:0:
384,80,24258,1,0,3:0:0:0:
282,85,24493,6,0,B|250:85|250:85|224:112,1,70,0|0,1:0|3:0,0:0:0:0:
400,304,24961,2,0,L|336:256,1,70,0|0,1:0|3:0,0:0:0:0:
112,80,25430,2,0,L|192:144,1,70,0|0,1:0|0:0,0:0:0:0:
128,304,25899,2,0,L|208:240,1,70,0|0,1:0|0:0,0:0:0:0:
384,80,26368,2,0,L|320:144,1,70,0|0,1:0|0:0,0:0:0:0:
217,303,26836,2,0,P|338:240|384:112,1,280,0|0,1:0|1:0,0:0:0:0:
112,144,28008,5,0,0:0:0:0:
240,304,28243,1,0,1:0:0:0:
240,112,28477,1,0,3:0:0:0:
384,272,28711,2,0,L|384:192,2,70,0|0|0,1:0|3:0|1:0,0:0:0:0:
256,272,29414,1,0,3:0:0:0:
128,208,29648,2,0,P|96:160|112:128,1,70
192,80,30118,2,0,P|272:80|336:80,2,140,0|2|10,1:0|1:1|1:0,0:0:0:0:
352,256,31289,5,0,0:0:0:0:
256,160,31524,1,0,1:0:0:0:
176,64,31758,1,0,3:0:0:0:
176,64,31993,1,2,1:3:0:0:
304,64,32227,1,0,3:0:0:0:
320,176,32461,2,0,B|256:176|256:192|256:192|224:160|224:160|128:176,1,210,0|2,1:0|0:1,0:0:0:0:
48,192,33399,1,2,1:1:0:0:
176,320,33633,5,0,0:0:0:0:
176,320,33868,1,2,1:3:0:0:
272,192,34102,1,0,0:0:0:0:
160,64,34336,2,0,P|192:80|192:112,1,70,0|0,1:0|0:0,0:0:0:0:
320,320,34805,2,0,B|352:320|368:288|368:272,1,70,2|0,1:3|0:0,0:0:0:0:
176,288,35274,5,0,1:0:0:0:
352,96,35508,1,0,3:0:0:0:
176,144,35743,1,2,1:3:0:0:
288,144,35977,1,0,3:0:0:0:
144,64,36211,2,0,B|64:64|64:64|64:208|64:208|128:208,1,280
432,128,37618,5,2,1:3:0:0:
432,128,37852,1,0,1:0:0:0:
224,48,38086,2,0,P|144:96|224:224,1,280,0|0,1:0|1:0,0:0:0:0:
304,128,39258,5,0,3:0:0:0:
224,304,39493,1,2,1:3:0:0:
384,256,39727,1,0,0:0:0:0:
336,80,39961,1,0,1:0:0:0:
176,128,40196,1,0,3:0:0:0:
336,160,40430,2,0,B|304:192|192:192|256:272|256:272|144:352,1,280,2|2,1:3|1:3,0:0:0:0:
96,256,41602,5,0,0:0:0:0:
32,128,41836,1,4,1:2:0:0:
144,32,42071,2,0,B|208:32|208:32|208:64|208:64|240:64|240:64|240:96|240:96|272:96|272:96|272:128|272:128|304:128|304:128|304:160|304:160|336:160|336:160|336:192|336:192|368:192|368:192|368:224|368:224|384:224|384:224|400:224|400:224|400:256|400:256|448:256,1,525.000020027161
448,112,43477,1,2,0:1:0:0:
448,112,43711,1,2,1:1:0:0:
304,192,43946,1,2,0:1:0:0:
160,272,44180,1,2,1:1:0:0:
160,112,44649,1,2,1:1:0:0:
256,192,44883,5,0,0:0:0:0:
256,192,45000,1,0,0:0:0:0:
256,192,45118,1,4,1:2:0:0:
256,64,45352,1,0,0:0:0:0:
352,192,45586,5,4,1:1:0:0:
160,192,46055,1,4,1:2:0:0:
272,96,46524,1,4,1:2:0:0:
128,208,46993,2,0,P|144:256|160:256,1,70,4|0,1:2|0:0,0:0:0:0:
304,272,47461,1,4,1:1:0:0:
304,112,47930,1,4,1:2:0:0:
304,96,48399,1,4,1:2:0:0:
192,96,48868,6,0,L|144:128,1,70,4|0,1:2|0:0,0:0:0:0:
160,352,49336,2,0,L|224:304,1,70,4|0,1:1|0:0,0:0:0:0:
112,80,49805,2,0,L|176:128,1,70,4|0,1:2|0:0,0:0:0:0:
432,288,50274,2,0,L|368:240,1,70,4|0,1:2|0:0,0:0:0:0:
336,96,50743,2,0,L|288:160,1,70,4|0,1:2|0:0,0:0:0:0:
96,320,51211,2,0,L|160:288,1,70,6|0,1:1|0:0,0:0:0:0:
352,208,51680,5,12,1:2:0:0:
256,64,51914,1,2,0:1:0:0:
144,240,52149,1,4,1:2:0:0:
256,48,52383,1,2,0:1:0:0:
352,272,52618,1,4,1:2:0:0:
176,144,52852,5,2,0:1:0:0:
176,144,52969,1,0,0:0:0:0:
176,144,53086,1,4,1:1:0:0:
176,256,53555,1,4,1:2:0:0:
304,256,54024,1,4,1:2:0:0:
416,176,54493,2,0,L|368:112,1,70,4|0,1:2|0:0,0:0:0:0:
208,48,54961,5,4,1:1:0:0:
112,144,55430,1,4,1:2:0:0:
224,144,55899,2,0,L|288:192,2,70,4|0|4,1:2|0:0|1:2,0:0:0:0:
224,64,56602,1,0,0:0:0:0:
304,64,56836,2,0,L|304:144,1,70,4|0,1:1|0:0,0:0:0:0:
304,256,57305,1,4,1:2:0:0:
224,256,57774,2,0,L|144:256,3,70,4|0|4|0,1:2|0:0|1:2|0:0,0:0:0:0:
144,128,58711,1,0,0:0:0:0:
320,128,59180,5,4,1:2:0:0:
192,128,59414,1,0,0:0:0:0:
368,256,59649,1,4,1:2:0:0:
160,256,59883,1,0,0:0:0:0:
320,80,60118,1,4,1:2:0:0:
256,320,60352,1,2,0:1:0:0:
256,208,60586,2,0,L|256:128,1,70,4|0,1:1|0:0,0:0:0:0:
256,32,61055,5,4,1:2:0:0:
144,192,61289,1,0,0:0:0:0:
368,128,61524,1,4,1:2:0:0:
224,272,61758,1,0,0:0:0:0:
464,288,61993,1,4,1:2:0:0:
256,192,62227,1,0,0:0:0:0:
448,128,62461,5,4,1:1:0:0:
320,32,62696,1,0,0:0:0:0:
256,224,62930,1,4,1:2:0:0:
176,32,63164,1,0,0:0:0:0:
112,144,63399,1,4,1:2:0:0:
272,64,63633,1,0,0:0:0:0:
368,192,63868,2,0,P|240:256|128:192,1,280,4|4,1:2|1:2,0:0:0:0:
224,160,65039,1,0,0:0:0:0:
128,64,65274,1,4,1:2:0:0:
272,112,65508,6,0,L|352:112,2,70,0|4|0,0:0|1:2|0:0,0:0:0:0:
160,112,66211,1,4,1:1:0:0:
256,272,66446,1,0,0:0:0:0:
384,128,66680,1,4,1:2:0:0:
224,176,66914,1,0,0:0:0:0:
272,16,67149,1,4,1:2:0:0:
336,160,67383,1,0,0:0:0:0:
160,208,67618,2,0,P|208:256|400:208,1,280,4|4,1:2|1:2,0:0:0:0:
336,128,68789,1,0,0:0:0:0:
400,0,69024,5,4,1:2:0:0:
224,32,69258,1,0,0:0:0:0:
272,160,69493,1,4,1:2:0:0:
160,64,69727,1,0,0:0:0:0:
208,192,69961,1,4,1:1:0:0:
96,96,70196,1,0,0:0:0:0:
160,240,70430,5,4,1:2:0:0:
32,128,70664,1,0,0:0:0:0:
224,240,70899,1,4,1:2:0:0:
112,368,71133,1,0,0:0:0:0:
80,208,71368,1,4,1:2:0:0:
192,80,71602,1,8,0:2:0:0:
192,80,71719,1,8,0:2:0:0:
192,80,71836,1,12,1:2:0:0:
352,112,72071,5,12,0:2:0:0:
336,256,72305,2,0,L|384:256,2,35,8|12|8,0:2|0:2|0:2,0:0:0:0:
240,336,72774,1,12,0:2:0:0:
144,176,73008,1,8,0:2:0:0:
320,128,73243,1,12,0:2:0:0:
320,128,73360,1,8,0:2:0:0:
320,128,73477,1,8,0:2:0:0:
400,208,73711,6,0,P|336:288|304:272,2,140,2|2|2,2:2|2:2|2:2,0:0:0:0:
352,144,74883,1,0,1:0:0:0:
176,208,75118,1,12,0:1:0:0:
224,48,75586,5,6,0:1:0:0:
320,240,75821,1,0,0:0:0:0:
144,128,76055,1,0,0:0:0:0:
304,160,76289,1,0,0:0:0:0:
304,160,76407,1,0,0:0:0:0:
304,160,76524,1,0,0:0:0:0:
384,16,76758,5,2,0:1:0:0:
496,144,76993,1,10,1:1:0:0:
304,192,77227,1,2,0:1:0:0:
496,288,77461,1,2,1:1:0:0:
320,128,77696,1,0,0:0:0:0:
480,64,77930,1,10,1:1:0:0:
400,192,78164,5,0,0:0:0:0:
400,192,78282,1,0,0:0:0:0:
400,192,78399,1,2,1:1:0:0:
288,64,78633,1,2,0:1:0:0:
288,240,78868,1,10,1:1:0:0:
288,240,78985,1,2,0:1:0:0:
288,240,79102,1,2,0:1:0:0:
176,64,79336,2,0,L|256:64,2,70,2|0|10,1:1|0:0|1:1,0:0:0:0:
112,208,80039,5,0,0:0:0:0:
112,208,80157,1,0,0:0:0:0:
112,208,80274,1,0,0:0:0:0:
240,336,80508,1,2,0:1:0:0:
352,272,80743,1,0,0:0:0:0:
256,48,80977,5,2,3:1:0:0:
176,272,81211,1,0,0:0:0:0:
368,144,81446,1,0,3:0:0:0:
144,144,81680,1,0,0:0:0:0:
352,272,81914,1,0,3:0:0:0:
368,256,82032,1,0,0:0:0:0:
384,240,82149,1,0,0:0:0:0:
256,48,82383,1,2,0:1:0:0:
176,272,82618,1,0,0:0:0:0:
240,208,83086,5,0,0:0:0:0:
112,48,83321,1,0,0:0:0:0:
352,16,83555,1,0,0:0:0:0:
272,224,83789,1,0,0:0:0:0:
272,224,83907,1,0,0:0:0:0:
272,224,84024,1,0,0:0:0:0:
368,80,84258,5,0,0:0:0:0:
368,80,84493,1,0,0:0:0:0:
208,256,84727,1,0,0:0:0:0:
400,192,84961,1,0,0:0:0:0:
240,48,85196,1,0,0:0:0:0:
464,64,85430,1,0,0:0:0:0:
371,224,85664,6,0,L|336:224,2,35,0|0|0,0:0|0:0|0:0,0:0:0:0:
176,160,86133,1,0,0:0:0:0:
304,48,86368,1,0,0:0:0:0:
304,48,86485,1,0,0:0:0:0:
304,48,86602,1,0,0:0:0:0:
416,208,86836,1,0,0:0:0:0:
448,16,87071,1,0,0:0:0:0:
288,96,87305,5,0,0:0:0:0:
224,192,87539,1,0,0:0:0:0:
224,192,87657,1,0,0:0:0:0:
224,192,87774,1,0,0:0:0:0:
128,32,88008,1,0,0:0:0:0:
160,256,88243,5,0,0:0:0:0:
368,160,88477,1,2,3:1:0:0:
160,96,88711,1,4,0:2:0:0:
400,192,88946,1,0,3:0:0:0:
176,304,89180,1,8,1:0:0:0:
176,96,89414,1,0,3:0:0:0:
304,304,89649,1,0,1:0:0:0:
112,160,89883,1,0,3:0:0:0:
368,192,90118,1,12,0:0:0:0:
208,112,90352,1,0,0:0:0:0:
400,80,90586,5,6,1:1:0:0:
192,208,90821,1,0,0:0:0:0:
400,320,91055,1,10,1:0:0:0:
320,192,91289,1,0,0:0:0:0:
320,192,91407,1,0,0:0:0:0:
320,192,91524,1,0,0:0:0:0:
416,96,91758,5,0,0:0:0:0:
448,272,91993,1,0,0:0:0:0:
496,96,92227,1,0,0:0:0:0:
272,144,92461,1,0,0:0:0:0:
368,336,92696,1,0,0:0:0:0:
160,240,92930,1,0,0:0:0:0:
288,160,93164,5,0,0:0:0:0:
288,160,93282,1,0,0:0:0:0:
288,160,93399,1,0,0:0:0:0:
448,240,93633,1,0,0:0:0:0:
304,320,93868,1,0,0:0:0:0:
304,320,93985,1,0,0:0:0:0:
304,320,94102,1,0,0:0:0:0:
160,240,94336,1,0,0:0:0:0:
240,144,94571,5,0,0:0:0:0:
32,80,94805,1,0,0:0:0:0:
83,226,95039,2,0,L|64:256,2,35
288,96,95508,1,0,0:0:0:0:
192,176,95743,1,0,0:0:0:0:
336,272,95977,1,0,0:0:0:0:
176,288,96211,5,6,1:2:0:0:
336,144,96446,1,0,0:0:0:0:
224,256,96680,1,10,1:1:0:0:
256,64,96914,1,2,0:1:0:0:
336,304,97149,1,2,1:1:0:0:
352,128,97383,1,2,0:1:0:0:
224,288,97618,1,10,1:1:0:0:
80,176,97852,1,2,0:1:0:0:
192,32,98086,5,6,1:1:0:0:
352,128,98321,1,0,0:0:0:0:
240,288,98555,2,0,L|320:288,1,70,10|0,1:1|0:0,0:0:0:0:
368,288,98907,1,0,0:0:0:0:
416,256,99024,2,0,L|464:192,1,70,2|2,1:0|0:1,0:0:0:0:
288,144,99493,2,0,P|336:96|352:80,1,70,10|0,1:0|0:0,0:0:0:0:
240,32,99961,2,0,L|192:96,1,70,14|0,0:0|0:0,0:0:0:0:
256,160,100430,6,0,L|208:224,1,70,10|0,1:0|0:0,0:0:0:0:
192,240,100782,1,0,0:0:0:0:
176,272,100899,2,0,L|128:336,1,70,2|2,1:1|0:1,0:0:0:0:
64,224,101368,1,10,0:1:0:0:
64,224,101485,1,0,0:0:0:0:
64,224,101602,1,0,0:0:0:0:
256,304,101836,6,0,L|320:256,1,70,2|0,1:0|0:0,0:0:0:0:
288,64,102305,2,0,L|208:96,1,70,10|0,1:0|0:0,0:0:0:0:
192,112,102657,1,0,0:0:0:0:
208,160,102774,2,0,L|272:128,1,70,2|2,1:0|0:1,0:0:0:0:
368,224,103243,2,0,L|304:272,1,70,10|0,1:0|0:0,0:0:0:0:
400,336,103711,6,0,L|464:288,1,70,2|0,3:3|0:0,0:0:0:0:
384,160,104180,1,2,3:1:0:0:
256,288,104414,1,2,0:1:0:0:
368,224,104649,1,4,1:2:0:0:
176,240,104883,1,4,1:2:0:0:
400,96,105118,1,4,1:2:0:0:
192,48,105586,5,6,1:0:0:0:
416,96,105821,1,0,0:0:0:0:
192,160,106055,1,14,1:0:0:0:
416,224,106289,1,0,0:0:0:0:
416,224,106407,1,0,0:0:0:0:
416,224,106524,1,6,1:0:0:0:
288,384,106758,1,2,0:1:0:0:
160,224,106993,1,14,1:0:0:0:
416,224,107227,1,2,0:1:0:0:
256,64,107461,5,6,1:0:0:0:
384,256,107696,1,0,0:0:0:0:
128,256,107930,1,14,1:0:0:0:
352,112,108164,1,0,0:0:0:0:
352,112,108282,1,0,0:0:0:0:
352,112,108399,1,6,1:0:0:0:
128,16,108633,1,2,0:1:0:0:
256,224,108868,1,14,1:1:0:0:
256,224,108985,1,2,0:1:0:0:
256,224,109102,1,2,0:1:0:0:
480,320,109336,5,0,0:0:0:0:
416,96,109571,1,0,0:0:0:0:
304,96,109805,1,0,0:0:0:0:
224,192,110039,1,0,0:0:0:0:
224,192,110157,1,0,0:0:0:0:
224,192,110274,1,0,0:0:0:0:
32,48,110508,1,2,0:1:0:0:
272,144,110743,1,0,0:0:0:0:
96,0,110977,1,2,0:1:0:0:
320,96,111211,1,0,0:0:0:0:
96,192,111446,1,0,0:0:0:0:
288,272,111680,5,0,0:0:0:0:
224,112,111914,2,0,L|256:96,2,35,0|0|0,0:0|0:0|0:0,0:0:0:0:
48,32,112383,1,2,0:1:0:0:
128,176,112618,1,0,0:0:0:0:
272,272,112852,1,2,0:1:0:0:
64,320,113086,1,6,1:1:0:0:
192,80,113321,1,0,0:0:0:0:
384,272,113555,1,14,1:1:0:0:
384,48,113789,5,0,0:0:0:0:
176,96,114024,1,6,1:1:0:0:
160,304,114258,1,2,0:1:0:0:
256,80,114493,1,14,1:1:0:0:
352,304,114727,1,2,0:1:0:0:
112,176,114961,1,6,1:1:0:0:
400,176,115196,1,0,0:0:0:0:
208,320,115430,1,14,1:1:0:0:
320,96,115664,1,0,0:0:0:0:
320,96,115782,1,0,0:0:0:0:
320,96,115899,1,6,1:1:0:0:
512,240,116133,5,2,0:1:0:0:
336,368,116368,1,14,1:1:0:0:
336,368,116485,1,2,0:1:0:0:
336,368,116602,1,2,0:1:0:0:
176,320,116836,1,6,1:1:0:0:
304,160,117071,1,0,0:0:0:0:
128,272,117305,1,14,1:1:0:0:
336,224,117539,1,0,0:0:0:0:
336,224,117657,1,0,0:0:0:0:
336,224,117774,1,6,1:1:0:0:
112,208,118008,5,2,0:1:0:0:
272,32,118243,1,0,0:0:0:0:
144,256,118477,1,2,0:1:0:0:
208,48,118711,1,0,0:0:0:0:
192,288,118946,1,0,3:0:0:0:
112,96,119180,1,0,0:0:0:0:
256,16,119414,1,0,3:0:0:0:
400,128,119649,6,0,L|352:192,1,70,0|2,3:0|3:1,0:0:0:0:
272,288,120118,1,12,0:1:0:0:
256,176,120352,1,0,0:0:0:0:
144,128,120586,1,6,0:1:0:0:
256,192,120821,12,0,122930,2:0:0:0:
