osu file format v14

[General]
AudioFilename: audio.mp3
AudioLeadIn: 0
PreviewTime: 162996
Countdown: 1
SampleSet: Soft
StackLeniency: 0.2
Mode: 0
LetterboxInBreaks: 0
WidescreenStoryboard: 1

[Editor]
Bookmarks: 7606,13231,15106,30106,45106,60106,73231,75106,90106,103231,105106,135106,150106,163231,165106,178231,180106,193231,195106,208231,210106
DistanceSpacing: 1.2
BeatDivisor: 4
GridSize: 8
TimelineZoom: 1.2

[Metadata]
Title:HARAJUKU IYAHOI
TitleUnicode:原宿いやほい
Artist:Kyary Pamyu Pamyu
ArtistUnicode:Kyary Pamyu Pamyu
Creator:marth0
Version:c:
Source:
Tags:
BeatmapID:1261571
BeatmapSetID:596582

[Difficulty]
HPDrainRate:5
CircleSize:3.8
OverallDifficulty:6
ApproachRate:8
SliderMultiplier:2
SliderTickRate:1

[Events]
//Background and Video events
0,0,"407176-miku-hatsune-miku-wallpaper.jpg",0,0
//Break Periods
//Storyboard Layer 0 (Background)
//Storyboard Layer 1 (Fail)
//Storyboard Layer 2 (Pass)
//Storyboard Layer 3 (Foreground)
//Storyboard Sound Samples

[TimingPoints]
106,468.75,4,2,0,80,1,0
106,-125,4,2,0,75,0,0
7606,-100,4,2,0,80,0,0
13231,-125,4,2,0,75,0,0
15106,-100,4,2,0,80,0,0
22606,-100,4,2,0,80,0,0
29637,-125,4,2,0,80,0,0
30106,-90.9090909090909,4,2,0,80,0,0
45106,-100,4,2,0,80,0,0
60106,-90.9090909090909,4,2,0,80,0,0
73231,-200,4,2,0,65,0,0
75106,-76.9230769230769,4,2,0,85,0,1
88231,-100,4,2,0,85,0,0
90106,-71.4285714285714,4,2,0,85,0,1
103231,-125,4,2,0,75,0,0
105106,-90.9090909090909,4,2,0,80,0,0
135106,-100,4,2,0,80,0,0
150106,-90.9090909090909,4,2,0,80,0,0
163231,-200,4,2,0,65,0,0
165106,-76.9230769230769,4,2,0,85,0,1
178231,-125,4,2,0,75,0,0
180106,-100,4,2,0,80,0,0
193231,-125,4,2,0,75,0,0
195106,-71.4285714285714,4,2,0,85,0,1
208231,-125,4,2,0,75,0,0
210106,-200,4,2,0,65,0,0

[Colours]
Combo1 : 113,147,249
Combo2 : 181,248,114
Combo3 : 109,252,217

[HitObjects]
101,210,106,5,0,0:0:0:0:
101,210,574,1,0,0:0:0:0:
252,230,926,2,0,L|297:237,1,40
340,126,1277,1,0,0:0:0:0:
264,32,1512,1,0,0:0:0:0:
150,71,1746,2,0,L|94:132,1,80
95,129,2449,5,0,0:0:0:0:
13,289,2801,2,0,L|68:330,1,40
159,347,3152,1,0,0:0:0:0:
255,275,3387,1,0,0:0:0:0:
255,275,3504,1,0,0:0:0:0:
255,275,3621,1,0,0:0:0:0:
331,368,3856,5,0,0:0:0:0:
331,368,4324,1,0,0:0:0:0:
473,257,4676,2,0,L|510:297,1,40
380,274,5027,1,0,0:0:0:0:
443,171,5262,1,0,0:0:0:0:
328,205,5496,2,0,P|299:250|302:312,1,80
295,275,6199,5,0,0:0:0:0:
366,109,6551,2,0,L|325:64,1,40
441,17,6902,1,0,0:0:0:0:
505,118,7137,1,0,0:0:0:0:
366,109,7371,1,0,0:0:0:0:
250,13,7606,6,0,P|227:66|227:115,1,100
118,101,8074,2,0,P|106:150|58:201,1,100
0,203,8426,1,0,0:0:0:0:
0,203,8543,2,0,P|32:256|105:259,1,100
212,299,9012,1,0,0:0:0:0:
180,152,9246,1,0,0:0:0:0:
308,74,9481,6,0,P|336:124|327:177,1,100
446,67,9949,2,0,P|495:96|513:146,1,100
438,147,10301,1,0,0:0:0:0:
438,147,10418,2,0,P|379:152|314:171,1,100
404,297,10887,1,0,0:0:0:0:
404,297,11004,1,0,0:0:0:0:
404,297,11121,1,0,0:0:0:0:
485,272,11356,6,0,P|453:227|381:211,1,100
360,156,11707,1,0,0:0:0:0:
360,156,11824,2,0,P|425:132|479:164,1,100
412,210,12176,1,0,0:0:0:0:
412,210,12293,2,0,P|363:242|340:279,1,100
201,220,12762,1,0,0:0:0:0:
314,122,12996,1,0,0:0:0:0:
256,192,13231,12,0,14871,0:0:0:0:
63,60,15106,6,0,L|6:146,1,100
105,165,15574,2,0,L|117:271,1,100
17,246,16043,1,0,0:0:0:0:
52,339,16277,1,0,0:0:0:0:
150,356,16512,1,0,0:0:0:0:
215,280,16746,1,0,0:0:0:0:
203,183,16981,6,0,L|87:161,1,100
161,82,17449,2,0,L|277:60,1,100
300,154,17918,2,0,L|398:135,1,100
454,53,18386,2,0,L|355:34,1,100
259,63,18856,5,0,0:0:0:0:
300,154,19090,1,0,0:0:0:0:
454,53,19324,1,0,0:0:0:0:
398,135,19559,1,0,0:0:0:0:
496,153,19793,2,0,L|419:231,1,100
477,310,20262,1,0,0:0:0:0:
425,224,20496,1,0,0:0:0:0:
326,224,20731,6,0,L|263:331,1,100
224,224,21199,2,0,L|287:331,1,100
175,302,21668,2,0,L|298:311,1,100
372,312,22137,1,0,0:0:0:0:
372,312,22371,1,0,0:0:0:0:
217,369,22606,6,0,P|195:327|202:274,1,100
114,226,23074,1,0,0:0:0:0:
106,325,23309,1,0,0:0:0:0:
6,332,23543,2,0,P|7:284|40:242,1,100
171,163,24012,1,0,0:0:0:0:
72,155,24247,1,0,0:0:0:0:
145,89,24481,6,0,P|105:59|56:56,1,100
56,56,24949,2,0,B|110:46|142:87|142:87|198:161|295:161|337:62|277:-6|224:9,1,400
145,89,26121,1,0,0:0:0:0:
72,155,26356,2,0,L|143:235,1,100
232,264,26824,2,0,P|235:206|213:164,1,100
284,95,27293,2,0,L|394:95,1,100
461,158,27762,2,0,P|483:98|470:43,1,100
478,63,28231,5,0,0:0:0:0:
228,69,28699,1,0,0:0:0:0:
359,283,29168,2,0,B|411:299|411:299|441:260,1,100
384,204,29637,2,0,B|309:207|309:207|282:264,1,120
350,369,30106,6,0,P|416:351|401:283,1,110.000003356934
289,247,30574,1,0,0:0:0:0:
218,359,30809,1,0,0:0:0:0:
164,238,31043,2,0,P|127:197|70:185,1,110.000003356934
207,176,31512,1,0,0:0:0:0:
85,270,31746,1,0,0:0:0:0:
112,120,31981,6,0,P|94:64|39:31,1,110.000003356934
178,85,32449,1,0,0:0:0:0:
28,116,32684,1,0,0:0:0:0:
151,12,32918,2,0,P|211:4|285:45,1,110.000003356934
359,107,33387,2,0,P|299:115|225:74,1,110.000003356934
337,29,33856,5,0,0:0:0:0:
502,25,34090,1,0,0:0:0:0:
359,107,34324,1,0,0:0:0:0:
502,25,34559,1,0,0:0:0:0:
420,167,34793,2,0,P|425:214|468:266,1,110.000003356934
343,183,35262,1,0,0:0:0:0:
500,164,35496,2,0,P|497:213|447:268,1,110.000003356934
343,183,35965,1,0,0:0:0:0:
383,308,36199,1,0,0:0:0:0:
271,186,36434,1,0,0:0:0:0:
263,317,36668,1,0,0:0:0:0:
