osu file format v14

[General]
AudioFilename: 10.mp3
AudioLeadIn: 0
PreviewTime: 78315
Countdown: 1
SampleSet: Soft
StackLeniency: 0.7
Mode: 0
LetterboxInBreaks: 1
WidescreenStoryboard: 0

[Editor]
Bookmarks: 2565,21765,40965,60165,79365,97365,102165,104715,106965,111765,114165,116565,121365
DistanceSpacing: 1.2
BeatDivisor: 4
GridSize: 32
TimelineZoom: 2.5

[Metadata]
Title:Furisodation
TitleUnicode:ふりそでーし
Artist:Kyary Pamyu Pamyu
ArtistUnicode:きゃりーぱみゅぱみゅ
Creator:Cerberus Roze
Version:R-ze
Source:
Tags:
BeatmapID:1726426
BeatmapSetID:823893

[Difficulty]
HPDrainRate:4
CircleSize:4.2
OverallDifficulty:8.4
ApproachRate:9.4
SliderMultiplier:1.8
SliderTickRate:1

[Events]
//Background and Video events
0,0,"1920-910373.jpg",0,0
//Break Periods
//Storyboard Layer 0 (Background)
//Storyboard Layer 1 (Fail)
//Storyboard Layer 2 (Pass)
//Storyboard Layer 3 (Foreground)
//Storyboard Sound Samples

[TimingPoints]
165,300,4,2,1,65,1,0
165,-117.647058823529,4,2,1,65,0,0
4965,-153.846153846154,4,2,1,65,0,0
5265,-117.647058823529,4,2,1,65,0,0
7365,-153.846153846154,4,2,1,65,0,0
7665,-117.647058823529,4,2,1,65,0,0
16965,-153.846153846154,4,2,1,65,0,0
17565,-222.222222222222,4,2,1,65,0,0
18015,-153.846153846154,4,2,1,65,0,0
19215,-117.647058823529,4,2,1,65,0,0
21765,-100,4,2,1,65,0,0
40965,-117.647058823529,4,2,1,65,0,0
78315,-58.8235294117647,4,2,0,65,0,0
78465,-117.647058823529,4,2,0,65,0,0
79365,-86.9565217391304,4,2,1,65,0,1
97365,-100,4,2,1,65,0,0

[HitObjects]
183,211,165,6,0,P|222:204|260:211,1,76.5000014591217,2|0,0:0|0:0,0:0:0:0:
95,321,465,2,0,B|114:272|71:264|94:190,1,114.750002188683,2|0,0:0|0:0,0:0:0:0:
124,138,765,2,0,L|117:60,1,76.5000014591217,8|0,0:0|0:0,0:0:0:0:
220,288,1065,1,2,0:0:0:0:
346,105,1215,2,0,P|310:98|271:105,1,76.5000014591217,8|0,0:0|0:0,0:0:0:0:
212,285,1515,1,2,0:0:0:0:
346,105,1665,2,0,P|383:98|420:105,1,76.5000014591217,8|0,0:0|0:0,0:0:0:0:
380,284,1965,2,0,L|374:360,2,76.5000014591217,8|0|0,0:0|0:0|0:0,0:0:0:0:
275,326,2415,1,2,0:0:0:0:
420,260,2565,6,0,L|430:98,1,153.000002918243,4|0,0:0|0:0,0:0:0:0:
344,25,3015,1,2,0:0:0:0:
201,136,3165,1,8,0:0:0:0:
344,180,3315,5,2,0:0:0:0:
274,66,3465,1,2,0:0:0:0:
362,198,3615,2,0,L|453:190,1,76.5000014591217,8|0,0:0|0:0,0:0:0:0:
199,264,3915,5,2,0:0:0:0:
344,191,4065,1,2,0:0:0:0:
181,287,4215,2,0,L|90:279,1,76.5000014591217,8|0,0:0|0:0,0:0:0:0:
344,278,4515,5,2,0:0:0:0:
212,376,4665,1,2,0:0:0:0:
239,198,4815,1,2,0:0:0:0:
350,384,4965,6,0,L|357:296,1,87.749995983124,2|0,0:0|0:0,0:0:0:0:
361,215,5265,2,0,L|364:124,1,76.5000014591217,2|0,0:0|0:0,0:0:0:0:
456,49,5565,2,0,L|453:125,1,76.5000014591217,8|0,0:0|0:0,0:0:0:0:
446,249,5865,5,2,0:0:0:0:
446,249,6015,1,2,0:0:0:0:
319,100,6165,1,2,0:0:0:0:
454,126,6315,1,2,0:0:0:0:
319,100,6465,1,2,0:0:0:0:
299,98,6540,1,2,0:0:0:0:
279,96,6615,1,2,0:0:0:0:
132,249,6765,6,0,P|162:228|186:194,1,76.5000014591217,8|0,0:0|0:0,0:0:0:0:
65,362,7065,2,0,B|84:371|84:371|111:373|142:362,1,76.5000014591217,8|0,0:0|0:0,0:0:0:0:
86,3,7365,2,0,L|92:90,1,87.749995983124,8|0,0:0|0:0,0:0:0:0:
101,164,7665,2,0,L|107:249,1,76.5000014591217,2|0,0:0|0:0,0:0:0:0:
196,384,7965,2,0,L|190:307,1,76.5000014591217,8|0,0:0|0:0,0:0:0:0:
345,290,8265,5,2,0:0:0:0:
208,195,8415,2,0,P|223:159|253:130,1,76.5000014591217,8|0,0:0|0:0,0:0:0:0:
386,96,8715,1,2,0:0:0:0:
298,216,8865,1,2,0:0:0:0:
401,70,9015,1,2,0:0:0:0:
318,343,9165,1,8,0:0:0:0:
288,183,9315,1,2,0:0:0:0:
451,275,9465,1,2,0:0:0:0:
193,216,9615,2,0,P|152:209|109:216,1,76.5000014591217,8|0,0:0|0:0,0:0:0:0:
285,158,9915,2,0,B|267:93|305:69|284:2,1,153.000002918243,2|0,0:0|0:0,0:0:0:0:
361,218,10365,6,0,P|398:222|436:215,1,76.5000014591217,8|0,0:0|0:0,0:0:0:0:
395,116,10665,1,2,0:0:0:0:
349,365,10815,1,2,0:0:0:0:
285,158,10965,2,0,P|247:153|209:160,1,76.5000014591217,8|0,0:0|0:0,0:0:0:0:
0,236,11265,2,0,P|55:248|117:236,1,114.750002188683,2|0,0:0|0:0,0:0:0:0:
209,160,11565,6,0,L|215:83,1,76.5000014591217,8|0,0:0|0:0,0:0:0:0:
241,331,11865,1,2,0:0:0:0:
115,139,12015,1,2,0:0:0:0:
307,237,12165,2,0,P|336:208|351:173,1,76.5000014591217,8|0,0:0|0:0,0:0:0:0:
182,329,12465,2,0,P|211:358|245:373,1,76.5000014591217,8|0,0:0|0:0,0:0:0:0:
83,200,12765,2,0,P|54:229|38:263,1,76.5000014591217,8|0,0:0|0:0,0:0:0:0:
35,100,13065,5,2,0:0:0:0:
141,285,13215,2,0,L|227:280,1,76.5000014591217,8|0,0:0|0:0,0:0:0:0:
466,223,13515,5,2,0:0:0:0:
477,100,13665,1,2,0:0:0:0:
371,285,13815,2,0,L|285:280,1,76.5000014591217,8|0,0:0|0:0,0:0:0:0:
158,264,14115,1,2,0:0:0:0:
281,369,14265,1,2,0:0:0:0:
139,239,14415,2,0,P|112:163|126:94,2,153.000002918243,8|0|0,0:0|0:0|0:0,0:0:0:0:
290,168,15165,6,0,B|283:160|283:160|253:150|208:157,1,76.5000014591217,8|0,0:0|0:0,0:0:0:0:
355,256,15465,1,2,0:0:0:0:
443,202,15615,1,2,0:0:0:0:
491,99,15765,2,0,P|498:63|494:19,1,76.5000014591217,8|0,0:0|0:0,0:0:0:0:
316,63,16065,1,2,0:0:0:0:
338,65,16140,1,2,0:0:0:0:
363,67,16215,1,2,0:0:0:0:
206,150,16365,6,0,P|222:187|244:218,1,76.5000014591217,8|0,0:0|0:0,0:0:0:0:
114,99,16665,2,0,B|100:114|100:114|92:136|92:173,1,76.5000014591217,8|0,0:0|0:0,0:0:0:0:
249,27,16965,2,0,B|254:13|254:13|196:-7|136:10,1,116.999994644165,2|0,0:0|0:0,0:0:0:0:
263,213,17565,6,0,P|286:195|304:172,2,40.4999987640381,2|0|0,0:0|0:0|0:0,0:0:0:0:
188,240,18015,2,0,P|154:232|68:238,1,116.999994644165,8|0,0:0|0:0,0:0:0:0:
345,351,18465,5,4,0:3:0:0:
131,310,18615,1,8,0:0:0:0:
357,130,18765,1,4,0:3:0:0:
345,351,18915,1,4,0:3:0:0:
345,351,18990,1,4,0:3:0:0:
345,351,19065,1,4,0:3:0:0:
345,351,19140,1,4,0:3:0:0:
345,351,19215,2,0,P|290:299|262:209,1,153.000002918243,8|0,0:0|0:0,0:0:0:0:
400,103,19665,6,0,B|411:80|411:80|422:48|410:5,1,76.5000014591217,8|0,0:0|0:0,0:0:0:0:
394,216,19965,2,0,B|418:219|418:219|452:218|489:192,1,76.5000014591217,8|0,0:0|0:0,0:0:0:0:
167,242,20265,1,2,0:0:0:0:
389,343,20415,1,4,0:0:0:0:
389,343,21315,5,2,0:0:0:0:
171,309,21465,2,0,P|131:291|105:263,1,76.5000014591217,8|0,0:3|0:0,0:0:0:0:
194,20,21765,2,0,B|171:102|223:127|194:203,1,180,4|0,0:0|0:0,0:0:0:0:
118,156,22215,1,2,0:0:0:0:
274,83,22365,1,2,0:0:0:0:
274,83,22515,1,2,0:0:0:0:
97,167,22665,1,2,0:0:0:0:
298,72,22815,2,0,P|343:69|393:88,1,90,8|0,0:0|0:0,0:0:0:0:
457,207,23115,6,0,P|444:251|398:302,2,90,8|0|0,0:0|0:0|0:0,0:0:0:0:
356,197,23565,1,2,0:0:0:0:
494,342,23715,1,2,0:0:0:0:
512,142,23865,1,2,0:0:0:0:
377,335,24015,2,0,P|415:300|431:259,1,90,8|0,0:0|0:0,0:0:0:0:
421,47,24315,6,0,P|384:20|341:8,2,90,8|0|0,0:0|0:0|0:0,0:0:0:0:
333,128,24765,1,2,0:0:0:0:
254,32,24915,1,2,0:0:0:0:
254,32,24990,1,2,0:0:0:0:
254,32,25065,1,2,0:0:0:0:
313,212,25215,2,0,P|313:166|337:122,1,90,8|0,0:0|0:0,0:0:0:0:
415,220,25515,5,2,0:0:0:0:
164,254,25665,1,8,0:0:0:0:
245,127,25815,1,2,0:0:0:0:
204,357,25965,1,8,0:0:0:0:
204,357,26115,1,2,0:0:0:0:
198,170,26265,1,8,0:0:0:0:
61,315,26415,1,2,0:0:0:0:
304,179,26565,6,0,P|272:97|199:48,1,180,4|0,0:0|0:0,0:0:0:0:
102,276,27015,1,2,0:0:0:0:
56,125,27165,2,0,P|100:115|150:125,1,90,8|0,0:0|0:0,0:0:0:0:
24,227,27465,1,2,0:0:0:0:
168,35,27615,2,0,P|206:59|234:101,1,90,8|0,0:0|0:0,0:0:0:0:
251,211,27915,5,2,0:0:0:0:
384,257,28065,1,8,0:0:0:0:
254,112,28215,1,2,0:0:0:0:
384,257,28365,1,8,0:0:0:0:
366,158,28515,1,2,0:0:0:0:
291,288,28665,1,8,0:0:0:0:
422,368,28815,1,2,0:0:0:0:
291,288,28965,2,0,P|248:277|202:288,1,90,8|0,0:0|0:0,0:0:0:0:
71,384,29265,1,2,0:0:0:0:
204,286,29415,2,0,L|214:197,1,90,8|0,0:0|0:0,0:0:0:0:
233,41,29715,1,2,0:0:0:0:
349,215,29865,1,2,0:0:0:0:
124,77,30015,2,0,P|163:51|205:41,1,90,8|0,0:0|0:0,0:0:0:0:
107,280,30315,5,2,0:0:0:0:
287,180,30465,2,0,P|248:156|205:144,1,90,8|0,0:0|0:0,0:0:0:0:
359,301,30765,2,0,B|379:289|379:289|397:260|394:219,1,90,8|0,0:0|0:0,0:0:0:0:
190,347,31065,2,0,B|190:369|190:369|223:391|271:382,1,90,8|0,0:0|0:0,0:0:0:0:
199,195,31365,6,0,B|119:169|111:222|20:195,1,180,4|0,0:0|0:0,0:0:0:0:
80,112,31815,1,2,0:0:0:0:
156,281,31965,1,2,0:0:0:0:
156,281,32115,1,2,0:0:0:0:
187,47,32265,1,2,0:0:0:0:
263,165,32415,2,0,L|361:156,1,90,8|0,0:0|0:0,0:0:0:0:
408,70,32715,5,2,0:0:0:0:
287,45,32865,1,2,0:0:0:0:
423,264,33015,1,2,0:0:0:0:
408,70,33165,1,2,0:0:0:0:
408,70,33315,1,2,0:0:0:0:
419,287,33465,1,2,0:0:0:0:
512,72,33615,2,0,P|471:55|418:59,1,90,8|0,0:0|0:0,0:0:0:0:
247,223,33915,5,2,0:0:0:0:
263,63,34065,1,2,0:0:0:0:
430,203,34215,1,2,0:0:0:0:
218,245,34365,1,2,0:0:0:0:
218,245,34515,1,2,0:0:0:0:
269,32,34665,1,2,0:0:0:0:
190,263,34815,2,0,B|107:237|100:290|4:256,1,180,8|0,0:0|0:0,0:0:0:0:
70,178,35265,5,8,0:0:0:0:
70,348,35415,1,2,0:0:0:0:
12,258,35565,1,8,0:0:0:0:
93,182,35715,1,2,0:0:0:0:
176,263,35865,1,8,0:0:0:0:
297,293,36015,1,2,0:0:0:0:
451,203,36165,6,0,B|378:175|356:228|271:199,1,180,4|0,0:0|0:0,0:0:0:0:
188,137,36615,1,2,0:0:0:0:
322,98,36765,1,2,0:0:0:0:
321,293,36915,1,2,0:0:0:0:
321,293,37065,1,2,0:0:0:0:
277,13,37215,2,0,P|327:2|370:13,1,90,8|0,0:0|0:0,0:0:0:0:
184,232,37515,1,2,0:0:0:0:
228,88,37665,2,0,P|178:77|135:88,1,90,8|0,0:0|0:0,0:0:0:0:
54,195,37965,2,0,L|45:297,2,90,8|0|0,0:0|0:0|0:0,0:0:0:0:
132,353,38415,1,2,0:0:0:0:
183,178,38565,6,0,B|264:146|272:217|357:183,1,180,8|0,0:0|0:0,0:0:0:0:
227,258,39015,2,0,P|219:302|227:346,1,90,8|0,0:0|0:0,0:0:0:0:
315,94,39315,1,2,0:0:0:0:
331,308,39465,1,2,0:0:0:0:
277,13,39615,2,0,P|324:2|371:13,1,90,8|0,0:0|0:0,0:0:0:0:
131,126,39915,5,2,0:0:0:0:
315,94,40065,2,0,P|356:119|381:160,1,90,8|0,0:0|0:0,0:0:0:0:
201,336,40365,1,4,0:3:0:0:
209,310,40440,1,4,0:3:0:0:
218,284,40515,1,4,0:3:0:0:
227,258,40590,1,4,0:3:0:0:
238,233,40665,2,0,L|283:237,1,45,8|0,0:0|0:0,0:0:0:0:
196,124,40815,2,0,L|246:128,1,45,8|0,0:0|0:0,0:0:0:0:
135,25,40965,6,0,L|253:36,1,114.750002188683,4|0,0:0|0:0,0:0:0:0:
321,31,41265,2,0,L|406:26,1,76.5000014591217,8|0,0:0|0:0,0:0:0:0:
453,141,41565,1,2,0:0:0:0:
333,131,41715,1,2,0:0:0:0:
397,26,41865,1,2,0:0:0:0:
297,231,42015,2,0,P|264:208|240:173,1,76.5000014591217,8|0,0:0|0:0,0:0:0:0:
200,84,42315,1,2,0:0:0:0:
313,333,42465,2,0,P|274:332|233:317,1,76.5000014591217,8|0,0:0|0:0,0:0:0:0:
154,167,42765,1,2,0:0:0:0:
46,251,42915,1,2,0:0:0:0:
125,335,43065,1,2,0:0:0:0:
127,166,43215,1,2,0:0:0:0:
18,252,43365,6,0,L|12:173,1,76.5000014591217,8|0,0:0|0:0,0:0:0:0:
1,36,43665,1,2,0:0:0:0:
106,295,43815,2,0,P|80:324|42:339,1,76.5000014591217,8|0,0:0|0:0,0:0:0:0:
276,212,44115,2,0,P|313:203|353:212,1,76.5000014591217,8|0,0:0|0:0,0:0:0:0:
196,330,44415,2,0,B|217:267|172:242|195:172,1,153.000002918243,8|0,0:0|0:0,0:0:0:0:
367,96,44865,2,0,P|325:91|274:97,1,76.5000014591217,8|0,0:0|0:0,0:0:0:0:
319,217,45165,1,2,0:0:0:0:
406,0,45315,1,2,0:0:0:0:
425,172,45465,2,0,P|467:177|518:171,1,76.5000014591217,8|0,0:0|0:0,0:0:0:0:
319,217,45765,6,0,B|298:279|343:304|322:367,1,153.000002918243,8|0,0:0|0:0,0:0:0:0:
154,331,46215,2,0,P|191:337|231:331,1,76.5000014591217,8|0,0:0|0:0,0:0:0:0:
119,211,46515,2,0,P|88:232|64:265,1,76.5000014591217,8|0,0:0|0:0,0:0:0:0:
228,147,46815,2,0,B|196:81|255:62|226:-11,1,153.000002918243,8|0,0:0|0:0,0:0:0:0:
315,204,47265,2,0,P|355:210|395:204,1,76.5000014591217,8|0,0:0|0:0,0:0:0:0:
359,88,47565,1,2,0:0:0:0:
475,355,47715,1,2,0:0:0:0:
512,137,47865,2,0,P|472:131|432:137,1,76.5000014591217,8|0,0:0|0:0,0:0:0:0:
356,297,48165,6,0,B|291:277|282:323|201:296,1,153.000002918243,4|0,0:0|0:0,0:0:0:0:
116,33,48615,2,0,L|122:109,1,76.5000014591217,8|0,0:0|0:0,0:0:0:0:
139,227,48915,1,2,0:0:0:0:
232,89,49065,1,2,0:0:0:0:
32,208,49215,2,0,P|49:289|103:343,1,153.000002918243,4|0,0:0|0:0,0:0:0:0:
172,213,49665,1,2,0:0:0:0:
206,352,49815,2,0,L|287:343,1,76.5000014591217,8|0,0:0|0:0,0:0:0:0:
479,325,50115,1,8,0:0:0:0:
374,377,50265,1,8,0:0:0:0:
404,151,50415,1,8,0:0:0:0:
507,328,50565,6,0,B|486:258|532:255|510:175,1,153.000002918243,4|0,0:0|0:0,0:0:0:0:
445,82,51015,1,2,0:0:0:0:
331,68,51165,1,2,0:0:0:0:
254,139,51315,1,2,0:0:0:0:
250,251,51465,1,2,0:0:0:0:
254,139,51615,2,0,P|139:119|95:125,1,153.000002918243,8|0,0:0|0:0,0:0:0:0:
122,347,52065,1,2,0:0:0:0:
0,171,52215,2,0,P|42:175|73:196,1,76.5000014591217,8|0,0:0|0:0,0:0:0:0:
2,291,52515,1,2,0:0:0:0:
55,59,52665,1,2,0:0:0:0:
55,59,52815,1,2,0:0:0:0:
168,269,52965,6,0,P|206:275|246:269,1,76.5000014591217,8|0,0:0|0:0,0:0:0:0:
370,59,53265,1,2,0:0:0:0:
168,269,53415,2,0,P|130:274|92:268,1,76.5000014591217,8|0,0:0|0:0,0:0:0:0:
358,206,53715,2,0,P|395:200|433:206,1,76.5000014591217,8|0,0:0|0:0,0:0:0:0:
264,327,54015,2,0,B|289:260|246:236|264:172,1,153.000002918243,8|0,0:0|0:0,0:0:0:0:
420,35,54465,2,0,P|375:39|344:61,1,76.5000014591217,8|0,0:0|0:0,0:0:0:0:
358,206,54765,1,2,0:0:0:0:
494,198,54915,1,2,0:0:0:0:
406,122,55065,5,2,0:0:0:0:
353,329,55215,1,2,0:0:0:0:
282,143,55365,2,0,B|190:122|222:158|126:143,1,153.000002918243,8|0,0:0|0:0,0:0:0:0:
337,224,55815,2,0,P|368:198|385:160,1,76.5000014591217,8|0,0:0|0:0,0:0:0:0:
161,239,56115,2,0,P|130:265|113:303,1,76.5000014591217,8|0,0:0|0:0,0:0:0:0:
217,0,56415,2,0,L|230:155,1,153.000002918243,8|0,0:0|0:0,0:0:0:0:
326,269,56865,5,2,0:0:0:0:
366,310,57015,1,2,0:0:0:0:
401,348,57165,2,0,L|408:268,1,76.5000014591217,8|0,0:0|0:0,0:0:0:0:
512,65,57465,2,0,P|474:75|445:100,1,76.5000014591217,8|0,0:0|0:0,0:0:0:0:
342,158,57765,2,0,B|271:136|266:181|185:157,1,153.000002918243,8|0,0:0|0:0,0:0:0:0:
43,32,58215,2,0,P|68:58|87:93,1,76.5000014591217,8|0,0:0|0:0,0:0:0:0:
43,351,58515,2,0,P|62:317|87:289,1,76.5000014591217,8|0,0:0|0:0,0:0:0:0:
302,155,58815,1,0,1:0:0:0:
280,153,58890,1,0,1:0:0:0:
258,151,58965,1,0,1:0:0:0:
236,149,59040,1,0,1:0:0:0:
214,147,59115,1,0,1:0:0:0:
193,146,59190,1,0,1:0:0:0:
170,143,59265,6,0,L|163:208,1,38.2500007295609,4|0,0:3|0:0,0:0:0:0:
98,76,59415,2,0,L|90:141,1,38.2500007295609,4|0,0:3|0:0,0:0:0:0:
4,95,59565,2,0,L|-3:160,1,38.2500007295609,8|0,0:0|0:0,0:0:0:0:
238,265,59715,5,8,0:0:0:0:
283,234,59790,1,8,0:0:0:0:
327,246,59865,1,8,0:0:0:0:
354,284,59940,1,8,0:0:0:0:
332,325,60015,1,8,0:0:0:0:
285,335,60090,1,8,0:0:0:0:
238,316,60165,6,0,B|175:293|171:333|85:317,1,153.000002918243,4|0,0:0|0:0,0:0:0:0:
21,222,60615,1,2,0:0:0:0:
0,107,60765,2,0,P|-3:69|5:27,1,76.5000014591217,8|0,0:0|0:0,0:0:0:0:
21,222,61065,2,0,P|24:260|16:302,1,76.5000014591217,8|0,0:0|0:0,0:0:0:0:
119,137,61365,2,0,B|130:114|130:114|197:96|279:134,1,153.000002918243,8|0,0:0|0:0,0:0:0:0:
404,343,61815,5,2,0:0:0:0:
475,162,61965,2,0,P|431:166|397:188,1,76.5000014591217,8|0,0:0|0:0,0:0:0:0:
251,378,62265,2,0,P|284:349|299:311,1,76.5000014591217,8|0,0:0|0:0,0:0:0:0:
282,57,62565,2,0,P|285:100|307:134,1,76.5000014591217,2|0,0:0|0:0,0:0:0:0:
401,185,62865,2,0,L|492:180,1,76.5000014591217,8|0,0:0|0:0,0:0:0:0:
189,289,63165,1,2,0:0:0:0:
401,185,63315,2,0,P|413:145|408:94,1,76.5000014591217,8|0,0:0|0:0,0:0:0:0:
295,22,63615,2,0,B|230:4|218:43|140:22,1,153.000002918243,8|0,0:0|0:0,0:0:0:0:
145,276,64065,6,0,P|162:314|192:344,1,76.5000014591217,8|0,0:0|0:0,0:0:0:0:
250,236,64365,1,2,0:0:0:0:
55,336,64515,1,2,0:0:0:0:
167,182,64665,2,0,P|150:144|120:114,1,76.5000014591217,8|0,0:0|0:0,0:0:0:0:
325,330,64965,6,0,B|398:304|406:362|481:330,1,153.000002918243,8|0,0:0|0:0,0:0:0:0:
435,244,65415,1,2,0:0:0:0:
501,63,65565,2,0,L|494:153,1,76.5000014591217,8|0,0:0|0:0,0:0:0:0:
404,255,65865,2,0,P|360:255|317:240,1,76.5000014591217,8|0,0:0|0:0,0:0:0:0:
205,18,66165,2,0,B|232:73|178:109|204:174,1,153.000002918243,8|0,0:0|0:0,0:0:0:0:
123,52,66615,1,2,0:0:0:0:
231,270,66765,2,8,P|291:320|373:328,2,153.000002918243
125,137,67515,1,2,0:0:0:0:
145,339,67665,1,2,0:0:0:0:
223,109,67815,2,0,P|209:73|183:45,1,76.5000014591217,8|0,0:0|0:0,0:0:0:0:
80,256,68115,2,0,P|52:282|16:295,1,76.5000014591217,8|0,0:0|0:0,0:0:0:0:
237,219,68415,6,0,B|306:190|318:243|393:218,1,153.000002918243,4|0,0:0|0:0,0:0:0:0:
386,220,68790,1,2,0:0:0:0:
386,220,68865,1,2,0:0:0:0:
495,96,69015,1,2,0:0:0:0:
386,240,69165,1,8,0:0:0:0:
512,206,69315,1,8,0:0:0:0:
407,344,69465,1,8,0:0:0:0:
345,104,69615,1,2,0:0:0:0:
77,195,69765,6,0,L|230:180,1,153.000002918243,4|0,0:0|0:0,0:0:0:0:
185,384,70215,1,2,0:0:0:0:
141,112,70365,1,2,0:0:0:0:
205,290,70515,2,0,P|166:300|123:291,1,76.5000014591217,8|0,0:0|0:0,0:0:0:0:
39,24,70815,2,0,L|52:176,1,153.000002918243,8|0,0:0|0:0,0:0:0:0:
130,294,71265,2,0,P|168:299|205:290,1,76.5000014591217,8|0,0:0|0:0,0:0:0:0:
287,109,71565,2,0,P|270:74|240:50,1,76.5000014591217,8|0,0:0|0:0,0:0:0:0:
328,345,71865,1,2,0:0:0:0:
328,345,72015,1,2,0:0:0:0:
373,172,72165,2,0,P|411:160|456:172,1,76.5000014591217,8|0,0:0|0:0,0:0:0:0:
425,311,72465,1,2,0:0:0:0:
356,72,72615,2,0,P|318:65|282:77,1,76.5000014591217,8|0,0:0|0:0,0:0:0:0:
137,166,72915,2,0,P|174:172|210:160,1,76.5000014591217,8|0,0:0|0:0,0:0:0:0:
36,212,73215,6,0,L|22:364,1,153.000002918243,8|0,0:0|0:0,0:0:0:0:
44,103,73665,1,8,0:0:0:0:
207,264,73815,1,2,0:0:0:0:
207,264,73965,1,8,0:0:0:0:
71,227,74115,1,8,0:0:0:0:
202,103,74265,2,0,P|222:65|227:14,1,76.5000014591217,8|0,0:0|0:0,0:0:0:0:
260,194,74565,6,0,L|420:188,1,153.000002918243,8|0,0:0|0:0,0:0:0:0:
267,293,75015,2,0,P|283:332|310:364,1,76.5000014591217,2|0,0:0|0:0,0:0:0:0:
264,97,75315,2,0,P|248:58|221:26,1,76.5000014591217,2|0,0:0|0:0,0:0:0:0:
118,303,75615,2,0,L|133:149,1,153.000002918243,8|8,0:0|0:0,0:0:0:0:
139,122,76065,1,10,0:0:0:0:
226,308,76215,1,10,0:0:0:0:
240,334,76365,1,10,0:0:0:0:
65,259,76515,1,10,0:0:0:0:
38,245,76665,1,10,0:0:0:0:
300,204,76815,1,10,0:0:0:0:
9,228,76965,6,0,B|-8:166|31:144|10:73,1,153.000002918243,4|0,0:0|0:0,0:0:0:0:
123,199,77415,1,2,0:0:0:0:
12,57,77565,1,2,0:0:0:0:
224,171,77715,1,2,0:0:0:0:
12,31,77865,1,2,0:0:0:0:
192,300,78015,1,2,0:0:0:0:
192,300,78315,6,0,P|222:300|198:310,1,76.5000014591217,2|0,0:0|0:0,0:0:0:0:
192,300,78465,2,0,B|251:289|257:326|337:298,1,114.750002188683,2|0,0:0|0:0,0:0:0:0:
340,288,78765,2,0,P|347:225|322:161,2,114.750002188683,8|0|0,0:0|0:0|0:0,0:0:0:0:
459,77,79365,6,0,B|449:51|449:51|369:11|263:53,1,207.000003948212,4|0,0:0|0:0,0:0:0:0:
356,196,79815,1,8,0:0:0:0:
194,84,79965,2,0,P|139:75|87:84,1,103.500001974106,8|0,0:0|0:0,0:0:0:0:
149,366,80265,1,8,0:0:0:0:
386,277,80415,2,0,B|298:238|281:321|171:276,1,207.000003948212,8|0,0:0|0:0,0:0:0:0:
344,372,80865,1,8,0:0:0:0:
229,0,81015,2,0,B|189:96|272:113|233:201,1,207.000003948212,8|0,0:0|0:0,0:0:0:0:
134,151,81465,1,8,0:0:0:0:
512,50,81615,2,0,B|415:10|398:93|310:54,1,207.000003948212,8|0,0:0|0:0,0:0:0:0:
386,217,82065,2,0,P|435:230|495:217,1,103.500001974106,8|0,0:0|0:0,0:0:0:0:
439,122,82365,1,2,0:0:0:0:
351,360,82515,1,2,0:0:0:0:
322,148,82665,2,0,P|273:135|213:148,1,103.500001974106,8|0,0:0|0:0,0:0:0:0:
111,271,82965,1,2,0:0:0:0:
262,225,83115,1,2,0:0:0:0:
17,211,83265,2,0,P|2:259|15:320,1,103.500001974106,8|0,0:3|0:0,0:0:0:0:
99,381,83565,5,2,0:0:0:0:
70,111,83715,1,2,0:0:0:0:
171,355,83865,1,2,0:0:0:0:
34,248,84015,1,2,0:0:0:0:
281,134,84165,2,0,L|72:116,1,207.000003948212,8|0,0:0|0:0,0:0:0:0:
152,220,84615,5,2,0:0:0:0:
199,38,84765,1,2,0:0:0:0:
259,300,84915,1,2,0:0:0:0:
305,135,85065,1,2,0:0:0:0:
365,263,85215,2,0,P|419:273|469:263,1,103.500001974106,8|0,0:0|0:0,0:0:0:0:
351,362,85515,1,2,0:0:0:0:
351,362,85665,1,2,0:0:0:0:
435,176,85815,1,2,0:0:0:0:
443,375,85965,1,2,0:0:0:0:
362,98,86115,1,2,0:0:0:0:
328,265,86265,1,2,0:0:0:0:
437,44,86415,2,0,P|396:10|344:0,1,103.500001974106,8|0,0:0|0:0,0:0:0:0:
184,238,86715,2,0,B|147:142|228:121|184:31,1,207.000003948212,8|0,0:0|0:0,0:0:0:0:
103,88,87165,5,2,0:0:0:0:
281,195,87315,1,2,0:0:0:0:
82,89,87465,1,2,0:0:0:0:
301,194,87615,2,0,P|352:192|406:184,1,103.500001974106,8|0,0:0|0:0,0:0:0:0:
103,268,87915,1,8,0:0:0:0:
103,268,87990,1,8,0:0:0:0:
103,268,88065,2,0,P|52:266|-2:258,1,103.500001974106,8|0,0:0|0:0,0:0:0:0:
185,157,88365,1,8,0:0:0:0:
84,377,88515,1,2,0:0:0:0:
0,129,88665,1,8,0:0:0:0:
320,250,88815,1,2,0:0:0:0:
84,377,88965,2,0,B|121:281|40:260|84:170,1,207.000003948212,8|0,0:0|0:0,0:0:0:0:
208,322,89415,5,2,0:0:0:0:
153,115,89565,2,0,P|204:104|257:115,1,103.500001974106,8|0,0:0|0:0,0:0:0:0:
374,357,89865,1,8,0:0:0:0:
422,190,90015,2,0,B|338:148|317:229|221:192,1,207.000003948212,8|0,0:0|0:0,0:0:0:0:
253,113,90465,1,8,0:0:0:0:
84,363,90615,2,0,B|47:267|128:246|86:162,1,207.000003948212,8|0,0:0|0:0,0:0:0:0:
2,200,91065,1,2,0:0:0:0:
141,58,91215,2,0,P|190:49|247:57,1,103.500001974106,8|0,0:0|0:0,0:0:0:0:
318,265,91515,2,0,B|348:197|308:167|335:93|335:93|361:143,1,207.000003948212,8|0,0:0|0:0,0:0:0:0:
437,330,91965,5,2,0:0:0:0:
437,330,92115,1,2,0:0:0:0:
434,22,92265,2,0,P|358:2|279:22,1,155.250002961159,8|0,0:0|0:0,0:0:0:0:
234,99,92565,2,0,B|217:87|217:87|181:104|130:98,1,103.500001974106,8|0,0:0|0:0,0:0:0:0:
0,0,92865,2,0,L|9:103,1,103.500001974106,8|0,0:0|0:0,0:0:0:0:
20,342,93165,1,2,0:0:0:0:
205,202,93315,1,2,0:0:0:0:
23,125,93465,1,8,0:0:0:0:
153,344,93615,1,2,0:0:0:0:
181,206,93765,2,0,L|387:187,1,207.000003948212,8|0,0:0|0:0,0:0:0:0:
512,55,94215,5,2,0:0:0:0:
388,189,94365,2,0,P|380:244|389:294,1,103.500001974106,8|0,0:0|0:0,0:0:0:0:
512,384,94665,1,2,0:0:0:0:
388,189,94815,2,0,P|333:181|283:190,1,103.500001974106,8|0,0:0|0:0,0:0:0:0:
119,271,95115,1,2,0:0:0:0:
165,25,95265,1,2,0:0:0:0:
388,189,95415,2,0,P|443:197|493:188,1,103.500001974106,8|0,0:0|0:0,0:0:0:0:
437,102,95715,1,2,0:0:0:0:
456,333,95865,1,2,0:0:0:0:
357,79,96015,2,0,P|255:58|143:79,1,207.000003948212,8|0,0:0|0:0,0:0:0:0:
80,277,96465,6,0,L|88:174,1,103.500001974106,8|0,0:0|0:0,0:0:0:0:
113,26,96765,1,2,0:0:0:0:
259,244,96915,1,2,0:0:0:0:
89,173,97065,1,2,0:0:0:0:
347,192,97215,2,0,P|355:245|347:295,1,103.500001974106,2|8,0:1|0:0,0:0:0:0:
272,361,97515,5,8,0:0:0:0:
250,321,97665,1,8,0:0:0:0:
213,295,97815,1,8,0:0:0:0:
168,293,97965,1,8,0:0:0:0:
125,306,98115,1,8,0:0:0:0:
96,340,98265,1,8,0:0:0:0:
82,382,98415,1,8,0:0:0:0:
78,203,98565,5,8,0:0:0:0:
54,174,98715,1,8,0:0:0:0:
216,313,98865,1,8,0:0:0:0:
245,323,99015,1,8,0:0:0:0:
36,309,99165,1,8,0:0:0:0:
15,323,99315,1,8,0:0:0:0:
217,130,99465,1,8,0:0:0:0:
243,110,99615,1,8,0:0:0:0:
142,258,99765,5,10,0:0:0:0:
96,43,99915,1,10,0:0:0:0:
359,241,100065,1,10,0:0:0:0:
143,147,100215,1,10,0:0:0:0:
377,63,100365,1,10,0:0:0:0:
226,357,100515,1,10,0:0:0:0:
195,0,100665,1,10,0:0:0:0:
474,294,100815,1,10,0:0:0:0:
119,156,101865,5,0,0:0:0:0:
119,156,101940,1,0,0:0:0:0:
119,156,102015,1,0,0:0:0:0:
119,156,102090,1,0,0:0:0:0:
119,156,102165,1,4,0:0:0:0:
116,289,102315,5,2,0:0:0:0:
213,104,102465,2,0,P|181:69|137:54,1,90,8|0,0:0|0:0,0:0:0:0:
255,202,102765,2,0,P|287:237|331:252,1,90,8|0,0:0|0:0,0:0:0:0:
505,218,103065,1,2,0:0:0:0:
326,251,103215,2,0,P|297:289|291:335,1,90,8|0,0:0|0:0,0:0:0:0:
424,99,103515,1,2,0:0:0:0:
437,326,103665,1,10,0:0:0:0:
437,326,103815,1,2,0:0:0:0:
291,61,103965,1,2,0:0:0:0:
326,251,104115,1,2,0:0:0:0:
289,26,104265,1,10,0:0:0:0:
236,178,104415,2,0,L|146:170,1,90,8|0,0:0|0:0,0:0:0:0:
108,38,104715,5,2,0:0:0:0:
113,247,104865,2,0,P|84:287|40:313,1,90,8|0,0:0|0:0,0:0:0:0:
7,207,105165,1,2,0:0:0:0:
192,286,105315,1,2,0:0:0:0:
35,330,105465,1,2,0:0:0:0:
236,202,105615,2,0,B|320:171|331:234|422:204,1,180,8|0,0:0|0:0,0:0:0:0:
376,115,106065,1,2,0:0:0:0:
397,304,106215,1,2,0:0:0:0:
424,27,106365,2,0,P|379:17|329:27,1,90,8|0,0:0|0:0,0:0:0:0:
231,156,106665,1,2,0:0:0:0:
363,149,106815,1,2,0:0:0:0:
68,72,106965,6,0,L|251:55,1,180,4|0,0:0|0:0,0:0:0:0:
159,276,107415,1,2,0:0:0:0:
132,145,107565,1,2,0:0:0:0:
254,299,107715,1,2,0:0:0:0:
56,290,107865,1,2,0:0:0:0:
343,212,108015,2,0,P|367:296|343:391,1,180,8|0,0:0|0:0,0:0:0:0:
475,146,108465,1,2,0:0:0:0:
432,302,108615,1,2,0:0:0:0:
379,121,108765,1,2,0:0:0:0:
512,263,108915,1,2,0:0:0:0:
468,41,109065,1,2,0:0:0:0:
378,213,109215,1,2,0:0:0:0:
348,21,109365,6,0,B|274:-2|248:44|165:21,1,180,8|0,0:0|0:0,0:0:0:0:
87,202,109815,2,0,P|106:161|148:132,1,90,8|0,0:0|0:0,0:0:0:0:
235,262,110115,1,2,0:0:0:0:
0,164,110265,1,2,0:0:0:0:
124,288,110415,2,0,P|105:329|63:358,1,90,8|0,0:0|0:0,0:0:0:0:
398,239,110715,1,2,0:0:0:0:
128,121,110865,2,0,P|151:162|185:190,1,90,8|0,0:0|0:0,0:0:0:0:
384,121,111165,2,0,P|361:162|327:190,1,90,8|0,0:0|0:0,0:0:0:0:
255,283,111465,1,2,0:0:0:0:
252,112,111615,1,2,0:0:0:0:
331,353,111765,6,0,B|413:324|431:386|513:353,1,180,4|0,0:0|0:0,0:0:0:0:
240,374,112215,1,2,0:0:0:0:
439,289,112365,1,2,0:0:0:0:
265,258,112515,1,2,0:0:0:0:
331,353,112665,1,2,0:0:0:0:
439,289,112815,2,0,L|446:198,1,90,8|0,0:0|0:0,0:0:0:0:
387,17,113115,2,0,L|379:107,1,90,8|0,0:0|0:0,0:0:0:0:
371,229,113415,1,2,0:0:0:0:
468,111,113565,1,2,0:0:0:0:
251,176,113715,1,2,0:0:0:0:
371,229,113865,1,2,0:0:0:0:
212,63,114015,2,0,P|174:85|142:132,1,90,8|0,0:0|0:0,0:0:0:0:
105,271,114315,6,0,L|96:367,2,90,8|0|0,0:0|0:0|0:0,0:0:0:0:
200,335,114765,1,2,0:0:0:0:
16,229,114915,1,2,0:0:0:0:
183,170,115065,1,2,0:0:0:0:
286,311,115215,2,0,B|372:279|381:342|468:312,1,180,8|0,0:0|0:0,0:0:0:0:
412,225,115665,1,2,0:0:0:0:
511,247,115815,1,2,0:0:0:0:
329,171,115965,1,2,0:0:0:0:
477,115,116115,1,2,0:0:0:0:
284,6,116265,1,2,0:0:0:0:
410,43,116415,2,0,P|340:105|236:113,1,180,8|0,0:0|0:0,0:0:0:0:
73,37,116865,5,2,0:0:0:0:
219,12,117015,1,2,0:0:0:0:
256,117,117165,2,0,L|69:111,1,180,8|0,0:0|0:0,0:0:0:0:
348,186,117615,2,0,P|297:193|256:222,1,90,8|0,0:0|0:0,0:0:0:0:
327,280,117915,1,2,0:0:0:0:
170,173,118065,1,2,0:0:0:0:
170,173,118215,1,2,0:0:0:0:
267,381,118365,1,2,0:0:0:0:
170,173,118515,1,2,0:0:0:0:
131,363,118665,1,2,0:0:0:0:
170,173,118815,1,2,0:0:0:0:
0,284,118965,6,0,P|43:294|88:292,1,90,8|0,0:0|0:0,0:0:0:0:
170,173,119265,1,2,0:0:0:0:
355,302,119415,2,0,P|311:303|267:293,1,90,8|0,0:0|0:0,0:0:0:0:
395,62,119715,1,2,0:0:0:0:
512,231,119865,1,2,0:0:0:0:
255,213,120015,2,0,B|170:183|157:245|71:214,1,180,8|0,0:0|0:0,0:0:0:0:
121,125,120465,1,2,0:0:0:0:
152,351,120615,1,2,0:0:0:0:
0,220,120765,1,4,0:3:0:0:
0,220,120840,1,4,0:3:0:0:
0,220,120915,1,4,0:3:0:0:
336,125,121065,1,4,0:3:0:0:
315,134,121140,1,4,0:3:0:0:
294,143,121215,1,4,0:3:0:0:
273,152,121290,1,4,0:3:0:0:
252,161,121365,1,4,0:3:0:0:
