osu file format v14

[General]
AudioFilename: audio.mp3
AudioLeadIn: 0
PreviewTime: 78325
Countdown: 0
SampleSet: Soft
StackLeniency: 0.7
Mode: 0
LetterboxInBreaks: 0
WidescreenStoryboard: 1

[Editor]
Bookmarks: 2575,21775,40975,60175,79375,98575,98725,98875,99025,99175,99325,99475,99625,99775,99925,100075,100225,100375,100525,100675,100825,100975,101125,101275,101425,101575,101725,101875,102025,102175,102325,102475,102625,102775,102925,103075,103225,103375,103525,103675,103825,103975,104125,104275,104425,104575,104725,104875,105025,105175,105325,105475,105625,105775,105925,106075,106225,106375,106525,106675,106825,106975,107125,107275,107425,107575,107725,107875,108025,108175,108325,108475,108625,108775,108925,109075,109225,109375,109525,109675,109825,109975,110125,110275,110425,110575,110725,110875,111025,111175,111325,111475,111625,111775,111925,112075,112225,112375,112525,112675,112825,112975,113125,113275,113425,113575,113725,113875,114025,114175,114325,114475,114625,114775,114925,115075,115225,115375,115525,115675,115825,115975,116125,116275,116425,116575,116725,116875,117025,117175,117325,117475,117625,117775,136975,156175,175375,194575,217375,236500
DistanceSpacing: 1
BeatDivisor: 4
GridSize: 32
TimelineZoom: 1.9

[Metadata]
Title:Furisodation
TitleUnicode:ふりそでーしょん
Artist:Kyary Pamyu Pamyu
ArtistUnicode:きゃりーぱみゅぱみゅ
Creator:Bazz B
Version:Shizurre's Insane
Source:
Tags:Jpop J-pop PaRaDogi Ducky- Kazato Asa Shikibe Mayu Shizuku- Amateurre -Mikan Bazz_B Yasutaka Nakata Japanese jp pop Nanda Collection KPP Best Kimi ni 100 Percent Xenon- Xen Xehn Elcheer dora- doraemonelf
BeatmapID:2678279
BeatmapSetID:1049418

[Difficulty]
HPDrainRate:4.5
CircleSize:3.8
OverallDifficulty:8
ApproachRate:8.8
SliderMultiplier:1.6
SliderTickRate:1

[Events]
//Background and Video events
0,0,"me.jpg",0,0
//Break Periods
2,98775,116846
//Storyboard Layer 0 (Background)
//Storyboard Layer 1 (Fail)
//Storyboard Layer 2 (Pass)
//Storyboard Layer 3 (Foreground)
//Storyboard Layer 4 (Overlay)
//Storyboard Sound Samples

[TimingPoints]
175,300,4,2,0,70,1,0
1975,-100,4,2,1,70,0,0
2275,-100,4,2,3,70,0,0
2575,-166.666666666667,4,2,2,70,0,0
2875,-166.666666666667,4,2,1,70,0,0
3175,-166.666666666667,4,2,4,70,0,0
3325,-166.666666666667,4,2,1,70,0,0
3475,-166.666666666667,4,2,3,70,0,0
3625,-166.666666666667,4,2,2,70,0,0
3925,-166.666666666667,4,2,1,70,0,0
4075,-166.666666666667,4,2,3,70,0,0
4225,-166.666666666667,4,2,2,70,0,0
4375,-166.666666666667,4,2,4,70,0,0
4525,-166.666666666667,4,2,1,70,0,0
4675,-166.666666666667,4,2,3,70,0,0
4825,-166.666666666667,4,2,2,70,0,0
4975,-166.666666666667,4,2,4,70,0,0
5275,-166.666666666667,4,2,5,70,0,0
5575,-166.666666666667,4,2,4,70,0,0
5875,-166.666666666667,4,2,5,70,0,0
6175,-166.666666666667,4,2,4,70,0,0
6475,-166.666666666667,4,2,5,70,0,0
6775,-166.666666666667,4,2,6,70,0,0
7075,-166.666666666667,4,2,7,70,0,0
7225,-166.666666666667,4,2,8,70,0,0
7675,-166.666666666667,4,2,1,70,0,0
7975,-166.666666666667,4,2,4,70,0,0
8125,-166.666666666667,4,2,1,70,0,0
8275,-166.666666666667,4,2,9,70,0,0
8425,-166.666666666667,4,2,8,70,0,0
8725,-166.666666666667,4,2,1,70,0,0
8875,-166.666666666667,4,2,9,70,0,0
9025,-166.666666666667,4,2,1,70,0,0
9175,-166.666666666667,4,2,6,70,0,0
9325,-166.666666666667,4,2,9,70,0,0
9475,-166.666666666667,4,2,1,70,0,0
9625,-166.666666666667,4,2,8,70,0,0
9925,-166.666666666667,4,2,1,70,0,0
10075,-166.666666666667,4,2,5,70,0,0
10375,-166.666666666667,4,2,4,70,0,0
10675,-166.666666666667,4,2,5,70,0,0
10975,-166.666666666667,4,2,4,70,0,0
11275,-166.666666666667,4,2,1,70,0,0
11575,-166.666666666667,4,2,6,70,0,0
11875,-166.666666666667,4,2,3,70,0,0
12175,-125,4,2,10,70,0,0
12475,-125,4,2,1,70,0,0
12775,-125,4,2,4,70,0,0
12925,-125,4,2,1,70,0,0
13075,-125,4,2,3,70,0,0
13225,-125,4,2,2,70,0,0
13525,-125,4,2,1,70,0,0
13675,-125,4,2,3,70,0,0
13825,-125,4,2,2,70,0,0
13975,-125,4,2,4,70,0,0
14125,-125,4,2,3,70,0,0
14275,-125,4,2,11,70,0,0
14425,-125,4,2,2,70,0,0
14875,-125,4,2,5,70,0,0
15175,-125,4,2,4,70,0,0
15475,-125,4,2,5,70,0,0
15775,-125,4,2,4,70,0,0
16075,-125,4,2,5,70,0,0
16375,-125,4,2,6,70,0,0
16675,-125,4,2,7,70,0,0
16825,-125,4,2,8,70,0,0
17275,-125,4,2,1,70,0,0
17575,-125,4,2,4,70,0,0
17725,-125,4,2,1,70,0,0
17875,-125,4,2,9,70,0,0
18025,-125,4,2,8,70,0,0
18175,-125,4,2,12,80,0,0
18325,-125,4,2,1,80,0,0
18475,-100,4,2,12,80,0,0
18625,-100,4,2,8,80,0,0
18775,-100,4,2,12,80,0,0
18925,-100,4,2,7,80,0,0
19075,-100,4,2,13,80,0,0
19375,-100,4,2,18,80,0,0
20725,-100,4,2,3,80,0,0
20875,-100,4,2,2,80,0,0
21025,-100,4,2,14,80,0,0
21325,-100,4,2,15,80,0,0
21475,-100,4,2,2,80,0,0
21625,-100,4,2,1,80,0,0
21700,-100,4,2,2,80,0,0
21775,-100,4,2,14,90,0,0
21925,-100,4,2,16,90,0,0
22075,-83.3333333333333,4,2,16,90,0,0
22525,-100,4,2,16,90,0,0
26575,-100,4,2,15,90,0,0
26725,-100,4,2,16,90,0,0
26875,-83.3333333333333,4,2,16,90,0,0
27625,-100,4,2,16,90,0,0
30025,-83.3333333333333,4,2,16,90,0,0
30475,-100,4,2,16,90,0,0
31375,-100,4,2,14,90,0,0
31525,-100,4,2,16,90,0,0
31675,-83.3333333333333,4,2,16,90,0,0
32125,-100,4,2,16,90,0,0
36175,-100,4,2,15,90,0,0
36325,-100,4,2,16,90,0,0
36475,-83.3333333333333,4,2,16,90,0,0
37225,-100,4,2,16,90,0,0
39625,-83.3333333333333,4,2,16,90,0,0
40075,-100,4,2,16,90,0,0
40675,-100,4,2,17,90,0,0
40975,-100,4,2,17,75,0,0
41275,-100,4,2,18,75,0,0
45475,-100,4,2,19,75,0,0
46075,-100,4,2,18,75,0,0
49225,-100,4,2,19,75,0,0
49675,-100,4,2,18,75,0,0
55075,-100,4,2,19,75,0,0
55675,-100,4,2,18,75,0,0
58825,-100,4,2,19,75,0,0
59725,-100,4,2,3,75,0,0
60175,-100,4,2,7,80,0,0
60475,-100,4,2,18,80,0,0
64675,-100,4,2,19,80,0,0
65275,-100,4,2,18,80,0,0
68425,-100,4,2,19,80,0,0
68875,-100,4,2,12,80,0,0
69775,-100,4,2,7,80,0,0
70075,-100,4,2,18,80,0,0
74275,-100,4,2,19,80,0,0
74875,-100,4,2,18,80,0,0
76975,-100,4,2,19,80,0,0
77875,-100,4,2,18,80,0,0
78325,-100,4,2,20,80,0,0
78737,319.148936170213,4,2,21,80,1,0
78737,-125,4,2,21,80,0,0
79056,-125,4,2,22,90,0,0
79375,300,4,2,23,90,1,0
79375,-90.9090909090909,4,2,23,90,0,0
80125,-90.9090909090909,4,2,21,90,0,0
80275,-90.9090909090909,4,2,22,90,0,0
80425,-90.9090909090909,4,2,23,90,0,0
80725,-90.9090909090909,4,2,21,90,0,0
80875,-90.9090909090909,4,2,22,90,0,0
81025,-90.9090909090909,4,2,23,90,0,0
81325,-90.9090909090909,4,2,21,90,0,0
81475,-90.9090909090909,4,2,22,90,0,0
81625,-90.9090909090909,4,2,23,90,0,0
83575,-90.9090909090909,4,2,21,90,0,0
83875,-90.9090909090909,4,2,24,90,0,0
84175,-90.9090909090909,4,2,25,90,0,0
84475,-90.9090909090909,4,2,21,90,0,0
85075,-90.9090909090909,4,2,26,90,0,0
85225,-90.9090909090909,4,2,25,90,0,0
85525,-90.9090909090909,4,2,21,90,0,0
85675,-90.9090909090909,4,2,26,90,0,0
85825,-90.9090909090909,4,2,21,90,0,0
86125,-90.9090909090909,4,2,26,90,0,0
86275,-90.9090909090909,4,2,21,90,0,0
86425,-90.9090909090909,4,2,25,90,0,0
86725,-90.9090909090909,4,2,21,90,0,0
86875,-90.9090909090909,4,2,9,90,0,0
87025,-90.9090909090909,4,2,1,90,0,0
87325,-90.9090909090909,4,2,9,90,0,0
87475,-90.9090909090909,4,2,1,90,0,0
87625,-90.9090909090909,4,2,27,90,0,0
87925,-90.9090909090909,4,2,1,90,0,0
88225,-90.9090909090909,4,2,21,90,0,0
88675,-90.9090909090909,4,2,22,90,0,0
88975,-90.9090909090909,4,2,23,90,0,0
89725,-90.9090909090909,4,2,21,90,0,0
89875,-90.9090909090909,4,2,22,90,0,0
90025,-90.9090909090909,4,2,23,90,0,0
90325,-90.9090909090909,4,2,21,90,0,0
90475,-90.9090909090909,4,2,22,90,0,0
90625,-90.9090909090909,4,2,23,90,0,0
90925,-90.9090909090909,4,2,22,90,0,0
91075,-90.9090909090909,4,2,28,90,0,0
91225,-90.9090909090909,4,2,23,90,0,0
93175,-90.9090909090909,4,2,21,90,0,0
93475,-90.9090909090909,4,2,24,90,0,0
93775,-90.9090909090909,4,2,25,90,0,0
94075,-90.9090909090909,4,2,21,90,0,0
94675,-90.9090909090909,4,2,26,90,0,0
94825,-90.9090909090909,4,2,25,90,0,0
95125,-90.9090909090909,4,2,21,90,0,0
95275,-90.9090909090909,4,2,26,90,0,0
95425,-90.9090909090909,4,2,25,90,0,0
95575,-90.9090909090909,4,2,29,90,0,0
95725,-90.9090909090909,4,2,24,90,0,0
95875,-90.9090909090909,4,2,23,90,0,0
96325,-90.9090909090909,4,2,29,90,0,0
96925,-90.9090909090909,4,2,1,90,0,0
97225,-90.9090909090909,4,2,15,90,0,0
97675,-90.9090909090909,4,2,13,90,0,0
97825,-90.9090909090909,4,2,14,90,0,0
98125,-90.9090909090909,4,2,15,90,0,0
98275,-90.9090909090909,4,2,2,90,0,0
98425,-90.9090909090909,4,2,6,90,0,0
98500,-90.9090909090909,4,2,2,90,0,0
98575,-90.9090909090909,4,2,14,85,0,0
98725,-90.9090909090909,4,2,16,85,0,0
103375,-90.9090909090909,4,2,15,85,0,0
103525,-90.9090909090909,4,2,16,85,0,0
107125,-90.9090909090909,4,2,15,85,0,0
107275,-90.9090909090909,4,2,36,85,0,0
107425,-90.9090909090909,4,2,14,85,0,0
107725,-90.9090909090909,4,2,3,85,0,0
107875,-90.9090909090909,4,2,36,85,0,0
108025,-90.9090909090909,4,2,1,85,0,0
108175,-90.9090909090909,4,2,14,85,0,0
108325,-90.9090909090909,4,2,16,85,0,0
112975,-90.9090909090909,4,2,15,85,0,0
113125,-90.9090909090909,4,2,16,85,0,0
117475,-90.9090909090909,4,2,17,85,0,0
117775,-100,4,2,17,75,0,0
118075,-100,4,2,18,75,0,0
122275,-100,4,2,19,75,0,0
122875,-100,4,2,18,75,0,0
126025,-100,4,2,19,75,0,0
126475,-100,4,2,18,75,0,0
131875,-100,4,2,19,75,0,0
132475,-100,4,2,18,75,0,0
135625,-100,4,2,19,75,0,0
136375,-100,4,2,30,75,0,0
136525,-100,4,2,3,75,0,0
136975,-100,4,2,7,80,0,0
137275,-100,4,2,18,80,0,0
141475,-100,4,2,19,80,0,0
142075,-100,4,2,18,80,0,0
145225,-100,4,2,19,80,0,0
145675,-100,4,2,12,80,0,0
146575,-100,4,2,7,80,0,0
146875,-100,4,2,18,80,0,0
151075,-100,4,2,19,80,0,0
151225,-100,4,2,18,80,0,0
151375,-100,4,2,19,80,0,0
151675,-100,4,2,18,80,0,0
153775,-100,4,2,19,80,0,0
154675,-100,4,2,18,80,0,0
155125,-100,4,2,30,80,0,0
155275,-100,4,2,31,80,0,0
155575,-125,4,2,31,80,0,0
155856,-125,4,2,29,80,0,0
155875,-125,4,2,32,80,0,0
156175,-90.9090909090909,4,2,23,90,0,0
156925,-90.9090909090909,4,2,21,90,0,0
157075,-90.9090909090909,4,2,22,90,0,0
157225,-90.9090909090909,4,2,23,90,0,0
157525,-90.9090909090909,4,2,21,90,0,0
157675,-90.9090909090909,4,2,22,90,0,0
157825,-90.9090909090909,4,2,23,90,0,0
158125,-90.9090909090909,4,2,21,90,0,0
158275,-90.9090909090909,4,2,22,90,0,0
158425,-90.9090909090909,4,2,23,90,0,0
160375,-90.9090909090909,4,2,21,90,0,0
160675,-90.9090909090909,4,2,24,90,0,0
160975,-90.9090909090909,4,2,25,90,0,0
161275,-90.9090909090909,4,2,21,90,0,0
161875,-90.9090909090909,4,2,26,90,0,0
162025,-90.9090909090909,4,2,25,90,0,0
162325,-90.9090909090909,4,2,21,90,0,0
162475,-90.9090909090909,4,2,26,90,0,0
162625,-90.9090909090909,4,2,21,90,0,0
162925,-90.9090909090909,4,2,26,90,0,0
163075,-90.9090909090909,4,2,21,90,0,0
163225,-90.9090909090909,4,2,25,90,0,0
163525,-90.9090909090909,4,2,21,90,0,0
163675,-90.9090909090909,4,2,9,90,0,0
163825,-90.9090909090909,4,2,1,90,0,0
164125,-90.9090909090909,4,2,9,90,0,0
164275,-90.9090909090909,4,2,1,90,0,0
164425,-90.9090909090909,4,2,27,90,0,0
164725,-90.9090909090909,4,2,1,90,0,0
165025,-90.9090909090909,4,2,21,90,0,0
165475,-90.9090909090909,4,2,22,90,0,0
165775,-90.9090909090909,4,2,23,90,0,0
166525,-90.9090909090909,4,2,21,90,0,0
166675,-90.9090909090909,4,2,22,90,0,0
166825,-90.9090909090909,4,2,23,90,0,0
167125,-90.9090909090909,4,2,21,90,0,0
167275,-90.9090909090909,4,2,22,90,0,0
167425,-90.9090909090909,4,2,23,90,0,0
167725,-90.9090909090909,4,2,22,90,0,0
167875,-90.9090909090909,4,2,28,90,0,0
168025,-90.9090909090909,4,2,23,90,0,0
169975,-90.9090909090909,4,2,21,90,0,0
170275,-90.9090909090909,4,2,24,90,0,0
170575,-90.9090909090909,4,2,25,90,0,0
170875,-90.9090909090909,4,2,21,90,0,0
171475,-90.9090909090909,4,2,26,90,0,0
171625,-90.9090909090909,4,2,25,90,0,0
171925,-90.9090909090909,4,2,21,90,0,0
172075,-90.9090909090909,4,2,26,90,0,0
172225,-90.9090909090909,4,2,25,90,0,0
172375,-90.9090909090909,4,2,29,90,0,0
172525,-90.9090909090909,4,2,24,90,0,0
172675,-90.9090909090909,4,2,23,90,0,0
173125,-90.9090909090909,4,2,29,90,0,0
173725,-90.9090909090909,4,2,1,90,0,0
174025,-90.9090909090909,4,2,15,90,0,0
174475,-90.9090909090909,4,2,13,90,0,0
174625,-90.9090909090909,4,2,14,90,0,0
174925,-90.9090909090909,4,2,15,90,0,0
175075,-90.9090909090909,4,2,2,90,0,0
175225,-90.9090909090909,4,2,6,90,0,0
175375,-111.111111111111,4,2,11,80,0,0
175675,-111.111111111111,4,2,2,80,0,0
175975,-111.111111111111,4,2,33,80,0,0
176125,-111.111111111111,4,2,34,80,0,0
176425,-111.111111111111,4,2,33,80,0,0
176875,-111.111111111111,4,2,34,80,0,0
177175,-111.111111111111,4,2,7,80,0,0
177475,-111.111111111111,4,2,2,80,0,0
177625,-111.111111111111,4,2,33,80,0,0
178075,-111.111111111111,4,2,34,80,0,0
178375,-111.111111111111,4,2,7,80,0,0
178525,-111.111111111111,4,2,34,80,0,0
178825,-111.111111111111,4,2,33,80,0,0
179275,-111.111111111111,4,2,27,80,0,0
179575,-111.111111111111,4,2,25,80,0,0
179875,-111.111111111111,4,2,27,80,0,0
180475,-111.111111111111,4,2,2,80,0,0
180775,-111.111111111111,4,2,33,80,0,0
180925,-111.111111111111,4,2,34,80,0,0
181225,-111.111111111111,4,2,33,80,0,0
181675,-111.111111111111,4,2,34,80,0,0
181975,-111.111111111111,4,2,7,80,0,0
182275,-111.111111111111,4,2,2,80,0,0
182575,-111.111111111111,4,2,33,80,0,0
182875,-111.111111111111,4,2,34,80,0,0
183175,-111.111111111111,4,2,7,80,0,0
183325,-111.111111111111,4,2,34,80,0,0
183625,-111.111111111111,4,2,19,80,0,0
183775,-111.111111111111,4,2,7,80,0,0
184075,-111.111111111111,4,2,27,80,0,0
184375,-111.111111111111,4,2,25,80,0,0
184675,-111.111111111111,4,2,27,80,0,0
184975,-111.111111111111,4,2,19,80,0,0
185275,-111.111111111111,4,2,34,80,0,0
185575,-111.111111111111,4,2,7,80,0,0
185725,-111.111111111111,4,2,34,80,0,0
186025,-111.111111111111,4,2,33,80,0,0
186475,-111.111111111111,4,2,2,80,0,0
186625,-111.111111111111,4,2,7,80,0,0
187075,-111.111111111111,4,2,34,80,0,0
187375,-111.111111111111,4,2,33,80,0,0
187675,-111.111111111111,4,2,34,80,0,0
187975,-111.111111111111,4,2,7,80,0,0
188125,-111.111111111111,4,2,34,80,0,0
188425,-111.111111111111,4,2,33,80,0,0
188875,-111.111111111111,4,2,27,80,0,0
189175,-111.111111111111,4,2,25,80,0,0
189475,-111.111111111111,4,2,27,80,0,0
189775,-111.111111111111,4,2,19,80,0,0
190075,-111.111111111111,4,2,34,80,0,0
190375,-111.111111111111,4,2,7,80,0,0
190525,-111.111111111111,4,2,34,80,0,0
190825,-111.111111111111,4,2,33,80,0,0
191275,-111.111111111111,4,2,34,80,0,0
191575,-111.111111111111,4,2,33,80,0,0
191875,-111.111111111111,4,2,34,80,0,0
192025,-111.111111111111,4,2,16,80,0,0
192325,-111.111111111111,4,2,29,80,0,0
192475,-111.111111111111,4,2,30,80,0,0
192625,-111.111111111111,4,2,29,80,0,0
193075,-111.111111111111,4,2,30,80,0,0
193225,-111.111111111111,4,2,29,80,0,0
193975,-111.111111111111,4,2,21,80,0,0
194256,-111.111111111111,4,2,29,80,0,0
194275,-111.111111111111,4,2,32,80,0,0
194575,-90.9090909090909,4,2,23,90,0,0
195325,-90.9090909090909,4,2,21,90,0,0
195475,-90.9090909090909,4,2,22,90,0,0
195625,-90.9090909090909,4,2,23,90,0,0
195925,-90.9090909090909,4,2,21,90,0,0
196075,-90.9090909090909,4,2,22,90,0,0
196225,-90.9090909090909,4,2,23,90,0,0
196525,-90.9090909090909,4,2,21,90,0,0
196675,-90.9090909090909,4,2,22,90,0,0
196825,-90.9090909090909,4,2,23,90,0,0
198775,-90.9090909090909,4,2,21,90,0,0
199075,-90.9090909090909,4,2,24,90,0,0
199375,-90.9090909090909,4,2,25,90,0,0
199675,-90.9090909090909,4,2,21,90,0,0
200275,-90.9090909090909,4,2,26,90,0,0
200425,-90.9090909090909,4,2,25,90,0,0
200725,-90.9090909090909,4,2,21,90,0,0
200875,-90.9090909090909,4,2,26,90,0,0
201025,-90.9090909090909,4,2,21,90,0,0
201325,-90.9090909090909,4,2,26,90,0,0
201475,-90.9090909090909,4,2,21,90,0,0
201625,-90.9090909090909,4,2,25,90,0,0
201925,-90.9090909090909,4,2,21,90,0,0
202075,-90.9090909090909,4,2,9,90,0,0
202225,-90.9090909090909,4,2,1,90,0,0
202525,-90.9090909090909,4,2,9,90,0,0
202675,-90.9090909090909,4,2,1,90,0,0
202825,-90.9090909090909,4,2,27,90,0,0
203125,-90.9090909090909,4,2,1,90,0,0
203425,-90.9090909090909,4,2,21,90,0,0
203875,-90.9090909090909,4,2,22,90,0,0
204175,-90.9090909090909,4,2,23,90,0,0
204925,-90.9090909090909,4,2,21,90,0,0
205075,-90.9090909090909,4,2,22,90,0,0
205225,-90.9090909090909,4,2,23,90,0,0
205525,-90.9090909090909,4,2,21,90,0,0
205675,-90.9090909090909,4,2,22,90,0,0
205825,-90.9090909090909,4,2,23,90,0,0
206125,-90.9090909090909,4,2,22,90,0,0
206275,-90.9090909090909,4,2,28,90,0,0
206425,-90.9090909090909,4,2,23,90,0,0
208375,-90.9090909090909,4,2,21,90,0,0
208675,-90.9090909090909,4,2,24,90,0,0
208975,-90.9090909090909,4,2,25,90,0,0
209275,-90.9090909090909,4,2,21,90,0,0
209875,-90.9090909090909,4,2,26,90,0,0
210025,-90.9090909090909,4,2,25,90,0,0
210325,-90.9090909090909,4,2,21,90,0,0
210475,-90.9090909090909,4,2,26,90,0,0
210625,-90.9090909090909,4,2,25,90,0,0
210775,-90.9090909090909,4,2,29,90,0,0
210925,-90.9090909090909,4,2,24,90,0,0
211075,-90.9090909090909,4,2,23,90,0,0
211525,-90.9090909090909,4,2,29,90,0,0
212125,-90.9090909090909,4,2,1,90,0,0
212425,-90.9090909090909,4,2,7,90,0,0
212575,-500,4,2,29,80,0,0
214975,-500,4,2,29,100,0,0
216325,-500,4,2,3,100,0,0
216475,-500,4,2,35,100,0,0
216625,-500,4,2,14,100,0,0
216925,-500,4,2,3,100,0,0
217075,-50,4,2,2,100,0,0
217225,-50,4,2,1,100,0,0
217300,-50,4,2,2,100,0,0
217375,-100,4,2,14,90,0,0
217525,-100,4,2,16,90,0,0
222175,-100,4,2,15,90,0,0
222325,-100,4,2,16,90,0,0
225625,-83.3333333333333,4,2,16,90,0,0
225925,-83.3333333333333,4,2,15,90,0,0
226075,-100,4,2,36,90,0,0
226225,-100,4,2,14,90,0,0
226525,-100,4,2,3,90,0,0
226675,-100,4,2,36,90,0,0
226825,-100,4,2,1,90,0,0
226975,-100,4,2,14,90,0,0
227125,-100,4,2,16,90,0,0
231775,-100,4,2,15,90,0,0
231925,-100,4,2,16,90,0,0
235225,-83.3333333333333,4,2,16,90,0,0
235525,-83.3333333333333,4,2,15,90,0,0
235675,-100,4,2,36,90,0,0
235825,-100,4,2,14,90,0,0
236125,-100,4,2,15,90,0,0
236275,-100,4,2,36,90,0,0
236425,-100,4,2,37,90,0,0
242275,-100,4,2,99,5,0,0

[Colours]
Combo1 : 153,255,255
Combo2 : 255,162,208
Combo3 : 136,196,255
Combo4 : 184,112,151

[HitObjects]
0,299,1975,5,2,0:2:0:0:
77,323,2275,1,2,0:2:0:0:
155,350,2575,6,0,L|269:335,2,95.9999970703126,14|8|8,3:2|3:2|1:2,0:0:0:0:
196,245,3325,2,0,L|202:186,1,47.9999985351563,2|10,0:2|0:2,0:0:0:0:
297,145,3625,2,0,P|328:144|353:203,1,95.9999970703126,2|2,3:2|0:2,0:0:0:0:
423,283,4075,1,10,3:2:0:0:
423,283,4225,2,0,P|454:284|479:225,1,95.9999970703126,2|2,0:2|0:2,0:0:0:0:
509,128,4675,2,0,L|441:137,1,47.9999985351563,10|2,0:2|3:2,0:0:0:0:
361,140,4975,6,0,L|369:44,2,95.9999970703126,10|10|10,3:2|3:2|1:2,0:0:0:0:
361,140,5875,1,10,0:2:0:0:
309,201,6175,1,10,0:2:0:0:
251,255,6475,2,0,L|222:248,2,23.9999992675781,10|2|2,3:2|0:0|0:0,0:0:0:0:
384,238,6775,5,10,1:2:0:0:
309,201,7075,1,10,0:2:0:0:
231,164,7375,6,0,L|239:68,2,95.9999970703126,10|8|8,3:2|3:2|1:2,0:0:0:0:
158,218,8125,2,0,L|105:205,1,47.9999985351563,2|10,0:2|0:2,0:0:0:0:
24,255,8425,2,0,P|6:211|19:166,1,95.9999970703126,2|2,3:2|0:2,0:0:0:0:
122,159,8875,2,0,L|109:212,1,47.9999985351563,10|2,3:2|0:2,0:0:0:0:
134,348,9175,2,0,L|146:302,1,47.9999985351563,10|2,1:2|0:2,0:0:0:0:
237,256,9475,5,10,0:2:0:0:
237,256,9625,2,0,P|284:245|333:282,1,95.9999970703126,2|2,3:2|0:2,0:0:0:0:
323,267,10075,2,0,L|329:212,1,47.9999985351563,10|2,3:2|0:2,0:0:0:0:
403,169,10375,2,0,L|450:173,2,47.9999985351563,10|2|10,1:2|0:2|0:2,0:0:0:0:
341,106,10825,1,2,3:2:0:0:
486,20,11125,1,2,0:2:0:0:
486,20,11275,1,8,3:2:0:0:
341,106,11575,5,10,1:2:0:0:
264,130,11875,1,10,0:2:0:0:
186,157,12175,6,0,B|112:142,1,64,14|0,3:2|0:0,0:0:0:0:
63,86,12475,2,0,L|76:232,1,128,8|8,3:2|1:2,0:0:0:0:
0,310,12925,2,0,P|28:293|72:295,1,64,2|10,0:2|0:2,0:0:0:0:
160,376,13225,2,0,B|183:339|183:339|154:231,1,128,2|2,3:2|0:2,0:0:0:0:
152,153,13675,1,10,3:2:0:0:
74,213,13825,2,0,P|36:195|49:102,1,128,2|2,0:2|0:2,0:0:0:0:
117,53,14275,1,10,0:2:0:0:
152,153,14425,1,2,3:2:0:0:
152,153,14575,6,0,L|221:168,1,64,8|2,3:2|0:2,0:0:0:0:
306,100,14875,2,0,B|356:108|356:108|371:131|371:131|437:144,1,128,10|10,3:2|1:2,0:0:0:0:
491,101,15325,1,0,0:0:0:0:
491,101,15475,1,10,0:2:0:0:
355,242,15775,6,0,L|349:179,1,64,10|0,0:2|0:0,0:0:0:0:
388,68,16075,2,0,L|427:53,2,32,10|2|2,3:2|0:2|0:2,0:0:0:0:
279,117,16375,2,0,P|248:100|196:109,1,64,10|0,1:2|0:0,0:0:0:0:
127,32,16675,2,0,L|137:110,1,64,10|0,0:2|3:0,0:0:0:0:
84,213,16975,5,10,3:2:0:0:
84,213,17575,5,8,1:2:0:0:
84,213,18175,5,8,0:2:0:0:
164,241,18325,1,2,0:2:0:0:
40,352,18475,2,0,P|24:316|33:275,1,80,10|2,1:2|0:2,0:0:0:0:
93,131,18775,1,8,1:2:0:0:
164,241,18925,1,2,1:2:0:0:
1,182,19075,1,10,1:2:0:0:
1,182,19150,1,0,1:0:0:0:
1,182,19225,1,2,1:2:0:0:
256,192,19300,12,4,20425,3:2:0:0:
390,328,21325,5,2,3:2:0:0:
488,168,21475,2,0,B|452:157|452:157|474:237,1,120,2|0,1:2|0:0,0:0:0:0:
476,251,21775,6,0,L|396:238,1,80,12|2,3:2|0:2,0:0:0:0:
256,147,22075,2,0,P|166:154|146:241,1,191.999994140625,10|10,1:2|3:2,0:0:0:0:
200,374,22525,2,0,L|216:296,1,80,0|10,1:0|0:2,0:0:0:0:
64,264,22825,1,2,3:2:0:0:
64,264,23125,5,2,3:2:0:0:
104,104,23275,2,0,P|67:88|27:87,1,80,10|2,1:2|0:2,0:0:0:0:
27,87,23500,1,0,0:0:0:0:
27,87,23575,1,10,0:2:0:0:
160,184,23725,1,2,3:2:0:0:
192,56,23875,1,10,1:2:0:0:
324,111,24025,2,0,P|287:127|248:128,1,80,2|8,0:2|3:2,0:0:0:0:
386,28,24325,5,2,0:2:0:0:
386,28,24400,1,0,0:0:0:0:
386,28,24475,2,0,P|425:28|462:44,1,80,10|2,1:2|0:2,0:0:0:0:
512,160,24775,5,10,3:2:0:0:
429,184,24925,1,0,1:0:0:0:
346,208,25075,1,10,1:2:0:0:
304,352,25225,1,2,3:2:0:0:
304,352,25525,5,2,3:2:0:0:
346,208,25675,2,0,P|361:244|361:284,1,80,10|2,1:2|0:2,0:0:0:0:
216,312,25975,2,0,P|200:275|200:235,1,80,10|2,3:2|0:2,0:0:0:0:
200,235,26200,1,0,0:0:0:0:
200,235,26275,1,10,1:2:0:0:
262,165,26425,1,2,0:2:0:0:
128,64,26575,6,0,L|49:78,1,80,12|2,3:2|0:2,0:0:0:0:
0,248,26875,2,0,P|89:246|108:159,1,191.999994140625,10|10,1:2|3:2,0:0:0:0:
235,35,27325,1,0,1:0:0:0:
235,35,27625,2,0,L|220:113,1,80,2|8,3:2|0:2,0:0:0:0:
320,168,27925,5,2,3:2:0:0:
384,112,28075,1,10,1:2:0:0:
464,139,28225,1,2,0:2:0:0:
413,263,28375,6,0,L|334:249,1,80,10|2,1:2|0:2,0:0:0:0:
334,249,28600,1,0,0:0:0:0:
334,249,28675,1,10,1:2:0:0:
256,320,28825,1,2,0:2:0:0:
127,159,28975,6,0,P|51:150|1:209,1,160,10|10,3:2|1:2,0:0:0:0:
32,288,29425,2,0,L|111:301,1,80,2|8,3:2|3:2,0:0:0:0:
214,189,29725,5,2,1:2:0:0:
196,99,29875,1,10,0:2:0:0:
127,159,30025,2,0,B|228:184|203:89|303:121,1,191.999994140625,6|2,1:2|3:2,0:0:0:0:
448,192,30475,6,0,L|461:113,1,80,10|2,1:2|0:2,0:0:0:0:
512,272,30775,2,0,B|441:287|441:287|440:291|440:291|358:308,1,160,10|10,3:2|1:2,0:0:0:0:
248,384,31225,5,2,0:2:0:0:
248,384,31300,1,0,0:0:0:0:
248,384,31375,2,0,B|227:348|227:348|235:310,1,80,12|2,3:2|0:2,0:0:0:0:
151,192,31675,2,0,P|63:211|13:135,1,191.999994140625,10|10,1:2|3:2,0:0:0:0:
99,21,32125,2,0,L|111:100,1,80,0|10,1:0|0:2,0:0:0:0:
234,140,32425,1,2,3:2:0:0:
234,140,32725,5,2,3:2:0:0:
358,77,32875,2,0,P|323:61|283:61,1,80,10|2,1:2|0:2,0:0:0:0:
400,176,33175,2,0,L|478:161,1,80,10|2,3:2|0:2,0:0:0:0:
478,160,33400,1,0,0:0:0:0:
478,160,33475,1,10,1:2:0:0:
500,261,33625,2,0,L|422:276,1,80,2|8,0:2|3:2,0:0:0:0:
304,376,33925,5,2,0:2:0:0:
304,376,34000,1,0,0:0:0:0:
304,375,34075,2,0,P|319:339|318:299,1,80,10|2,1:2|0:2,0:0:0:0:
256,220,34375,5,10,3:2:0:0:
168,240,34525,1,0,1:0:0:0:
80,260,34675,1,10,1:2:0:0:
0,120,34825,1,2,3:2:0:0:
0,120,35125,5,2,3:2:0:0:
144,162,35275,2,0,P|108:177|68:177,1,80,10|2,1:2|0:2,0:0:0:0:
40,40,35575,2,0,P|77:24|117:24,1,80,10|2,3:2|0:2,0:0:0:0:
116,23,35800,1,0,0:0:0:0:
116,23,35875,1,10,1:2:0:0:
184,82,36025,1,2,0:2:0:0:
288,0,36175,6,0,L|302:78,1,80,12|2,3:2|0:2,0:0:0:0:
256,208,36475,2,0,P|305:132|394:151,1,191.999994140625,10|10,1:2|3:2,0:0:0:0:
475,316,36925,5,0,1:0:0:0:
383,304,37075,1,10,1:2:0:0:
292,292,37225,1,2,3:2:0:0:
292,292,37525,5,2,3:2:0:0:
222,356,37675,2,0,B|182:351|182:351|152:376,1,80,10|2,1:2|0:2,0:0:0:0:
72,288,37975,2,0,L|84:208,1,80,10|2,3:2|0:2,0:0:0:0:
84,208,38200,1,0,0:0:0:0:
84,208,38275,1,10,1:2:0:0:
56,48,38425,1,2,3:2:0:0:
3,148,38575,6,0,B|73:130|73:130|76:125|76:125|155:107,1,160,10|10,1:2|1:2,0:0:0:0:
248,136,39025,2,0,L|263:57,1,80,2|8,0:2|3:2,0:0:0:0:
400,176,39325,5,2,1:2:0:0:
418,266,39475,1,10,1:2:0:0:
487,206,39625,2,0,B|386:181|411:276|311:244,1,191.999994140625,6|2,1:2|3:2,0:0:0:0:
256,328,40075,2,0,L|177:344,1,80,10|2,1:2|0:2,0:0:0:0:
55,193,40375,5,10,1:2:0:0:
159,233,40525,1,2,1:2:0:0:
216,96,40675,1,10,1:2:0:0:
213,85,40750,1,0,1:0:0:0:
210,74,40825,1,0,1:0:0:0:
208,63,40900,1,0,0:0:0:0:
204,52,40975,6,0,P|127:66|69:15,2,160,6|8|0,3:2|1:2|3:0,0:0:0:0:
301,119,41725,2,0,L|287:236,1,80,2|10,3:2|0:2,0:0:0:0:
201,282,42025,6,0,P|262:243|363:290,1,160,2|0,3:2|3:0,0:0:0:0:
420,384,42475,2,0,L|429:292,1,80,8|0,1:2|3:0,0:0:0:0:
281,369,42775,2,0,L|145:387,1,120,0|0,3:0|0:0,0:0:0:0:
127,376,43075,2,0,P|108:349|115:296,1,80,10|0,1:2|1:0,0:0:0:0:
53,190,43375,6,0,B|133:180|107:246|203:238,1,160,2|10,3:2|1:2,0:0:0:0:
271,138,43825,2,0,L|185:154,1,80,2|0,0:2|3:0,0:0:0:0:
53,190,44125,2,0,L|67:111,1,80,2|8,1:2|0:2,0:0:0:0:
181,35,44425,6,0,P|238:29|268:130,1,160,2|0,3:2|3:0,0:0:0:0:
340,197,44875,2,0,P|369:170|378:129,1,80,8|0,1:2|0:0,0:0:0:0:
442,29,45175,2,0,P|471:55|480:96,1,80,0|0,3:0|3:0,0:0:0:0:
445,226,45475,2,0,P|375:188|326:205,1,120,8|0,1:2|0:0,0:0:0:0:
314,223,45775,6,0,B|253:229|253:229|231:246|231:246|127:260,1,160,2|10,3:2|1:2,0:0:0:0:
29,337,46225,2,0,P|2:301|0:264,1,80,2|0,3:2|3:0,0:0:0:0:
91,192,46525,2,0,L|79:279,1,80,2|8,3:2|1:2,0:0:0:0:
176,364,46825,6,0,P|248:357|353:348,1,160,2|0,3:2|3:0,0:0:0:0:
465,384,47275,2,0,P|484:350|481:308,1,80,8|0,1:2|3:0,0:0:0:0:
505,177,47575,2,0,P|466:188|427:197,1,80,0|0,3:0|3:0,0:0:0:0:
327,269,47875,2,0,P|297:210|320:150,1,120,10|0,1:2|0:0,0:0:0:0:
324,150,48175,6,0,B|236:141|267:206|168:193,1,160,6|10,3:2|1:2,0:0:0:0:
112,91,48625,2,0,P|162:113|201:110,1,80,2|0,0:2|3:0,0:0:0:0:
261,216,48925,2,0,L|248:315,1,80,2|8,3:2|1:2,0:0:0:0:
74,384,49225,6,0,P|19:347|30:257,1,160,6|2,3:2|3:2,0:0:0:0:
166,342,49675,1,10,1:2:0:0:
250,295,49825,1,2,3:2:0:0:
250,295,49900,1,0,0:0:0:0:
250,295,49975,2,0,L|328:308,1,80,0|2,1:0|1:2,0:0:0:0:
182,202,50275,2,0,L|260:215,1,80,0|0,1:0|1:0,0:0:0:0:
76,98,50575,6,0,L|257:128,2,160,6|8|0,3:2|1:2|3:0,0:0:0:0:
182,202,51325,2,0,L|260:215,1,80,2|10,0:2|1:2,0:0:0:0:
367,273,51625,2,0,P|426:225|414:150,1,160,2|0,3:2|3:0,0:0:0:0:
474,49,52075,2,0,P|436:61|396:66,1,80,8|0,1:2|3:0,0:0:0:0:
324,160,52375,1,0,3:0:0:0:
324,160,52525,1,0,3:0:0:0:
444,237,52675,2,0,P|456:274|461:314,1,80,10|0,1:2|1:0,0:0:0:0:
332,360,52975,6,0,P|252:344|164:335,1,160,2|10,3:2|1:2,0:0:0:0:
61,378,53425,2,0,L|48:283,1,80,2|0,0:2|3:0,0:0:0:0:
162,250,53725,2,0,L|149:155,1,80,2|8,1:2|0:2,0:0:0:0:
68,31,54025,6,0,P|127:80|204:71,1,160,2|0,3:2|3:0,0:0:0:0:
329,10,54475,2,0,L|309:181,1,160,8|0,1:2|3:0,0:0:0:0:
214,251,54925,1,0,3:0:0:0:
326,305,55075,2,0,P|373:275|439:287,1,120,10|0,1:2|0:0,0:0:0:0:
457,307,55375,6,0,L|475:148,1,160,2|10,3:2|1:2,0:0:0:0:
507,52,55825,2,0,P|468:61|428:69,1,80,2|0,3:2|3:0,0:0:0:0:
388,186,56125,2,0,P|349:176|309:168,1,80,2|8,3:2|1:2,0:0:0:0:
228,61,56425,2,0,P|169:109|181:184,1,160,2|0,3:2|3:0,0:0:0:0:
294,247,56875,2,0,P|304:193|313:156,1,80,8|0,1:2|3:0,0:0:0:0:
373,308,57175,1,0,3:0:0:0:
373,308,57325,1,0,3:0:0:0:
275,350,57475,2,0,P|229:321|161:329,1,120,10|0,1:2|0:0,0:0:0:0:
134,347,57775,6,0,P|71:307|84:220,1,160,6|10,3:2|1:2,0:0:0:0:
17,124,58225,2,0,P|62:136|117:152,1,80,2|0,0:2|1:0,0:0:0:0:
175,238,58525,1,2,3:2:0:0:
175,238,58675,1,8,3:2:0:0:
260,178,58825,2,0,L|285:11,1,160,6|0,3:2|3:0,0:0:0:0:
376,111,59275,2,0,L|361:204,1,80,0|0,1:0|1:0,0:0:0:0:
435,309,59575,2,0,P|466:267|456:220,1,80,0|0,1:0|1:0,0:0:0:0:
457,222,59800,1,0,1:0:0:0:
457,223,59875,1,0,1:0:0:0:
321,287,60025,5,0,1:0:0:0:
321,287,60100,1,0,1:0:0:0:
321,287,60175,2,0,P|243:267|164:255,2,160,4|8|2,3:2|1:2|3:2,0:0:0:0:
363,189,60925,2,0,P|353:150|343:111,1,80,0|10,0:0|1:2,0:0:0:0:
433,57,61225,2,0,P|360:75|316:14,1,160,0|0,3:0|3:0,0:0:0:0:
240,88,61675,2,0,P|200:80|161:72,1,80,8|0,1:2|3:0,0:0:0:0:
36,15,61975,2,0,P|71:-3|110:0,1,80,2|0,0:2|3:0,0:0:0:0:
181,158,62275,5,10,1:2:0:0:
112,228,62425,1,0,1:0:0:0:
147,321,62575,2,0,B|62:300|83:379|0:352,2,160,2|10|0,3:2|1:2|3:0,0:0:0:0:
224,384,63325,2,0,L|303:370,1,80,2|8,1:2|0:2,0:0:0:0:
425,381,63625,6,0,P|466:306|434:242,1,160,2|0,3:2|3:0,0:0:0:0:
355,214,64075,2,0,P|316:225|278:236,1,80,8|0,1:2|0:0,0:0:0:0:
94,150,64375,5,0,3:0:0:0:
94,150,64525,1,0,3:0:0:0:
159,209,64675,2,0,B|186:174|186:174|167:100,1,120,8|0,1:2|0:0,0:0:0:0:
161,72,64975,6,0,B|76:93|97:14|14:41,2,160,0|8|2,3:0|1:2|3:2,0:0:0:0:
224,16,65725,1,0,0:0:0:0:
255,128,65875,2,0,P|245:166|239:206,1,80,10|0,1:2|3:0,0:0:0:0:
252,251,66100,5,0,0:0:0:0:
252,251,66175,1,2,0:2:0:0:
140,220,66325,1,0,3:0:0:0:
152,376,66475,6,0,P|170:341|171:301,1,80,8|0,1:2|1:0,0:0:0:0:
72,280,66775,2,0,P|53:314|52:354,1,80,2|0,3:2|3:0,0:0:0:0:
252,251,67075,2,0,B|313:239|313:239|316:242|316:242|368:231,1,120,10|0,1:2|0:0,0:0:0:0:
444,292,67375,6,0,B|401:253|401:253|422:153,1,160,6|10,3:2|1:2,0:0:0:0:
360,56,67825,2,0,L|439:40,1,80,2|0,0:2|3:0,0:0:0:0:
304,136,68125,1,2,0:2:0:0:
212,108,68275,1,8,1:2:0:0:
136,8,68425,6,0,P|58:8|8:68,1,160,6|0,3:2|3:0,0:0:0:0:
44,144,68875,2,0,L|124:128,1,80,8|0,1:2|3:0,0:0:0:0:
122,128,69100,1,0,0:0:0:0:
122,128,69175,5,0,1:0:0:0:
88,268,69325,1,0,1:0:0:0:
264,356,69475,1,0,1:0:0:0:
298,216,69625,1,0,1:0:0:0:
232,272,69775,6,0,B|317:293|296:214|379:241,2,160,4|10|2,3:2|1:2|3:2,0:0:0:0:
172,372,70525,2,0,B|144:348|144:348|104:362,1,80,2|8,0:2|1:2,0:0:0:0:
0,240,70825,6,0,P|52:184|132:184,1,160,2|0,3:2|3:0,0:0:0:0:
198,101,71275,2,0,L|182:22,1,80,8|0,1:2|3:0,0:0:0:0:
182,22,71500,1,0,0:0:0:0:
182,22,71575,6,0,P|254:0|308:53,1,160,2|10,3:2|1:2,0:0:0:0:
282,153,72025,1,0,1:0:0:0:
436,112,72175,6,0,B|366:129|366:129|363:133|363:133|282:153,1,160,2|10,3:2|1:2,0:0:0:0:
328,298,72625,2,0,P|344:261|339:222,1,80,2|0,0:2|3:0,0:0:0:0:
202,198,72925,2,0,P|185:234|190:273,1,80,2|8,1:2|0:2,0:0:0:0:
250,331,73225,6,0,B|165:310|186:389|103:362,1,160,2|0,3:2|3:0,0:0:0:0:
32,304,73675,2,0,L|44:224,1,80,8|0,1:2|0:0,0:0:0:0:
44,224,73900,1,0,0:0:0:0:
44,224,73975,1,0,3:0:0:0:
120,176,74125,1,0,3:0:0:0:
80,96,74275,2,0,L|0:108,1,80,8|0,1:2|0:0,0:0:0:0:
220,24,74575,6,0,P|296:30|333:97,1,160,2|10,3:2|1:2,0:0:0:0:
284,180,75025,2,0,L|205:165,1,80,2|0,3:2|3:0,0:0:0:0:
336,260,75325,2,0,B|376:268|376:268|408:245,1,80,2|8,3:2|1:2,0:0:0:0:
356,384,75625,6,0,B|296:372|296:372|276:348|276:348|209:335,1,160,2|0,3:2|3:0,0:0:0:0:
102,279,76075,2,0,P|68:298|28:299,1,80,10|0,1:2|1:0,0:0:0:0:
28,299,76300,1,0,0:0:0:0:
28,299,76375,2,0,L|10:221,1,80,2|0,3:2|3:0,0:0:0:0:
96,64,76675,2,0,B|138:91|138:91|123:159,1,120,10|0,1:2|0:0,0:0:0:0:
139,173,76975,6,0,L|218:157,1,80,6|0,3:2|0:0,0:0:0:0:
397,10,77275,6,0,P|339:8|309:57,1,120,0|0,1:0|0:0,0:0:0:0:
319,70,77575,1,0,1:0:0:0:
478,36,77725,1,0,3:0:0:0:
512,195,77875,1,8,3:2:0:0:
352,229,78025,1,4,3:2:0:0:
352,229,78325,6,0,L|345:269,1,40,2|0,0:2|0:0,0:0:0:0:
424,278,78475,2,0,L|431:238,1,40,2|0,0:2|0:0,0:0:0:0:
125,374,78737,6,0,P|110:347|111:315,1,64,2|0,0:2|0:0,0:0:0:0:
194,294,79056,2,0,P|209:321|208:353,1,64,2|0,0:2|0:0,0:0:0:0:
18,275,79375,6,0,L|201:294,2,176.000005371094,6|8|0,3:2|1:2|3:0,0:0:0:0:
136,207,80125,1,2,0:2:0:0:
18,86,80275,1,10,1:2:0:0:
77,147,80425,2,0,B|176:137|154:225|251:204,1,176.000005371094,2|2,3:2|0:2,0:0:0:0:
349,184,80875,1,10,1:2:0:0:
260,286,81025,2,0,P|262:213|372:197,1,176.000005371094,2|2,3:2|3:2,0:0:0:0:
505,337,81475,5,10,1:2:0:0:
426,232,81625,1,2,3:2:0:0:
512,252,81775,2,0,B|413:242|435:330|338:309,2,176.000005371094,0|8|0,3:2|1:2|3:0,0:0:0:0:
416,144,82525,2,0,L|428:250,1,88.000002685547,0|8,1:0|0:2,0:0:0:0:
283,384,82825,6,0,L|265:204,1,176.000005371094,0|0,3:0|3:0,0:0:0:0:
216,65,83275,1,8,1:2:0:0:
321,130,83425,1,0,0:0:0:0:
184,195,83575,2,0,P|144:177|100:182,1,88.000002685547,2|0,3:2|3:0,0:0:0:0:
87,268,83875,2,0,P|126:285|170:280,1,88.000002685547,10|0,1:2|0:0,0:0:0:0:
322,362,84175,6,0,L|502:384,2,176.000005371094,2|8|0,3:2|1:2|3:0,0:0:0:0:
166,276,84925,1,2,0:2:0:0:
270,221,85075,1,10,1:2:0:0:
166,276,85225,2,0,L|181:369,1,88.000002685547,2|0,3:2|0:0,0:0:0:0:
20,189,85525,5,2,0:2:0:0:
108,202,85675,2,0,L|206:177,1,88.000002685547,10|2,1:2|3:2,0:0:0:0:
310,57,85975,1,2,0:2:0:0:
403,206,86125,1,2,3:2:0:0:
433,87,86275,1,10,1:2:0:0:
288,185,86425,6,0,L|309:364,1,176.000005371094,2|2,3:2|0:2,0:0:0:0:
402,384,86875,2,0,B|414:346|414:346|394:301,1,88.000002685547,6|2,1:2|0:2,0:0:0:0:
256,266,87175,2,0,L|166:251,2,88.000002685547,2|2|2,0:2|0:2|1:2,0:0:0:0:
369,132,87625,6,0,B|499:148|499:148|457:178,1,176.000005371094,6|2,3:2|3:2,0:0:0:0:
288,185,88075,2,0,L|277:75,1,88.000002685547,0|0,1:0|3:0,0:0:0:0:
133,24,88375,5,2,1:2:0:0:
164,108,88525,1,0,1:0:0:0:
31,218,88675,5,2,1:2:0:0:
62,134,88825,1,0,1:0:0:0:
198,204,88975,6,0,L|388:232,2,176.000005371094,6|8|0,3:2|1:2|3:0,0:0:0:0:
6,94,89725,1,2,0:2:0:0:
108,261,89875,1,10,1:2:0:0:
52,322,90025,2,0,L|75:125,1,176.000005371094,2|2,3:2|0:2,0:0:0:0:
241,67,90475,1,10,1:2:0:0:
174,0,90625,2,0,B|142:44|142:44|176:172,1,176.000005371094,2|2,3:2|3:2,0:0:0:0:
284,271,91075,2,0,L|293:179,1,88.000002685547,10|2,1:2|3:2,0:0:0:0:
312,162,91300,5,0,0:0:0:0:
312,162,91375,2,0,B|413:149|381:224|477:212,2,176.000005371094,0|8|0,3:2|1:2|3:0,0:0:0:0:
426,58,92125,2,0,L|408:171,1,88.000002685547,0|8,1:0|0:2,0:0:0:0:
330,248,92425,2,0,P|278:188|179:201,1,176.000005371094,0|0,3:0|3:0,0:0:0:0:
84,296,92875,2,0,L|205:277,1,88.000002685547,8|0,1:2|0:0,0:0:0:0:
251,137,93175,1,2,3:2:0:0:
107,185,93325,1,0,3:0:0:0:
154,28,93475,2,0,L|170:135,1,88.000002685547,10|0,1:2|0:0,0:0:0:0:
277,229,93775,6,0,B|342:237|342:237|367:263|367:263|446:272,2,176.000005371094,2|8|0,3:2|1:2|3:0,0:0:0:0:
124,283,94525,1,2,0:2:0:0:
286,317,94675,1,10,1:2:0:0:
213,352,94825,2,0,L|190:143,1,176.000005371094,2|2,3:2|0:2,0:0:0:0:
113,74,95275,2,0,B|94:117|94:117|109:156,1,88.000002685547,10|2,1:2|3:2,0:0:0:0:
245,243,95575,5,2,0:2:0:0:
351,91,95725,1,2,3:2:0:0:
456,222,95875,2,0,P|415:200|371:198,1,88.000002685547,10|2,1:2|3:2,0:0:0:0:
351,211,96100,5,0,0:0:0:0:
351,211,96175,2,0,L|367:393,2,176.000005371094,0|0|0,0:0|1:0|1:0,0:0:0:0:
266,65,96925,1,8,0:3:0:0:
354,110,97075,1,4,0:3:0:0:
212,213,97225,1,4,3:2:0:0:
212,213,97525,5,2,1:2:0:0:
285,313,97675,2,0,L|295:257,4,44.0000013427735,2|0|2|0|0,3:2|3:0|3:2|3:0|3:0,0:0:0:0:
205,368,98125,1,2,3:2:0:0:
55,300,98275,2,0,B|154:284|154:284|122:322,1,132.00000402832,2|0,1:2|0:0,0:0:0:0:
133,308,98575,1,12,3:2:0:0:
360,368,117475,5,10,1:2:0:0:
363,357,117550,1,0,1:0:0:0:
366,346,117625,1,0,1:0:0:0:
368,335,117700,1,0,0:0:0:0:
372,324,117775,2,0,P|448:337|506:285,2,160,6|8|0,3:2|1:2|3:0,0:0:0:0:
297,276,118525,2,0,L|218:290,1,80,2|10,3:2|1:2,0:0:0:0:
27,126,118825,6,0,P|85:128|127:169,1,120,2|0,3:2|0:0,0:0:0:0:
123,180,119125,2,0,L|137:258,1,80,0|8,3:0|1:2,0:0:0:0:
70,320,119425,1,0,3:0:0:0:
218,290,119575,2,0,B|133:269|154:348|71:321,1,160,0|10,3:0|1:2,0:0:0:0:
137,258,120025,1,0,1:0:0:0:
204,371,120175,6,0,P|253:313|329:322,1,160,2|10,3:2|1:2,0:0:0:0:
386,382,120625,2,0,L|464:365,1,80,2|0,0:2|3:0,0:0:0:0:
512,256,120925,2,0,B|477:234|477:234|442:249,1,80,2|8,1:2|0:2,0:0:0:0:
320,128,121225,6,0,P|343:58|414:72,1,160,2|0,3:2|3:0,0:0:0:0:
328,140,121675,2,0,L|249:126,1,80,8|0,1:2|0:0,0:0:0:0:
13,161,121975,6,0,B|96:134|75:213|160:192,1,160,0|8,3:0|1:2,0:0:0:0:
168,108,122425,1,0,0:0:0:0:
120,288,122575,6,0,P|173:232|248:247,1,160,2|10,3:2|1:2,0:0:0:0:
404,312,123025,6,0,L|485:289,1,80,2|0,3:2|3:0,0:0:0:0:
312,199,123325,2,0,P|328:234|326:274,1,80,2|8,3:2|1:2,0:0:0:0:
196,308,123625,6,0,L|217:149,1,160,2|0,3:2|3:0,0:0:0:0:
107,43,124075,2,0,B|98:81|98:81|122:113,1,80,8|0,1:2|3:0,0:0:0:0:
268,10,124375,2,0,L|189:0,1,80,0|0,3:0|3:0,0:0:0:0:
320,96,124675,2,0,B|352:64|352:64|425:75,1,120,10|0,1:2|0:0,0:0:0:0:
437,71,124975,6,0,B|458:156|380:125|406:218,1,160,6|10,3:2|1:2,0:0:0:0:
408,375,125425,2,0,P|387:341|387:301,1,80,2|0,0:2|3:0,0:0:0:0:
471,275,125725,2,0,P|491:308|491:348,1,80,2|8,3:2|1:2,0:0:0:0:
406,218,126025,6,0,B|333:233|333:233|330:240|330:240|253:258,1,160,6|2,3:2|3:2,0:0:0:0:
80,224,126475,1,10,1:2:0:0:
144,344,126625,2,0,B|167:312|167:312|160:271,1,80,2|0,3:2|1:0,0:0:0:0:
47,76,126925,5,2,1:2:0:0:
80,224,127075,1,0,1:0:0:0:
191,121,127225,1,0,1:0:0:0:
107,140,127375,6,0,B|192:119|161:197|254:171,2,160,6|8|0,3:2|1:2|3:0,0:0:0:0:
204,28,128125,5,2,0:2:0:0:
276,82,128275,1,10,1:2:0:0:
359,47,128425,2,0,B|403:71|403:71|378:178,1,160,2|0,3:2|3:0,0:0:0:0:
340,280,128875,1,8,1:2:0:0:
457,235,129025,6,0,P|382:219|339:281,1,160,0|0,3:0|3:0,0:0:0:0:
280,344,129475,2,0,L|201:329,1,80,10|0,1:2|1:0,0:0:0:0:
16,256,129775,6,0,P|60:195|134:212,1,160,2|10,3:2|1:2,0:0:0:0:
167,120,130225,2,0,P|152:83|145:43,1,80,2|0,0:2|3:0,0:0:0:0:
230,20,130525,2,0,P|244:56|251:96,1,80,2|8,1:2|0:2,0:0:0:0:
330,143,130825,6,0,P|408:127|478:90,1,160,2|0,3:2|3:0,0:0:0:0:
428,174,131275,1,8,1:2:0:0:
477,264,131425,5,0,0:0:0:0:
477,264,131500,1,0,0:0:0:0:
477,264,131575,2,0,P|475:303|464:342,1,80,0|0,3:0|3:0,0:0:0:0:
361,324,131875,2,0,P|362:284|373:245,1,80,10|0,1:2|0:0,0:0:0:0:
283,381,132175,6,0,P|219:335|142:344,1,160,2|10,3:2|1:2,0:0:0:0:
66,384,132625,1,2,3:2:0:0:
10,219,132775,5,0,3:0:0:0:
91,251,132925,2,0,L|168:230,1,80,2|8,3:2|1:2,0:0:0:0:
195,79,133225,6,0,P|121:72|94:141,1,160,2|0,3:2|3:0,0:0:0:0:
208,92,133675,1,8,1:2:0:0:
288,120,133825,1,0,3:0:0:0:
344,56,133975,2,0,P|378:36|418:35,1,80,0|0,3:0|3:0,0:0:0:0:
444,132,134275,2,0,P|409:151|369:152,1,80,10|0,1:2|0:0,0:0:0:0:
303,311,134575,6,0,P|342:246|417:255,1,160,6|10,3:2|1:2,0:0:0:0:
312,328,135025,2,0,P|272:319|233:316,1,80,2|0,0:2|1:0,0:0:0:0:
164,376,135325,1,2,3:2:0:0:
164,376,135475,1,8,3:2:0:0:
24,308,135625,6,0,P|62:242|137:251,1,160,6|0,3:2|3:0,0:0:0:0:
197,195,136075,2,0,P|189:156|180:117,1,80,0|0,1:0|1:0,0:0:0:0:
307,14,136375,2,0,P|298:53|290:92,1,80,2|0,1:2|1:0,0:0:0:0:
289,92,136600,1,0,1:0:0:0:
289,92,136675,1,0,1:0:0:0:
360,224,136825,5,0,1:0:0:0:
360,224,136900,1,0,1:0:0:0:
360,224,136975,2,0,B|441:208|422:280|509:255,2,160,4|8|2,3:2|1:2|3:2,0:0:0:0:
255,300,137725,2,0,L|242:222,1,80,0|10,0:0|1:2,0:0:0:0:
132,128,138025,6,0,L|152:286,1,160,0|0,3:0|3:0,0:0:0:0:
60,372,138475,2,0,B|43:334|43:334|60:288,1,80,8|0,1:2|3:0,0:0:0:0:
189,364,138775,5,2,0:2:0:0:
255,300,138925,1,0,3:0:0:0:
172,285,139075,5,10,1:2:0:0:
276,384,139225,1,0,1:0:0:0:
333,252,139375,2,0,B|396:264|396:264|417:289|417:289|493:300,2,160,2|10|2,3:2|1:2|3:2,0:0:0:0:
172,285,140125,2,0,P|150:252|152:213,1,80,2|8,1:2|0:2,0:0:0:0:
265,55,140425,6,0,L|245:225,1,160,2|0,3:2|3:0,0:0:0:0:
170,99,140875,2,0,L|72:86,1,80,8|0,1:2|0:0,0:0:0:0:
21,171,141175,1,0,3:0:0:0:
21,171,141325,1,0,3:0:0:0:
125,261,141475,2,0,L|112:163,1,80,8|0,1:2|0:0,0:0:0:0:
170,13,141775,6,0,B|89:-3|108:69|21:44,2,160,0|8|2,3:0|1:2|3:2,0:0:0:0:
260,85,142525,2,0,L|275:7,1,80,0|10,0:0|1:2,0:0:0:0:
366,73,142825,2,0,P|352:149|283:183,1,160,0|0,3:0|3:0,0:0:0:0:
103,145,143275,2,0,L|196:135,1,80,8|0,1:2|1:0,0:0:0:0:
371,202,143575,5,2,3:2:0:0:
305,265,143725,1,0,3:0:0:0:
283,181,143875,1,10,1:2:0:0:
283,181,144025,1,0,1:0:0:0:
146,285,144175,6,0,L|320:263,1,160,6|10,3:2|1:2,0:0:0:0:
467,346,144625,2,0,P|503:295|494:262,1,80,2|0,0:2|3:0,0:0:0:0:
394,193,144925,2,0,L|409:285,1,80,2|8,0:2|1:2,0:0:0:0:
336,384,145225,6,0,P|276:332|201:356,1,160,6|0,3:2|3:0,0:0:0:0:
68,297,145675,2,0,L|62:202,1,80,8|0,1:2|3:0,0:0:0:0:
235,73,145975,5,0,1:0:0:0:
214,161,146125,1,0,1:0:0:0:
78,124,146275,5,0,1:0:0:0:
99,36,146425,1,0,1:0:0:0:
214,161,146575,6,0,L|320:145,1,80,4|0,3:2|0:0,0:0:0:0:
390,60,146875,2,0,L|373:243,1,160,10|2,1:2|3:2,0:0:0:0:
470,316,147325,2,0,B|485:279|485:279|464:230,1,80,2|8,0:2|1:2,0:0:0:0:
319,320,147625,6,0,P|249:326|130:339,1,160,2|0,3:2|3:0,0:0:0:0:
22,219,148075,1,8,1:2:0:0:
136,254,148225,1,0,3:0:0:0:
70,384,148375,2,0,L|61:295,1,80,2|0,3:2|3:0,0:0:0:0:
112,138,148675,1,10,1:2:0:0:
22,219,148825,1,0,1:0:0:0:
159,335,148975,6,0,P|211:295|195:195,1,160,2|10,3:2|1:2,0:0:0:0:
115,58,149425,2,0,L|111:137,1,80,2|0,0:2|3:0,0:0:0:0:
205,207,149725,2,0,L|208:127,1,80,2|8,1:2|0:2,0:0:0:0:
337,17,150025,6,0,P|406:27|436:110,1,160,2|0,3:2|3:0,0:0:0:0:
337,207,150475,2,0,L|328:106,1,80,8|0,1:2|0:0,0:0:0:0:
463,195,150775,1,0,3:0:0:0:
405,285,150925,2,0,P|363:252|254:266,1,160,0|0,3:0|0:0,0:0:0:0:
133,363,151375,6,0,L|126:275,1,80,2|0,3:2|0:0,0:0:0:0:
78,135,151675,1,10,1:2:0:0:
222,186,151825,2,0,L|137:205,1,80,2|0,3:2|3:0,0:0:0:0:
0,118,152125,2,0,L|85:137,1,80,2|8,3:2|1:2,0:0:0:0:
292,24,152425,6,0,B|202:11|231:74|142:67,1,160,2|0,3:2|3:0,0:0:0:0:
6,210,152875,1,10,1:2:0:0:
62,52,153025,1,0,1:0:0:0:
166,169,153175,2,0,L|253:191,1,80,2|0,3:2|3:0,0:0:0:0:
352,278,153475,2,0,P|387:249|394:208,1,80,10|0,1:2|1:0,0:0:0:0:
317,30,153775,6,0,L|325:128,1,80,6|0,3:2|0:0,0:0:0:0:
488,179,154075,2,0,L|484:96,1,80,0|0,1:0|0:0,0:0:0:0:
320,29,154375,5,0,1:0:0:0:
481,27,154525,1,0,3:0:0:0:
488,179,154675,1,8,3:2:0:0:
330,191,154825,1,4,3:2:0:0:
463,325,155125,6,0,L|467:298,2,20,2|0|0,0:2|0:0|0:0,0:0:0:0:
456,353,155275,6,0,L|369:341,1,80,8|0,0:2|0:0,0:0:0:0:
167,225,155575,6,0,P|152:252|153:284,1,64,10|0,0:2|0:0,0:0:0:0:
236,305,155875,2,0,P|251:278|250:246,1,64,10|0,0:2|0:0,0:0:0:0:
196,128,156175,6,0,B|118:143|118:143|113:150|113:150|26:168,2,176.000005371094,6|8|0,3:2|1:2|3:0,0:0:0:0:
336,32,156925,5,2,0:2:0:0:
416,56,157075,1,10,1:2:0:0:
472,0,157225,2,0,B|500:100|416:68|440:164,1,176.000005371094,2|2,3:2|0:2,0:0:0:0:
424,244,157675,5,10,1:2:0:0:
502,267,157825,2,0,P|467:242|424:243,1,88.000002685547,2|0,3:2|0:0,0:0:0:0:
387,380,158125,5,2,3:2:0:0:
387,380,158200,1,0,0:0:0:0:
387,380,158275,2,0,P|362:345|363:302,1,88.000002685547,10|2,1:2|3:2,0:0:0:0:
283,272,158575,6,0,P|370:269|441:319,2,176.000005371094,0|8|0,3:2|1:2|3:0,0:0:0:0:
196,232,159325,2,0,P|159:256|116:257,1,88.000002685547,0|8,1:0|0:2,0:0:0:0:
76,344,159625,6,0,B|104:244|20:280|44:180,1,176.000005371094,0|0,3:0|3:0,0:0:0:0:
0,88,160075,2,0,L|88:72,1,88.000002685547,8|0,1:2|0:0,0:0:0:0:
95,65,160300,1,0,0:0:0:0:
103,58,160375,2,0,P|96:100|118:137,1,88.000002685547,2|0,3:2|3:0,0:0:0:0:
208,116,160675,2,0,P|215:73|193:36,1,88.000002685547,10|0,1:2|0:0,0:0:0:0:
180,196,160975,6,0,P|243:140|327:156,2,176.000005371094,2|8|0,3:2|1:2|3:0,0:0:0:0:
128,280,161725,1,2,0:2:0:0:
36,236,161875,1,10,1:2:0:0:
52,352,162025,6,0,B|152:380|116:296|216:320,1,176.000005371094,2|2,3:2|0:2,0:0:0:0:
280,380,162475,2,0,L|365:360,1,88.000002685547,10|2,1:2|3:2,0:0:0:0:
448,232,162775,5,2,0:2:0:0:
352,212,162925,1,2,3:2:0:0:
256,192,163075,1,10,1:2:0:0:
193,36,163225,6,0,B|134:50|134:50|122:75|110:100|110:100|51:113,1,176.000005371094,2|2,3:2|0:2,0:0:0:0:
51,112,163600,1,0,0:0:0:0:
51,112,163675,2,0,B|68:152|68:152|45:190,1,88.000002685547,6|2,1:2|0:2,0:0:0:0:
0,336,163975,5,2,0:2:0:0:
95,314,164125,1,2,0:2:0:0:
190,292,164275,1,2,1:2:0:0:
365,359,164425,6,0,B|378:300|378:300|403:288|428:276|428:276|442:217,1,176.000005371094,6|2,3:2|0:2,0:0:0:0:
384,152,164875,2,0,L|297:169,1,88.000002685547,0|0,1:0|3:0,0:0:0:0:
297,168,165100,1,0,0:0:0:0:
297,168,165175,1,2,1:2:0:0:
268,12,165325,1,0,1:0:0:0:
110,41,165475,1,2,1:2:0:0:
139,199,165625,1,0,1:0:0:0:
204,106,165775,6,0,B|108:86|136:162|40:142,2,176.000005371094,6|8|0,3:2|1:2|3:0,0:0:0:0:
339,152,166525,5,2,0:2:0:0:
424,193,166675,1,10,1:2:0:0:
479,112,166825,2,0,L|458:286,1,176.000005371094,2|2,3:2|0:2,0:0:0:0:
364,324,167275,5,10,1:2:0:0:
491,382,167425,2,0,P|446:311|364:324,1,176.000005371094,2|2,3:2|3:2,0:0:0:0:
288,372,167875,1,10,1:2:0:0:
177,279,168025,5,2,3:2:0:0:
177,279,168100,1,0,0:0:0:0:
177,279,168175,2,0,L|203:105,2,176.000005371094,0|8|0,3:2|1:2|3:0,0:0:0:0:
96,376,168925,2,0,B|72:340|72:340|83:297,1,88.000002685547,0|8,1:0|0:2,0:0:0:0:
224,196,169225,6,0,B|320:176|288:252|388:228,1,176.000005371094,0|0,3:0|3:0,0:0:0:0:
493,253,169675,2,0,L|509:166,1,88.000002685547,8|0,1:2|0:0,0:0:0:0:
508,166,169900,1,0,0:0:0:0:
508,166,169975,1,2,3:2:0:0:
356,144,170125,1,0,3:0:0:0:
459,22,170275,2,0,L|443:109,1,88.000002685547,10|0,1:2|0:0,0:0:0:0:
353,297,170575,6,0,B|423:308|423:308|433:322|443:336|443:336|513:347,2,176.000005371094,2|8|0,3:2|1:2|3:0,0:0:0:0:
280,324,171325,1,2,0:2:0:0:
124,348,171475,5,10,1:2:0:0:
200,379,171625,2,0,B|220:283|144:311|164:215,1,176.000005371094,2|2,3:2|0:2,0:0:0:0:
100,88,172075,2,0,P|61:108|18:107,1,88.000002685547,10|2,1:2|3:2,0:0:0:0:
17,106,172300,1,0,0:0:0:0:
17,106,172375,1,2,0:2:0:0:
88,188,172525,1,2,3:2:0:0:
192,116,172675,2,0,P|193:72|173:33,1,88.000002685547,10|2,1:2|3:2,0:0:0:0:
173,33,172900,1,0,0:0:0:0:
173,33,172975,6,0,P|259:18|346:4,2,176.000005371094,0|0|0,3:2|1:0|1:0,0:0:0:0:
48,208,173725,1,8,0:3:0:0:
12,64,173875,1,4,0:3:0:0:
209,177,174025,1,4,3:2:0:0:
209,177,174325,5,2,1:2:0:0:
272,96,174475,2,0,L|263:52,4,44.0000013427735,2|0|2|0|0,3:2|3:0|3:2|3:0|3:0,0:0:0:0:
392,136,174925,6,0,B|422:22|422:22|408:48|376:57,1,176.000005371094,2|2,3:2|3:2,0:0:0:0:
296,115,175375,5,4,3:2:0:0:
416,217,175525,2,0,L|502:203,2,71.9999978027344,0|8|0,0:0|1:2|0:0,0:0:0:0:
328,291,175975,5,10,3:2:0:0:
250,259,176125,1,2,1:2:0:0:
176,369,176275,5,10,0:2:0:0:
254,337,176425,1,2,3:2:0:0:
166,229,176575,6,0,P|107:291|29:278,1,143.999995605469,10|10,0:2|1:2,0:0:0:0:
6,183,177025,2,0,L|94:204,1,71.9999978027344,2|8,0:2|3:2,0:0:0:0:
151,116,177325,2,0,L|146:36,2,71.9999978027344,8|8|8,3:2|1:2|3:2,0:0:0:0:
251,186,177775,6,0,B|331:184|308:236|400:237,1,143.999995605469,10|10,3:2|1:2,0:0:0:0:
457,136,178225,2,0,P|396:151|363:154,1,71.9999978027344,2|8,0:2|3:2,0:0:0:0:
291,68,178525,1,2,1:2:0:0:
291,68,178675,1,8,1:2:0:0:
251,186,178825,6,0,P|263:257|276:360,1,143.999995605469,2|0,3:2|3:0,0:0:0:0:
367,373,179275,2,0,B|377:340|377:340|353:281,1,71.9999978027344,8|0,1:2|0:0,0:0:0:0:
219,263,179575,1,8,3:2:0:0:
219,263,179725,1,0,3:0:0:0:
139,320,179875,2,0,L|67:309,1,71.9999978027344,8|0,1:2|0:0,0:0:0:0:
47,165,180175,5,4,3:2:0:0:
131,248,180325,2,0,L|140:330,2,71.9999978027344,0|8|0,0:0|1:2|0:0,0:0:0:0:
199,87,180775,5,10,3:2:0:0:
121,55,180925,1,2,1:2:0:0:
47,165,181075,5,10,0:2:0:0:
125,133,181225,1,2,3:2:0:0:
274,181,181375,6,0,L|290:37,1,143.999995605469,10|10,0:2|1:2,0:0:0:0:
423,21,181825,2,0,L|416:92,1,71.9999978027344,2|8,0:2|1:2,0:0:0:0:
370,204,182125,2,0,L|446:218,2,71.9999978027344,0|8|0,3:0|1:2|0:0,0:0:0:0:
218,271,182575,6,0,P|174:225|193:132,1,143.999995605469,14|10,3:2|1:2,0:0:0:0:
290,110,183025,2,0,P|275:171|272:204,1,71.9999978027344,2|8,0:2|3:2,0:0:0:0:
131,309,183325,2,0,P|176:266|240:288,1,107.999996704102,2|0,1:2|0:0,0:0:0:0:
252,288,183625,6,0,P|323:297|394:309,1,143.999995605469,6|0,1:2|3:0,0:0:0:0:
469,380,184075,2,0,P|488:350|488:314,1,71.9999978027344,8|0,1:2|0:0,0:0:0:0:
379,151,184375,2,0,P|359:180|359:216,1,71.9999978027344,8|0,3:2|0:0,0:0:0:0:
252,288,184675,2,0,L|160:297,1,71.9999978027344,8|0,1:2|0:0,0:0:0:0:
42,152,184975,6,0,B|119:145|91:215|182:203,1,143.999995605469,6|10,3:2|1:2,0:0:0:0:
252,288,185425,2,0,L|264:202,1,71.9999978027344,2|8,0:2|3:2,0:0:0:0:
179,132,185725,2,0,L|169:203,1,71.9999978027344,2|8,1:2|0:2,0:0:0:0:
31,304,186025,2,0,B|84:294|84:294|114:309|114:309|176:297,1,143.999995605469,2|0,3:2|3:0,0:0:0:0:
315,356,186475,2,0,L|466:344,2,143.999995605469,8|8|10,1:2|3:2|1:2,0:0:0:0:
256,255,187225,1,2,0:2:0:0:
382,306,187375,6,0,B|398:266|398:266|364:149,1,143.999995605469,10|10,3:2|1:2,0:0:0:0:
459,55,187825,2,0,P|420:93|391:94,1,71.9999978027344,2|8,0:2|3:2,0:0:0:0:
252,74,188125,1,2,1:2:0:0:
355,18,188275,1,8,1:2:0:0:
297,147,188425,6,0,P|234:108|165:123,1,143.999995605469,2|0,3:2|3:0,0:0:0:0:
0,197,188875,2,0,B|102:180|102:180|116:197|145:204,1,143.999995605469,8|8,1:2|3:2,0:0:0:0:
300,280,189325,1,0,3:0:0:0:
221,192,189475,2,0,L|212:282,1,71.9999978027344,8|0,1:2|0:0,0:0:0:0:
250,384,189775,6,0,B|173:383|216:321|103:327,1,143.999995605469,6|10,3:2|1:2,0:0:0:0:
3,260,190225,2,0,L|87:249,1,71.9999978027344,2|8,0:2|3:2,0:0:0:0:
218,190,190525,1,2,1:2:0:0:
119,153,190675,1,8,1:2:0:0:
163,256,190825,6,0,P|204:225|306:247,1,143.999995605469,2|0,3:2|3:0,0:0:0:0:
406,227,191275,2,0,P|431:187|426:152,1,71.9999978027344,10|0,1:2|0:0,0:0:0:0:
307,47,191575,2,0,P|309:82|331:110,1,71.9999978027344,10|0,3:2|0:0,0:0:0:0:
488,84,191875,2,0,L|410:70,1,71.9999978027344,10|0,1:2|3:0,0:0:0:0:
226,112,192175,5,4,0:2:0:0:
307,47,192325,1,8,0:2:0:0:
322,150,192475,2,0,L|336:226,1,71.9999978027344,8|8,3:2|0:2,0:0:0:0:
337,238,192700,5,0,1:0:0:0:
341,242,192775,1,8,1:2:0:0:
207,209,192925,1,8,1:2:0:0:
169,344,193075,1,8,1:2:0:0:
309,384,193225,1,8,1:2:0:0:
309,384,193975,5,2,1:2:0:0:
169,344,194125,1,0,1:0:0:0:
208,200,194275,1,2,1:2:0:0:
205,189,194350,1,0,1:0:0:0:
202,178,194425,1,0,1:0:0:0:
200,167,194500,1,0,0:0:0:0:
196,156,194575,6,0,B|96:176|132:100|31:118,2,176.000005371094,6|8|0,3:2|1:2|3:0,0:0:0:0:
336,64,195325,5,2,0:2:0:0:
440,92,195475,1,10,1:2:0:0:
404,0,195625,2,0,B|421:99|345:63|365:163,1,176.000005371094,2|2,3:2|0:2,0:0:0:0:
364,288,196075,5,10,1:2:0:0:
498,256,196225,2,0,P|466:232|418:232,1,88.000002685547,2|0,3:2|0:0,0:0:0:0:
388,366,196525,1,2,3:2:0:0:
388,366,196600,1,0,0:0:0:0:
388,366,196675,2,0,P|364:334|364:286,1,88.000002685547,10|2,1:2|3:2,0:0:0:0:
282,260,196975,6,0,P|368:253|438:305,2,176.000005371094,0|8|0,3:2|1:2|3:0,0:0:0:0:
148,359,197725,1,0,1:0:0:0:
233,334,197875,1,8,0:2:0:0:
66,323,198025,1,0,3:0:0:0:
66,323,198325,5,0,3:0:0:0:
32,240,198475,2,0,L|49:152,1,88.000002685547,8|0,1:2|0:0,0:0:0:0:
208,80,198775,6,0,P|208:36|185:0,1,88.000002685547,2|0,3:2|3:0,0:0:0:0:
104,24,199075,2,0,P|103:67|126:104,1,88.000002685547,10|0,1:2|0:0,0:0:0:0:
276,136,199375,2,0,B|374:113|374:113|395:143|436:150,2,176.000005371094,2|8|0,3:2|1:2|3:0,0:0:0:0:
88,255,200125,5,2,0:2:0:0:
68,168,200275,1,10,1:2:0:0:
0,280,200425,2,0,B|99:263|63:339|163:319,1,176.000005371094,2|2,3:2|0:2,0:0:0:0:
239,263,200875,2,0,L|255:349,1,88.000002685547,10|2,1:2|3:2,0:0:0:0:
255,349,201100,1,0,0:0:0:0:
255,349,201175,1,2,0:2:0:0:
360,376,201325,1,2,3:2:0:0:
474,250,201475,5,10,1:2:0:0:
497,338,201625,2,0,B|427:327|427:327|407:299|407:299|337:288,1,176.000005371094,2|2,3:2|0:2,0:0:0:0:
184,176,202075,2,0,L|200:89,1,88.000002685547,6|2,1:2|0:2,0:0:0:0:
296,64,202375,2,0,L|279:150,2,88.000002685547,2|2|2,0:2|0:2|1:2,0:0:0:0:
261,275,202825,6,0,P|196:219|111:229,1,176.000005371094,6|2,3:2|0:2,0:0:0:0:
4,206,203275,2,0,B|-8:248|-8:248|15:285,1,88.000002685547,0|0,1:0|3:0,0:0:0:0:
15,285,203500,1,0,0:0:0:0:
15,285,203575,1,2,1:2:0:0:
56,133,203725,1,0,1:0:0:0:
209,174,203875,1,2,1:2:0:0:
167,327,204025,1,0,1:0:0:0:
111,228,204175,6,0,B|207:208|179:284|275:264,2,176.000005371094,6|8|0,3:2|1:2|3:0,0:0:0:0:
167,327,204925,5,2,0:2:0:0:
275,263,205075,1,10,1:2:0:0:
384,368,205225,2,0,B|357:273|441:301|412:203,1,176.000005371094,2|2,3:2|0:2,0:0:0:0:
360,136,205675,1,10,1:2:0:0:
475,81,205825,2,0,P|439:154|360:136,1,176.000005371094,2|2,3:2|3:2,0:0:0:0:
288,88,206275,1,10,1:2:0:0:
209,174,206425,5,2,3:2:0:0:
209,174,206500,1,0,0:0:0:0:
209,174,206575,2,0,B|223:249|223:249|218:263|218:263|235:346,2,176.000005371094,0|8|0,3:2|1:2|3:0,0:0:0:0:
288,88,207325,2,0,B|296:48|296:48|268:9,1,88.000002685547,0|8,1:0|0:2,0:0:0:0:
57,139,207625,6,0,P|140:122|209:174,1,176.000005371094,0|0,3:0|3:0,0:0:0:0:
168,272,208075,2,0,L|83:291,1,88.000002685547,8|0,1:2|0:0,0:0:0:0:
82,291,208300,1,0,0:0:0:0:
82,291,208375,2,0,P|75:333|95:372,1,88.000002685547,2|0,3:2|3:0,0:0:0:0:
259,333,208675,2,0,P|265:290|245:251,1,88.000002685547,10|0,1:2|0:0,0:0:0:0:
349,160,208975,6,0,B|445:141|406:217|513:194,2,176.000005371094,2|8|0,3:2|1:2|3:0,0:0:0:0:
192,96,209725,5,2,0:2:0:0:
112,59,209875,1,10,1:2:0:0:
239,18,210025,2,0,P|221:104|209:191,1,176.000005371094,2|2,3:2|0:2,0:0:0:0:
288,256,210475,1,10,1:2:0:0:
156,306,210625,2,0,P|206:239|288:255,1,176.000005371094,2|2,3:2|3:2,0:0:0:0:
412,240,211075,2,0,P|456:244|494:210,1,88.000002685547,10|2,1:2|3:2,0:0:0:0:
496,208,211300,1,0,0:0:0:0:
500,196,211375,6,0,P|488:283|484:371,2,176.000005371094,0|0|0,3:2|1:0|1:0,0:0:0:0:
355,118,212125,1,8,0:3:0:0:
480,80,212275,1,4,0:3:0:0:
384,224,212425,1,4,3:2:0:0:
355,118,212575,6,0,L|358:102,3,16,8|8|8|8,0:2|0:2|0:2|0:2,0:0:0:0:
256,88,213175,6,0,L|240:91,1,16,8|8,0:2|0:2,0:0:0:0:
261,171,213475,2,0,L|276:167,1,16,8|8,0:2|0:2,0:0:0:0:
156,80,213775,6,0,L|160:64,1,16,8|8,0:2|0:2,0:0:0:0:
176,160,214075,2,0,L|171:175,1,16,8|8,0:2|0:2,0:0:0:0:
56,96,214375,6,0,L|40:101,1,16,8|8,0:2|0:2,0:0:0:0:
60,184,214675,2,0,L|76:179,1,16,8|8,0:2|0:2,0:0:0:0:
0,359,214975,5,8,3:2:0:0:
71,326,215125,1,8,3:2:0:0:
146,359,215275,1,8,3:2:0:0:
218,326,215425,1,8,3:2:0:0:
293,359,215575,1,8,3:2:0:0:
365,326,215725,1,8,3:2:0:0:
440,359,215875,1,8,3:2:0:0:
511,326,216025,5,8,3:2:0:0:
439,149,217075,6,0,B|394:131|370:57|415:-6|479:-4|494:48|475:73|439:66,1,240,2|0,0:2|0:0,0:0:0:0:
331,40,217375,6,0,L|226:27,1,80,12|2,3:2|0:2,0:0:0:0:
140,180,217675,2,0,P|50:173|32:100,1,160,10|10,1:2|3:2,0:0:0:0:
145,16,218125,2,0,L|161:94,1,80,0|10,1:0|0:2,0:0:0:0:
274,155,218425,1,2,3:2:0:0:
274,155,218725,5,2,3:2:0:0:
157,252,218875,2,0,P|120:236|80:235,1,80,10|2,1:2|0:2,0:0:0:0:
80,234,219100,1,0,0:0:0:0:
80,234,219175,1,10,0:2:0:0:
0,358,219325,1,2,3:2:0:0:
103,321,219475,1,10,1:2:0:0:
191,379,219625,2,0,P|230:377|267:362,1,80,2|8,0:2|3:2,0:0:0:0:
409,382,219925,5,2,0:2:0:0:
409,382,220000,1,0,0:0:0:0:
409,382,220075,2,0,P|424:346|425:306,1,80,10|2,1:2|0:2,0:0:0:0:
319,74,220375,5,10,3:2:0:0:
343,157,220525,1,0,1:0:0:0:
367,240,220675,1,10,1:2:0:0:
308,330,220825,1,2,3:2:0:0:
308,330,221125,5,2,3:2:0:0:
367,240,221275,2,0,P|403:225|443:225,1,80,10|2,1:2|0:2,0:0:0:0:
512,110,221575,2,0,P|475:126|435:126,1,80,10|2,3:2|0:2,0:0:0:0:
435,126,221800,1,0,0:0:0:0:
435,126,221875,1,10,1:2:0:0:
323,74,222025,1,2,0:2:0:0:
258,140,222175,6,0,L|272:219,1,80,12|2,3:2|0:2,0:0:0:0:
302,322,222475,2,0,P|260:257|184:264,1,160,10|10,1:2|3:2,0:0:0:0:
76,362,222925,1,0,1:0:0:0:
76,362,223225,2,0,L|91:284,1,80,2|8,3:2|0:2,0:0:0:0:
15,160,223525,5,2,3:2:0:0:
79,104,223675,1,10,1:2:0:0:
159,131,223825,1,2,0:2:0:0:
277,65,223975,6,0,L|198:51,1,80,10|2,1:2|0:2,0:0:0:0:
198,51,224200,1,0,0:0:0:0:
198,51,224275,1,10,1:2:0:0:
245,177,224425,1,2,0:2:0:0:
364,140,224575,6,0,P|440:131|490:190,1,160,10|10,3:2|1:2,0:0:0:0:
394,313,225025,2,0,L|407:234,1,80,2|8,3:2|3:2,0:0:0:0:
277,110,225325,5,2,1:2:0:0:
295,200,225475,1,10,0:2:0:0:
364,140,225625,2,0,B|263:115|288:210|188:178,1,191.999994140625,6|2,1:2|3:2,0:0:0:0:
82,126,226075,6,0,L|95:47,1,80,10|2,1:2|0:2,0:0:0:0:
187,177,226375,2,0,B|172:248|172:248|168:249|168:249|151:331,1,160,8|10,3:2|1:2,0:0:0:0:
79,384,226825,5,2,0:2:0:0:
79,384,226900,1,0,0:0:0:0:
79,384,226975,2,0,B|58:348|58:348|66:310,1,80,12|2,3:2|0:2,0:0:0:0:
198,263,227275,2,0,L|354:297,1,160,10|10,1:2|3:2,0:0:0:0:
445,258,227725,2,0,L|457:337,1,80,0|10,1:0|0:2,0:0:0:0:
356,202,228025,1,2,3:2:0:0:
356,202,228325,5,2,3:2:0:0:
506,138,228475,2,0,P|471:122|431:122,1,80,10|2,1:2|0:2,0:0:0:0:
313,82,228775,2,0,L|298:4,1,80,10|2,3:2|0:2,0:0:0:0:
297,4,229000,1,0,0:0:0:0:
297,4,229075,1,10,1:2:0:0:
236,135,229225,2,0,L|158:150,1,80,2|8,0:2|3:2,0:0:0:0:
33,111,229525,5,2,0:2:0:0:
33,111,229600,1,0,0:0:0:0:
33,110,229675,2,0,P|18:74|19:34,1,80,10|2,1:2|0:2,0:0:0:0:
157,150,229975,5,10,3:2:0:0:
177,238,230125,1,0,1:0:0:0:
197,326,230275,1,10,1:2:0:0:
295,371,230425,1,2,3:2:0:0:
295,371,230725,5,2,3:2:0:0:
177,238,230875,2,0,P|141:253|101:253,1,80,10|2,1:2|0:2,0:0:0:0:
270,283,231175,2,0,P|307:267|347:267,1,80,10|2,3:2|0:2,0:0:0:0:
346,266,231400,1,0,0:0:0:0:
346,266,231475,1,10,1:2:0:0:
496,214,231625,1,2,0:2:0:0:
454,371,231775,6,0,L|440:293,1,80,12|2,3:2|0:2,0:0:0:0:
447,121,232075,2,0,P|394:181|305:162,1,160,10|10,1:2|3:2,0:0:0:0:
179,112,232525,5,0,1:0:0:0:
271,100,232675,1,10,1:2:0:0:
362,88,232825,1,2,3:2:0:0:
362,88,233125,5,2,3:2:0:0:
477,231,233275,2,0,B|447:206|447:206|407:211,1,80,10|2,1:2|0:2,0:0:0:0:
294,326,233575,2,0,L|306:246,1,80,10|2,3:2|0:2,0:0:0:0:
305,246,233800,1,0,0:0:0:0:
306,246,233875,1,10,1:2:0:0:
179,112,234025,1,2,3:2:0:0:
278,171,234175,6,0,B|199:189|199:189|196:194|196:194|126:212,1,160,10|10,1:2|1:2,0:0:0:0:
35,253,234625,2,0,L|50:174,1,80,2|8,0:2|3:2,0:0:0:0:
197,22,234925,5,2,1:2:0:0:
179,112,235075,1,10,1:2:0:0:
110,52,235225,2,0,B|211:27|186:122|286:90,1,191.999994140625,6|2,1:2|3:2,0:0:0:0:
417,11,235675,2,0,L|433:90,1,80,10|2,1:2|0:2,0:0:0:0:
512,222,235975,5,8,1:2:0:0:
345,191,236125,1,2,1:2:0:0:
371,322,236275,1,10,1:2:0:0:
373,333,236350,1,0,1:0:0:0:
376,344,236425,1,2,1:2:0:0:
379,355,236500,1,0,1:0:0:0:
