osu file format v14

[General]
AudioFilename: audio.mp3
AudioLeadIn: 0
PreviewTime: 78325
Countdown: 0
SampleSet: Soft
StackLeniency: 0.4
Mode: 0
LetterboxInBreaks: 0
WidescreenStoryboard: 1

[Editor]
Bookmarks: 236575
DistanceSpacing: 1
BeatDivisor: 4
GridSize: 32
TimelineZoom: 2

[Metadata]
Title:Furisodation
TitleUnicode:ふりそでーしょん
Artist:Kyary Pamyu Pamyu
ArtistUnicode:きゃりーぱみゅぱみゅ
Creator:Bazz B
Version:PaRaDogi's Hard
Source:
Tags:Jpop J-pop PaRaDogi Ducky- Kazato Asa Shikibe Mayu Shizuku- Amateurre -Mikan Bazz_B Yasutaka Nakata Japanese jp pop Nanda Collection KPP Best Kimi ni 100 Percent Xenon- Xen Xehn Elcheer dora- doraemonelf
BeatmapID:2996558
BeatmapSetID:1049418

[Difficulty]
HPDrainRate:4
CircleSize:3.5
OverallDifficulty:7
ApproachRate:8
SliderMultiplier:1.3
SliderTickRate:1

[Events]
//Background and Video events
0,0,"me.jpg",0,0
//Break Periods
//Storyboard Layer 0 (Background)
//Storyboard Layer 1 (Fail)
//Storyboard Layer 2 (Pass)
//Storyboard Layer 3 (Foreground)
//Storyboard Layer 4 (Overlay)
//Storyboard Sound Samples

[TimingPoints]
175,300,4,2,0,70,1,0
1975,-200,4,2,1,70,0,0
2275,-200,4,2,3,70,0,0
2575,-200,4,2,2,70,0,0
3175,-200,4,2,4,70,0,0
3325,-200,4,2,1,70,0,0
3475,-200,4,2,3,70,0,0
3625,-200,4,2,2,70,0,0
3925,-200,4,2,1,70,0,0
4075,-200,4,2,3,70,0,0
4225,-200,4,2,2,70,0,0
4525,-200,4,2,1,70,0,0
4675,-200,4,2,3,70,0,0
4825,-200,4,2,2,70,0,0
4975,-200,4,2,4,70,0,0
5875,-200,4,2,5,70,0,0
6175,-200,4,2,4,70,0,0
6475,-200,4,2,5,70,0,0
6775,-200,4,2,6,70,0,0
7075,-200,4,2,7,70,0,0
7375,-200,4,2,8,70,0,0
7975,-200,4,2,4,70,0,0
8125,-200,4,2,1,70,0,0
8275,-200,4,2,9,70,0,0
8425,-200,4,2,8,70,0,0
8725,-200,4,2,1,70,0,0
8875,-200,4,2,9,70,0,0
9025,-200,4,2,1,70,0,0
9175,-200,4,2,6,70,0,0
9475,-200,4,2,1,70,0,0
9625,-200,4,2,8,70,0,0
9925,-200,4,2,1,70,0,0
10375,-200,4,2,4,70,0,0
10675,-200,4,2,5,70,0,0
11125,-200,4,2,4,70,0,0
11575,-200,4,2,6,70,0,0
11875,-200,4,2,3,70,0,0
12175,-200,4,2,10,70,0,0
12775,-200,4,2,4,70,0,0
12925,-200,4,2,1,70,0,0
13075,-200,4,2,3,70,0,0
13225,-200,4,2,2,70,0,0
13525,-200,4,2,1,70,0,0
13675,-200,4,2,3,70,0,0
13825,-200,4,2,2,70,0,0
14125,-200,4,2,3,70,0,0
14275,-200,4,2,11,70,0,0
14425,-200,4,2,2,70,0,0
15175,-200,4,2,4,70,0,0
15475,-200,4,2,5,70,0,0
15775,-200,4,2,4,70,0,0
16075,-200,4,2,5,70,0,0
16375,-200,4,2,6,70,0,0
16675,-200,4,2,7,70,0,0
16975,-200,4,2,8,70,0,0
17575,-200,4,2,4,70,0,0
17725,-200,4,2,1,70,0,0
17875,-200,4,2,9,70,0,0
18025,-200,4,2,8,70,0,0
18325,-133.333333333333,4,2,1,80,0,0
18475,-133.333333333333,4,2,12,80,0,0
18625,-133.333333333333,4,2,8,80,0,0
18775,-133.333333333333,4,2,12,80,0,0
18925,-133.333333333333,4,2,7,80,0,0
19075,-133.333333333333,4,2,13,80,0,0
19375,-133.333333333333,4,2,18,80,0,0
21325,-133.333333333333,4,2,15,80,0,0
21475,-133.333333333333,4,2,2,80,0,0
21775,-111.111111111111,4,2,14,90,0,0
21924,-111.111111111111,4,2,16,90,0,0
26575,-111.111111111111,4,2,15,90,0,0
26724,-111.111111111111,4,2,16,90,0,0
31375,-111.111111111111,4,2,14,90,0,0
31524,-111.111111111111,4,2,16,90,0,0
36175,-111.111111111111,4,2,15,90,0,0
36324,-111.111111111111,4,2,16,90,0,0
40675,-111.111111111111,4,2,17,90,0,0
40900,-111.111111111111,4,2,17,70,0,0
40975,-111.111111111111,4,2,17,75,0,0
41274,-111.111111111111,4,2,18,75,0,0
45024,-111.111111111111,4,2,18,70,0,0
45175,-111.111111111111,4,2,18,75,0,0
45475,-111.111111111111,4,2,19,75,0,0
46074,-111.111111111111,4,2,18,75,0,0
49225,-111.111111111111,4,2,19,75,0,0
49675,-111.111111111111,4,2,18,75,0,0
54624,-111.111111111111,4,2,18,70,0,0
54775,-111.111111111111,4,2,18,75,0,0
55075,-111.111111111111,4,2,19,75,0,0
55674,-111.111111111111,4,2,18,75,0,0
57924,-111.111111111111,4,2,18,70,0,0
58075,-111.111111111111,4,2,18,75,0,0
58825,-111.111111111111,4,2,19,75,0,0
58900,-111.111111111111,4,2,19,70,0,0
59124,-111.111111111111,4,2,19,75,0,0
59199,-111.111111111111,4,2,19,70,0,0
59275,-111.111111111111,4,2,19,75,0,0
59725,-111.111111111111,4,2,3,75,0,0
60175,-111.111111111111,4,2,7,80,0,0
60324,-111.111111111111,4,2,7,70,0,0
60475,-111.111111111111,4,2,18,80,0,0
60624,-111.111111111111,4,2,18,70,0,0
60775,-111.111111111111,4,2,18,80,0,0
64224,-111.111111111111,4,2,18,70,0,0
64375,-111.111111111111,4,2,18,80,0,0
64599,-111.111111111111,4,2,18,70,0,0
64675,-111.111111111111,4,2,19,80,0,0
64824,-111.111111111111,4,2,19,70,0,0
64975,-111.111111111111,4,2,19,80,0,0
65274,-111.111111111111,4,2,18,80,0,0
68425,-111.111111111111,4,2,19,80,0,0
68875,-111.111111111111,4,2,12,80,0,0
69775,-111.111111111111,4,2,7,80,0,0
70074,-111.111111111111,4,2,18,80,0,0
74274,-111.111111111111,4,2,19,80,0,0
74874,-111.111111111111,4,2,18,80,0,0
76975,-111.111111111111,4,2,19,80,0,0
77875,-111.111111111111,4,2,18,80,0,0
78325,-111.111111111111,4,2,20,80,0,0
78737,319.148936170213,4,2,21,80,1,0
79056,-100,4,2,22,90,0,0
79295,-100,4,2,22,80,0,0
79375,300,4,2,23,90,1,0
79375,-100,4,2,23,90,0,1
80125,-100,4,2,21,90,0,1
80275,-100,4,2,22,90,0,1
80425,-100,4,2,23,90,0,1
80575,-100,4,2,23,70,0,1
80725,-100,4,2,21,90,0,1
80875,-100,4,2,22,90,0,1
81025,-100,4,2,23,90,0,1
81175,-100,4,2,23,70,0,1
81325,-100,4,2,21,90,0,1
81475,-100,4,2,22,90,0,1
81625,-100,4,2,23,90,0,1
81775,-100,4,2,23,90,0,1
82075,-100,4,2,23,90,0,1
82975,-100,4,2,23,70,0,1
83125,-100,4,2,23,90,0,1
83575,-100,4,2,21,90,0,1
83800,-100,4,2,21,70,0,1
83875,-100,4,2,24,90,0,1
84100,-100,4,2,24,70,0,1
84175,-100,4,2,25,90,0,1
84475,-100,4,2,21,90,0,1
85075,-100,4,2,26,90,0,1
85225,-100,4,2,25,90,0,1
85375,-100,4,2,25,70,0,1
85525,-100,4,2,21,90,0,1
85675,-100,4,2,26,90,0,1
85825,-100,4,2,21,90,0,1
86125,-100,4,2,26,90,0,1
86275,-100,4,2,21,90,0,1
86425,-100,4,2,25,90,0,1
86725,-100,4,2,21,90,0,1
86875,-100,4,2,9,90,0,1
87025,-100,4,2,1,90,0,1
87325,-100,4,2,9,90,0,1
87475,-100,4,2,1,90,0,1
87625,-100,4,2,27,90,0,1
87925,-100,4,2,1,90,0,1
88225,-100,4,2,21,90,0,1
88675,-100,4,2,22,90,0,1
88975,-100,4,2,23,90,0,1
89725,-100,4,2,21,90,0,1
89875,-100,4,2,22,90,0,1
90025,-100,4,2,23,90,0,1
90175,-100,4,2,23,70,0,1
90325,-100,4,2,21,90,0,1
90475,-100,4,2,22,90,0,1
90625,-100,4,2,23,90,0,1
90775,-100,4,2,23,70,0,1
90925,-100,4,2,22,90,0,1
91075,-100,4,2,28,90,0,1
91225,-100,4,2,23,90,0,1
91825,-100,4,2,23,70,0,1
91975,-100,4,2,23,90,0,1
93175,-100,4,2,21,90,0,1
93475,-100,4,2,24,90,0,1
93775,-100,4,2,25,90,0,1
93925,-100,4,2,25,70,0,1
94075,-100,4,2,21,90,0,1
94675,-100,4,2,26,90,0,1
94825,-100,4,2,25,90,0,1
94975,-100,4,2,25,70,0,1
95125,-100,4,2,21,90,0,1
95275,-100,4,2,26,90,0,1
95425,-100,4,2,25,90,0,1
95575,-100,4,2,29,90,0,1
95725,-100,4,2,24,90,0,1
95875,-100,4,2,23,90,0,1
96325,-100,4,2,29,90,0,1
96625,-100,4,2,29,70,0,1
96775,-100,4,2,29,90,0,1
96925,-100,4,2,1,90,0,1
97225,-100,4,2,15,90,0,1
97675,-100,4,2,13,90,0,1
97825,-100,4,2,14,90,0,1
98425,-100,4,2,6,90,0,1
98575,-111.111111111111,4,2,14,85,0,0
98724,-111.111111111111,4,2,16,85,0,0
103375,-111.111111111111,4,2,15,85,0,0
103525,-111.111111111111,4,2,16,85,0,0
107124,-111.111111111111,4,2,15,85,0,0
107275,-111.111111111111,4,2,36,85,0,0
107424,-111.111111111111,4,2,14,85,0,0
107724,-111.111111111111,4,2,3,85,0,0
107875,-111.111111111111,4,2,36,85,0,0
108024,-111.111111111111,4,2,1,85,0,0
108175,-111.111111111111,4,2,14,85,0,0
108325,-111.111111111111,4,2,16,85,0,0
112975,-111.111111111111,4,2,15,85,0,0
113125,-111.111111111111,4,2,16,85,0,0
117475,-111.111111111111,4,2,17,85,0,0
117699,-111.111111111111,4,2,17,70,0,0
117775,-111.111111111111,4,2,17,75,0,0
118074,-111.111111111111,4,2,18,75,0,0
122275,-111.111111111111,4,2,19,75,0,0
122874,-111.111111111111,4,2,18,75,0,0
126025,-111.111111111111,4,2,19,75,0,0
126475,-111.111111111111,4,2,18,75,0,0
131875,-111.111111111111,4,2,19,75,0,0
132024,-111.111111111111,4,2,19,70,0,0
132175,-111.111111111111,4,2,19,75,0,0
132474,-111.111111111111,4,2,18,75,0,0
135625,-111.111111111111,4,2,19,75,0,0
136375,-111.111111111111,4,2,30,75,0,0
136525,-111.111111111111,4,2,3,75,0,0
136975,-111.111111111111,4,2,7,80,0,0
137274,-111.111111111111,4,2,18,80,0,0
137725,-111.111111111111,4,2,18,70,0,0
137875,-111.111111111111,4,2,18,80,0,0
141024,-111.111111111111,4,2,18,70,0,0
141175,-111.111111111111,4,2,18,80,0,0
141475,-111.111111111111,4,2,19,80,0,0
142074,-111.111111111111,4,2,18,80,0,0
142525,-111.111111111111,4,2,18,70,0,0
142675,-111.111111111111,4,2,18,80,0,0
144324,-111.111111111111,4,2,18,70,0,0
144475,-111.111111111111,4,2,18,80,0,0
145225,-111.111111111111,4,2,19,80,0,0
145675,-111.111111111111,4,2,12,80,0,0
146575,-111.111111111111,4,2,7,80,0,0
146874,-111.111111111111,4,2,18,80,0,0
151075,-111.111111111111,4,2,19,80,0,0
151524,-111.111111111111,4,2,19,70,0,0
151675,-111.111111111111,4,2,18,80,0,0
153775,-111.111111111111,4,2,19,80,0,0
154675,-111.111111111111,4,2,18,80,0,0
154975,-111.111111111111,4,2,18,70,0,0
155124,-111.111111111111,4,2,30,80,0,0
155162,-111.111111111111,4,2,30,70,0,0
155274,-111.111111111111,4,2,31,80,0,0
155799,-111.111111111111,4,2,31,70,0,0
155875,-111.111111111111,4,2,32,80,0,0
156099,-111.111111111111,4,2,32,70,0,0
156175,-100,4,2,23,90,0,1
156925,-100,4,2,21,90,0,1
157075,-100,4,2,22,90,0,1
157225,-100,4,2,23,90,0,1
157375,-100,4,2,23,70,0,1
157525,-100,4,2,21,90,0,1
157675,-100,4,2,22,90,0,1
157825,-100,4,2,23,90,0,1
157975,-100,4,2,23,70,0,1
158125,-100,4,2,21,90,0,1
158275,-100,4,2,22,90,0,1
158425,-100,4,2,23,90,0,1
158575,-100,4,2,23,90,0,1
158875,-100,4,2,23,90,0,1
159775,-100,4,2,23,70,0,1
159925,-100,4,2,23,90,0,1
160375,-100,4,2,21,90,0,1
160600,-100,4,2,21,70,0,1
160675,-100,4,2,24,90,0,1
160900,-100,4,2,24,70,0,1
160975,-100,4,2,25,90,0,1
161275,-100,4,2,21,90,0,1
161875,-100,4,2,26,90,0,1
162025,-100,4,2,25,90,0,1
162325,-100,4,2,21,90,0,1
162475,-100,4,2,26,90,0,1
162625,-100,4,2,21,90,0,1
162925,-100,4,2,26,90,0,1
163075,-100,4,2,21,90,0,1
163225,-100,4,2,25,90,0,1
163375,-100,4,2,25,90,0,1
163675,-100,4,2,9,90,0,1
163975,-100,4,2,1,90,0,1
164125,-100,4,2,9,90,0,1
164275,-100,4,2,1,90,0,1
164425,-100,4,2,27,90,0,1
164725,-100,4,2,1,90,0,1
165025,-100,4,2,21,90,0,1
165475,-100,4,2,22,90,0,1
165775,-100,4,2,23,90,0,1
166525,-100,4,2,21,90,0,1
166675,-100,4,2,22,90,0,1
166825,-100,4,2,23,90,0,1
166975,-100,4,2,23,70,0,1
167125,-100,4,2,21,90,0,1
167275,-100,4,2,22,90,0,1
167425,-100,4,2,23,90,0,1
167575,-100,4,2,23,70,0,1
167725,-100,4,2,22,90,0,1
167875,-100,4,2,28,90,0,1
168025,-100,4,2,23,90,0,1
169825,-100,4,2,23,70,0,1
169975,-100,4,2,21,90,0,1
170275,-100,4,2,24,90,0,1
170575,-100,4,2,25,90,0,1
170875,-100,4,2,21,90,0,1
171475,-100,4,2,26,90,0,1
171625,-100,4,2,25,90,0,1
171925,-100,4,2,21,90,0,1
172075,-100,4,2,26,90,0,1
172225,-100,4,2,25,90,0,1
172375,-100,4,2,29,90,0,1
172525,-100,4,2,24,90,0,1
172675,-100,4,2,23,90,0,1
172975,-100,4,2,23,90,0,1
173275,-100,4,2,29,90,0,1
173725,-100,4,2,1,90,0,1
174025,-100,4,2,15,90,0,1
174475,-100,4,2,13,90,0,1
174625,-100,4,2,14,90,0,1
175225,-100,4,2,6,90,0,1
175375,-133.333333333333,4,2,11,80,0,0
175525,-133.333333333333,4,2,11,70,0,0
175975,-133.333333333333,4,2,33,80,0,0
176125,-133.333333333333,4,2,34,80,0,0
176425,-133.333333333333,4,2,33,80,0,0
176875,-133.333333333333,4,2,34,80,0,0
177325,-133.333333333333,4,2,7,80,0,0
177475,-133.333333333333,4,2,2,80,0,0
177775,-133.333333333333,4,2,33,80,0,0
178075,-133.333333333333,4,2,34,80,0,0
178375,-133.333333333333,4,2,7,80,0,0
178525,-133.333333333333,4,2,34,80,0,0
178825,-133.333333333333,4,2,33,80,0,0
179275,-133.333333333333,4,2,27,80,0,0
179425,-133.333333333333,4,2,27,70,0,0
179575,-133.333333333333,4,2,25,80,0,0
179875,-133.333333333333,4,2,27,80,0,0
180475,-133.333333333333,4,2,2,80,0,0
180775,-133.333333333333,4,2,33,80,0,0
180925,-133.333333333333,4,2,34,80,0,0
181225,-133.333333333333,4,2,33,80,0,0
181675,-133.333333333333,4,2,34,80,0,0
181975,-133.333333333333,4,2,7,80,0,0
182275,-133.333333333333,4,2,2,80,0,0
182575,-133.333333333333,4,2,33,80,0,0
182875,-133.333333333333,4,2,34,80,0,0
183175,-133.333333333333,4,2,7,80,0,0
183325,-133.333333333333,4,2,34,80,0,0
183625,-133.333333333333,4,2,19,80,0,0
183925,-133.333333333333,4,2,7,80,0,0
184075,-133.333333333333,4,2,27,80,0,0
184375,-133.333333333333,4,2,25,80,0,0
184675,-133.333333333333,4,2,27,80,0,0
184975,-133.333333333333,4,2,19,80,0,0
185275,-133.333333333333,4,2,34,80,0,0
185575,-133.333333333333,4,2,7,80,0,0
185725,-133.333333333333,4,2,34,80,0,0
186025,-133.333333333333,4,2,33,80,0,0
186475,-133.333333333333,4,2,2,80,0,0
186625,-133.333333333333,4,2,7,80,0,0
187075,-133.333333333333,4,2,34,80,0,0
187375,-133.333333333333,4,2,33,80,0,0
187675,-133.333333333333,4,2,34,80,0,0
187975,-133.333333333333,4,2,7,80,0,0
188125,-133.333333333333,4,2,34,80,0,0
188425,-133.333333333333,4,2,33,80,0,0
188875,-133.333333333333,4,2,27,80,0,0
189025,-133.333333333333,4,2,27,70,0,0
189175,-133.333333333333,4,2,25,80,0,0
189475,-133.333333333333,4,2,27,80,0,0
189775,-133.333333333333,4,2,19,80,0,0
190075,-133.333333333333,4,2,34,80,0,0
190375,-133.333333333333,4,2,7,80,0,0
190525,-133.333333333333,4,2,34,80,0,0
190825,-133.333333333333,4,2,33,80,0,0
191275,-133.333333333333,4,2,34,80,0,0
191575,-133.333333333333,4,2,33,80,0,0
191875,-133.333333333333,4,2,34,80,0,0
192175,-133.333333333333,4,2,16,80,0,0
192325,-133.333333333333,4,2,29,80,0,0
192475,-133.333333333333,4,2,30,80,0,0
192625,-133.333333333333,4,2,29,80,0,0
193075,-133.333333333333,4,2,30,80,0,0
193225,-133.333333333333,4,2,29,80,0,0
193975,-133.333333333333,4,2,21,80,0,0
194275,-133.333333333333,4,2,32,80,0,0
194500,-133.333333333333,4,2,32,70,0,0
194575,-100,4,2,23,90,0,1
195325,-100,4,2,21,90,0,1
195475,-100,4,2,22,90,0,1
195625,-100,4,2,23,90,0,1
195775,-100,4,2,23,70,0,1
195925,-100,4,2,21,90,0,1
196075,-100,4,2,22,90,0,1
196225,-100,4,2,23,90,0,1
196375,-100,4,2,23,70,0,1
196525,-100,4,2,21,90,0,1
196675,-100,4,2,22,90,0,1
196825,-100,4,2,23,90,0,1
196975,-100,4,2,23,90,0,1
197275,-100,4,2,23,90,0,1
198775,-100,4,2,21,90,0,1
199075,-100,4,2,24,90,0,1
199225,-100,4,2,24,70,0,1
199375,-100,4,2,25,90,0,1
199675,-100,4,2,21,90,0,1
200275,-100,4,2,26,90,0,1
200425,-100,4,2,25,90,0,1
200575,-100,4,2,25,70,0,1
200725,-100,4,2,21,90,0,1
200875,-100,4,2,26,90,0,1
201025,-100,4,2,21,90,0,1
201625,-100,4,2,25,90,0,1
201775,-100,4,2,25,90,0,1
201925,-100,4,2,21,90,0,1
202075,-100,4,2,9,90,0,1
202225,-100,4,2,1,90,0,1
202525,-100,4,2,9,90,0,1
202675,-100,4,2,1,90,0,1
202825,-100,4,2,27,90,0,1
203125,-100,4,2,1,90,0,1
203575,-100,4,2,21,90,0,1
203875,-100,4,2,22,90,0,1
204175,-100,4,2,23,90,0,1
204925,-100,4,2,21,90,0,1
205075,-100,4,2,22,90,0,1
205225,-100,4,2,23,90,0,1
205375,-100,4,2,23,70,0,1
205525,-100,4,2,21,90,0,1
205675,-100,4,2,22,90,0,1
205825,-100,4,2,23,90,0,1
206125,-100,4,2,22,90,0,1
206275,-100,4,2,28,90,0,1
206425,-100,4,2,23,90,0,1
207775,-100,4,2,23,70,0,1
207925,-100,4,2,23,90,0,1
208375,-100,4,2,21,90,0,1
208675,-100,4,2,24,90,0,1
208975,-100,4,2,25,90,0,1
209275,-100,4,2,21,90,0,1
209875,-100,4,2,26,90,0,1
210025,-100,4,2,25,90,0,1
210175,-100,4,2,25,70,0,1
210325,-100,4,2,21,90,0,1
210475,-100,4,2,26,90,0,1
210625,-100,4,2,25,90,0,1
210775,-100,4,2,29,90,0,1
210925,-100,4,2,24,90,0,1
211075,-100,4,2,23,90,0,1
211375,-100,4,2,23,90,0,1
211675,-100,4,2,29,90,0,1
212125,-100,4,2,1,90,0,1
212425,-100,4,2,7,90,0,1
212575,-100,4,2,29,80,0,0
214975,-133.333333333333,4,2,29,100,0,0
216175,-133.333333333333,4,2,29,70,0,0
217075,-100,4,2,2,70,0,0
217112,-100,4,2,2,70,0,0
217225,-100,4,2,1,70,0,0
217262,-100,4,2,1,70,0,0
217375,-111.111111111111,4,2,14,90,0,0
217524,-111.111111111111,4,2,16,90,0,0
222175,-111.111111111111,4,2,15,90,0,0
222324,-111.111111111111,4,2,16,90,0,0
225925,-111.111111111111,4,2,15,90,0,0
226075,-111.111111111111,4,2,36,90,0,0
226224,-111.111111111111,4,2,14,90,0,0
226675,-111.111111111111,4,2,36,90,0,0
226975,-111.111111111111,4,2,14,90,0,0
227124,-111.111111111111,4,2,16,90,0,0
231775,-111.111111111111,4,2,15,90,0,0
231924,-111.111111111111,4,2,16,90,0,0
235524,-111.111111111111,4,2,15,90,0,0
235675,-111.111111111111,4,2,36,90,0,0
235824,-111.111111111111,4,2,14,90,0,0
236124,-111.111111111111,4,2,15,90,0,0
236275,-111.111111111111,4,2,36,90,0,0
236424,-111.111111111111,4,2,37,90,0,0
236499,-111.111111111111,4,2,37,90,0,0
236575,-133.333333333333,4,2,37,90,0,0
236650,-133.333333333333,4,2,37,70,0,0
242275,-133.333333333333,4,2,37,5,0,0

[Colours]
Combo1 : 153,255,255
Combo2 : 255,162,208
Combo3 : 136,196,255
Combo4 : 184,112,151

[HitObjects]
17,38,1975,5,2,0:2:0:0:
105,77,2275,1,2,0:2:0:0:
189,30,2575,6,0,P|226:23|261:105,1,130,14|8,3:2|1:2,0:0:0:0:
272,172,3325,2,0,L|283:215,2,32.5,2|10|2,0:2|0:2|3:2,0:0:0:0:
193,229,3925,2,0,L|182:272,2,32.5,2|10|2,0:2|3:2|0:2,0:0:0:0:
101,283,4525,2,0,L|112:326,2,32.5,2|10|2,0:2|0:2|3:2,0:0:0:0:
9,248,4975,6,0,P|3:228|43:160,1,97.5,10|0,3:2|0:0,0:0:0:0:
86,103,5575,2,0,L|161:117,2,65,10|10|10,1:2|0:2|0:2,0:0:0:0:
51,29,6475,2,0,L|28:23,2,16.25,10|2|2,3:2|0:2|0:2,0:0:0:0:
137,8,6775,2,0,P|157:20|210:22,1,65,10|10,1:2|0:2,0:0:0:0:
300,11,7375,6,0,P|323:10|359:102,1,130,10|8,3:2|1:2,0:0:0:0:
308,148,8125,2,0,L|310:180,2,32.5,2|10|2,0:2|0:2|3:2,0:0:0:0:
214,185,8725,2,0,L|212:217,2,32.5,2|10|2,0:2|3:2|0:2,0:0:0:0:
129,241,9175,2,0,P|141:270|174:293,1,65,10|10,1:2|0:2,0:0:0:0:
202,362,9625,1,2,3:2:0:0:
283,304,9925,6,0,P|322:292|370:334,1,97.5,2|10,0:2|1:2,0:0:0:0:
463,295,10675,1,10,0:2:0:0:
463,295,10825,1,2,3:2:0:0:
508,213,11125,2,0,P|508:189|481:153,1,65,2|0,0:2|0:0,0:0:0:0:
455,82,11575,1,10,1:2:0:0:
366,128,11875,1,10,0:2:0:0:
290,63,12175,6,0,P|266:57|194:131,1,130,14|8,3:2|1:2,0:0:0:0:
144,182,12925,2,0,L|99:175,2,32.5,2|10|2,0:2|0:2|3:2,0:0:0:0:
221,246,13525,2,0,L|266:239,2,32.5,2|10|2,0:2|3:2|0:2,0:0:0:0:
155,317,14125,2,0,L|110:310,2,32.5,2|10|2,0:2|0:2|3:2,0:0:0:0:
237,373,14575,6,0,P|278:379|337:317,1,130,8|10,3:2|1:2,0:0:0:0:
420,265,15475,1,10,0:2:0:0:
374,177,15775,5,10,0:2:0:0:
433,98,16075,2,0,L|459:103,2,16.25,10|2|2,3:2|0:2|0:2,0:0:0:0:
379,44,16375,1,10,1:2:0:0:
292,89,16675,1,10,0:2:0:0:
215,31,16975,6,0,P|166:32|127:95,1,130,10|8,3:2|1:2,0:0:0:0:
71,151,17725,2,0,L|80:189,2,32.5,2|10|2,0:2|0:2|3:2,0:0:0:0:
157,215,18325,5,2,0:2:0:0:
157,215,18475,2,0,P|194:199|219:205,1,48.750001859665,10|2,1:2|0:2,0:0:0:0:
265,151,18775,2,0,P|287:163|316:164,1,48.750001859665,8|2,1:2|1:2,0:0:0:0:
369,218,19075,2,0,P|394:212|405:213,2,24.3750009298325,10|0|2,1:2|1:0|1:2,0:0:0:0:
256,192,19375,12,4,20425,3:2:0:0:
54,358,21325,5,2,3:2:0:0:
14,288,21475,1,2,1:2:0:0:
69,131,21775,6,0,P|115:138|129:158,1,58.4999982147217,12|2,3:2|0:2,0:0:0:0:
178,200,22075,2,0,P|203:216|238:212,1,58.4999982147217,10|2,1:2|0:2,0:0:0:0:
305,184,22375,2,0,B|317:153|317:153|288:58,1,116.999996429443,10|10,3:2|0:2,0:0:0:0:
232,23,22825,1,2,3:2:0:0:
68,6,23125,5,2,3:2:0:0:
6,57,23275,2,0,L|16:114,1,58.4999982147217,10|2,1:2|0:2,0:0:0:0:
71,172,23575,2,0,L|63:238,1,58.4999982147217,10|2,0:2|3:2,0:0:0:0:
10,290,23875,1,10,1:2:0:0:
46,360,24025,1,2,0:2:0:0:
197,292,24325,5,2,0:2:0:0:
197,292,24475,2,0,P|230:305|243:327,1,58.4999982147217,10|2,1:2|0:2,0:0:0:0:
308,367,24775,2,0,P|345:377|406:334,1,116.999996429443,10|10,3:2|1:2,0:0:0:0:
476,297,25225,1,2,3:2:0:0:
423,141,25525,5,2,3:2:0:0:
423,141,25675,2,0,L|363:127,1,58.4999982147217,10|2,1:2|0:2,0:0:0:0:
306,77,25975,2,0,L|243:86,1,58.4999982147217,10|2,3:2|0:2,0:0:0:0:
189,140,26275,1,10,1:2:0:0:
123,97,26425,1,2,0:2:0:0:
43,120,26575,6,0,P|14:153|14:184,1,58.4999982147217,12|2,3:2|0:2,0:0:0:0:
53,235,26875,2,0,P|71:258|65:303,1,58.4999982147217,10|2,1:2|0:2,0:0:0:0:
112,355,27175,2,0,B|156:380|156:380|232:358,1,116.999996429443,10|10,3:2|0:2,0:0:0:0:
265,297,27625,1,2,3:2:0:0:
190,157,27925,5,2,3:2:0:0:
219,83,28075,2,0,L|290:78,1,58.4999982147217,10|2,1:2|0:2,0:0:0:0:
337,26,28375,2,0,L|415:46,1,58.4999982147217,10|2,1:2|0:2,0:0:0:0:
472,31,28675,1,10,1:2:0:0:
503,104,28825,1,2,0:2:0:0:
441,155,28975,6,0,P|420:184|447:257,1,116.999996429443,10|10,3:2|1:2,0:0:0:0:
424,332,29425,2,0,B|395:363|395:363|301:347,1,116.999996429443,2|2,3:2|1:2,0:0:0:0:
270,291,29875,1,10,0:2:0:0:
201,332,30025,1,6,1:2:0:0:
52,263,30325,5,2,3:2:0:0:
8,198,30475,2,0,L|23:135,1,58.4999982147217,10|2,1:2|0:2,0:0:0:0:
9,63,30775,2,0,P|41:46|65:49,1,58.4999982147217,10|2,3:2|0:2,0:0:0:0:
127,3,31075,2,0,P|177:19|190:17,1,58.4999982147217,10|2,1:2|0:2,0:0:0:0:
243,69,31375,6,0,P|284:58|320:79,1,58.4999982147217,12|2,3:2|0:2,0:0:0:0:
364,17,31675,2,0,P|401:42|429:39,1,58.4999982147217,10|2,1:2|0:2,0:0:0:0:
485,80,31975,2,0,B|505:113|505:113|486:200,1,116.999996429443,10|10,3:2|0:2,0:0:0:0:
447,258,32425,1,2,3:2:0:0:
331,374,32725,5,2,3:2:0:0:
267,327,32875,2,0,L|274:258,1,58.4999982147217,10|2,1:2|0:2,0:0:0:0:
321,207,33175,2,0,L|308:146,1,58.4999982147217,10|2,3:2|0:2,0:0:0:0:
243,104,33475,1,10,1:2:0:0:
275,32,33625,1,2,0:2:0:0:
111,8,33925,5,2,0:2:0:0:
46,50,34075,2,0,P|32:83|44:115,1,58.4999982147217,10|2,1:2|0:2,0:0:0:0:
1,174,34375,2,0,P|28:205|36:280,1,116.999996429443,10|10,3:2|1:2,0:0:0:0:
11,353,34825,1,2,3:2:0:0:
161,283,35125,5,2,3:2:0:0:
161,283,35275,2,0,P|194:291|216:315,1,58.4999982147217,10|2,1:2|0:2,0:0:0:0:
268,364,35575,2,0,P|310:372|329:364,1,58.4999982147217,10|2,3:2|0:2,0:0:0:0:
392,327,35875,1,10,1:2:0:0:
360,257,36025,1,2,0:2:0:0:
416,199,36175,6,0,P|425:168|417:133,1,58.4999982147217,12|2,3:2|0:2,0:0:0:0:
385,71,36475,2,0,B|358:58|358:58|316:75,1,58.4999982147217,10|2,1:2|0:2,0:0:0:0:
255,48,36775,2,0,P|225:77|155:66,1,116.999996429443,10|10,3:2|1:2,0:0:0:0:
90,22,37225,1,2,3:2:0:0:
14,171,37525,5,2,3:2:0:0:
14,171,37675,2,0,L|77:160,1,58.4999982147217,10|2,1:2|0:2,0:0:0:0:
135,208,37975,2,0,L|205:226,1,58.4999982147217,10|2,3:2|0:2,0:0:0:0:
266,193,38275,1,10,1:2:0:0:
334,236,38425,1,2,3:2:0:0:
408,206,38575,6,0,B|441:225|441:225|454:309,1,116.999996429443,10|10,1:2|1:2,0:0:0:0:
404,364,39025,2,0,B|334:389|292:329,1,116.999996429443,2|2,0:2|1:2,0:0:0:0:
228,301,39475,1,10,1:2:0:0:
228,301,39625,2,0,L|154:327,1,58.4999982147217,6|8,1:2|0:2,0:0:0:0:
114,373,39925,5,2,3:2:0:0:
114,373,40075,2,0,P|95:346|93:312,1,58.4999982147217,10|2,1:2|0:2,0:0:0:0:
31,273,40375,2,0,P|45:241|41:210,1,58.4999982147217,10|2,1:2|1:2,0:0:0:0:
5,151,40675,1,10,1:2:0:0:
59,94,40825,1,0,1:0:0:0:
72,97,40900,1,0,0:0:0:0:
86,99,40975,6,0,B|108:59|108:59|90:-11,2,116.999996429443,6|8|0,3:2|1:2|3:0,0:0:0:0:
125,175,41725,1,2,3:2:0:0:
125,175,41875,1,10,0:2:0:0:
194,137,42025,6,0,P|230:132|274:204,1,116.999996429443,2|0,3:2|3:0,0:0:0:0:
321,261,42475,1,8,1:2:0:0:
321,261,42625,2,0,P|349:280|390:274,1,58.4999982147217,0|0,3:0|3:0,0:0:0:0:
445,246,42925,2,0,L|504:264,2,58.4999982147217,0|10|0,3:0|1:2|1:0,0:0:0:0:
402,178,43375,6,0,B|381:153|385:127|393:122|402:91|369:58,1,116.999996429443,2|10,3:2|1:2,0:0:0:0:
331,7,43825,1,2,0:2:0:0:
331,7,43975,1,0,3:0:0:0:
269,55,44125,2,0,L|198:48,1,58.4999982147217,2|8,1:2|0:2,0:0:0:0:
142,8,44425,6,0,B|100:-3|100:-3|28:44,1,116.999996429443,2|0,3:2|3:0,0:0:0:0:
3,109,44875,2,0,P|5:140|43:167,1,58.4999982147217,8|0,1:2|0:0,0:0:0:0:
83,218,45175,1,0,3:0:0:0:
83,218,45325,1,0,3:0:0:0:
38,282,45475,1,8,1:2:0:0:
175,368,45775,6,0,P|219:366|264:311,1,116.999996429443,2|10,3:2|1:2,0:0:0:0:
300,243,46225,2,0,L|367:255,1,58.4999982147217,2|0,3:2|3:0,0:0:0:0:
408,315,46525,2,0,L|474:301,1,58.4999982147217,2|8,3:2|1:2,0:0:0:0:
506,237,46825,6,0,B|512:204|512:204|481:117,1,116.999996429443,2|0,3:2|3:0,0:0:0:0:
433,64,47275,1,8,1:2:0:0:
433,64,47425,2,0,L|366:52,1,58.4999982147217,0|0,3:0|3:0,0:0:0:0:
316,0,47725,1,0,3:0:0:0:
316,0,47875,2,0,L|245:6,1,58.4999982147217,10|0,1:2|3:0,0:0:0:0:
190,44,48175,6,0,B|182:86|182:86|188:107|188:107|170:165,2,116.999996429443,6|10|0,3:2|1:2|3:0,0:0:0:0:
126,0,48925,1,2,3:2:0:0:
126,0,49075,1,8,1:2:0:0:
54,31,49225,6,0,B|26:57|26:57|43:139,1,116.999996429443,6|2,3:2|3:2,0:0:0:0:
85,207,49675,1,10,1:2:0:0:
85,207,49825,2,0,L|70:279,1,58.4999982147217,2|0,3:2|1:0,0:0:0:0:
103,338,50125,2,0,P|133:353|167:353,1,58.4999982147217,2|0,1:2|1:0,0:0:0:0:
228,319,50425,1,0,1:0:0:0:
299,281,50575,6,0,B|352:294|352:294|357:299|357:299|417:312,2,116.999996429443,6|8|0,3:2|1:2|3:0,0:0:0:0:
247,222,51325,2,0,P|258:181|279:163,1,58.4999982147217,2|10,0:2|1:2,0:0:0:0:
325,114,51625,2,0,P|341:78|273:22,1,116.999996429443,2|0,3:2|3:0,0:0:0:0:
221,5,52075,1,8,1:2:0:0:
64,59,52375,1,0,3:0:0:0:
64,59,52525,2,0,L|-7:43,2,58.4999982147217,0|10|0,3:0|1:2|1:0,0:0:0:0:
132,101,52975,6,0,P|151:139|110:197,1,116.999996429443,2|10,3:2|1:2,0:0:0:0:
63,256,53425,2,0,P|45:294|63:321,1,58.4999982147217,2|0,0:2|3:0,0:0:0:0:
98,369,53725,2,0,L|166:378,1,58.4999982147217,2|8,1:2|0:2,0:0:0:0:
221,333,54025,6,0,B|246:322|287:331|275:358|304:371|352:357,1,116.999996429443,2|0,3:2|3:0,0:0:0:0:
395,317,54475,2,0,P|408:284|403:256,1,58.4999982147217,8|0,1:2|0:0,0:0:0:0:
349,208,54775,1,0,3:0:0:0:
349,208,54925,1,0,3:0:0:0:
389,141,55075,1,10,1:2:0:0:
305,4,55375,6,0,B|269:-3|269:-3|192:29,1,116.999996429443,2|10,3:2|1:2,0:0:0:0:
141,88,55825,2,0,L|155:152,1,58.4999982147217,2|0,3:2|3:0,0:0:0:0:
215,194,56125,2,0,L|206:268,1,58.4999982147217,2|8,3:2|1:2,0:0:0:0:
242,324,56425,6,0,P|270:348|351:338,1,116.999996429443,2|0,3:2|3:0,0:0:0:0:
397,282,56875,1,8,1:2:0:0:
397,282,57025,2,0,L|461:298,2,58.4999982147217,0|0|0,3:0|3:0|3:0,0:0:0:0:
337,226,57475,1,10,1:2:0:0:
207,117,57775,6,0,P|230:88|262:78,1,58.4999982147217,6|0,3:2|0:0,0:0:0:0:
297,17,58075,2,0,P|330:35|361:35,1,58.4999982147217,10|2,1:2|0:2,0:0:0:0:
429,18,58375,1,0,1:0:0:0:
493,67,58525,2,0,L|485:140,1,58.4999982147217,2|8,3:2|3:2,0:0:0:0:
426,176,58825,1,6,3:2:0:0:
430,191,58900,1,0,3:0:0:0:
434,204,58975,6,0,L|442:239,3,29.2499991073609,0|0|0|0,3:0|3:0|3:0|3:0,3:0:0:0:
436,277,59275,2,0,P|415:312|393:316,1,58.4999982147217,0|0,1:0|1:0,0:0:0:0:
340,367,59575,1,0,1:0:0:0:
272,320,59725,2,0,L|281:280,2,29.2499991073609,0|0|0,1:0|1:0|1:0,0:0:0:0:
212,373,60025,1,0,1:0:0:0:
197,371,60100,1,0,1:0:0:0:
182,368,60175,6,0,P|157:342|159:298,1,58.4999982147217,4|0,3:2|0:0,0:0:0:0:
113,253,60475,2,0,P|135:217|134:191,1,58.4999982147217,8|0,1:2|0:0,0:0:0:0:
198,151,60775,2,0,P|168:128|85:143,2,116.999996429443,2|10|2,3:2|1:2|0:2,0:0:0:0:
249,218,61525,5,0,3:0:0:0:
249,218,61675,2,0,P|284:227|316:209,1,58.4999982147217,8|0,1:2|3:0,0:0:0:0:
377,185,61975,1,2,0:2:0:0:
377,185,62125,2,0,L|437:199,2,58.4999982147217,0|10|0,3:0|1:2|1:0,0:0:0:0:
323,120,62575,6,0,P|306:71|343:19,1,116.999996429443,2|10,3:2|1:2,0:0:0:0:
175,17,63175,1,0,3:0:0:0:
175,17,63325,2,0,P|141:37|118:33,1,58.4999982147217,2|8,1:2|0:2,0:0:0:0:
44,20,63625,2,0,P|6:35|8:111,1,116.999996429443,2|0,3:2|3:0,0:0:0:0:
54,164,64075,2,0,L|47:237,1,58.4999982147217,8|0,1:2|0:0,0:0:0:0:
11,293,64375,2,0,P|17:329|65:362,1,87.7499973220826,0|0,3:0|0:0,0:0:0:0:
92,370,64675,2,0,L|167:357,1,58.4999982147217,8|0,1:2|0:0,0:0:0:0:
206,301,64975,6,0,B|257:314|257:314|265:319|265:319|326:331,2,116.999996429443,0|8|2,3:0|1:2|3:2,0:0:0:0:
62,225,65875,1,10,1:2:0:0:
62,225,66025,2,0,B|71:184|71:184|71:175|71:175|90:95,1,116.999996429443,0|0,3:0|3:0,0:0:0:0:
156,68,66475,1,8,1:2:0:0:
156,68,66625,2,0,L|148:4,2,58.4999982147217,0|2|0,1:0|3:2|3:0,0:0:0:0:
217,119,67075,1,10,1:2:0:0:
351,14,67375,6,0,P|399:20|403:95,1,116.999996429443,6|10,3:2|1:2,0:0:0:0:
441,154,67825,2,0,P|425:180|417:215,1,58.4999982147217,2|0,0:2|3:0,0:0:0:0:
348,248,68125,2,0,P|370:291|375:321,1,58.4999982147217,2|8,0:2|1:2,0:0:0:0:
327,365,68425,2,0,B|291:371|291:371|202:342,1,116.999996429443,6|0,3:2|3:0,0:0:0:0:
159,291,68875,2,0,P|152:252|166:235,1,58.4999982147217,8|0,1:2|3:0,0:0:0:0:
205,173,69175,1,0,1:0:0:0:
205,173,69325,2,0,L|190:115,2,58.4999982147217,0|0|0,1:0|1:0|1:0,0:0:0:0:
277,211,69775,6,0,B|310:186|310:186|392:209,2,116.999996429443,4|10|2,3:2|1:2|3:2,0:0:0:0:
232,275,70525,2,0,L|245:334,1,58.4999982147217,2|8,0:2|1:2,0:0:0:0:
316,368,70825,2,0,P|370:376|426:340,1,116.999996429443,2|0,3:2|3:0,0:0:0:0:
475,288,71275,1,8,1:2:0:0:
426,135,71575,1,2,3:2:0:0:
426,135,71725,2,0,L|439:67,2,58.4999982147217,0|10|0,3:0|1:2|1:0,0:0:0:0:
357,184,72175,6,0,P|324:187|264:117,1,116.999996429443,2|10,3:2|1:2,0:0:0:0:
221,68,72625,2,0,P|192:49|161:48,1,58.4999982147217,2|0,0:2|3:0,0:0:0:0:
98,8,72925,2,0,P|63:24|39:24,1,58.4999982147217,2|8,1:2|0:2,0:0:0:0:
12,96,73225,2,0,B|25:153|25:153|24:157|24:157|38:210,1,116.999996429443,2|0,3:2|3:0,0:0:0:0:
86,273,73675,1,8,1:2:0:0:
214,173,73975,2,0,L|281:188,2,58.4999982147217,0|0|8,3:0|3:0|1:2,0:0:0:0:
119,36,74575,6,0,B|145:18|176:15|179:29|210:38|247:15,1,116.999996429443,2|10,3:2|1:2,0:0:0:0:
303,55,75025,2,0,P|341:63|366:51,1,58.4999982147217,2|0,3:2|3:0,0:0:0:0:
434,31,75325,2,0,P|481:46|492:66,1,58.4999982147217,2|8,3:2|1:2,0:0:0:0:
499,129,75625,6,0,B|471:154|471:154|486:242,1,116.999996429443,2|0,3:2|3:0,0:0:0:0:
465,309,76075,2,0,L|480:369,2,58.4999982147217,10|0|2,1:2|1:0|3:2,0:0:0:0:
410,256,76525,1,0,3:0:0:0:
410,256,76675,1,10,1:2:0:0:
248,198,76975,2,0,B|227:233|227:233|252:317,2,116.999996429443,6|0|0,3:2|1:0|1:0,0:0:0:0:
299,137,77725,1,0,3:0:0:0:
299,137,77875,1,8,3:2:0:0:
250,73,78025,1,4,3:2:0:0:
131,180,78325,5,2,0:2:0:0:
131,180,78475,1,2,0:2:0:0:
35,316,78737,6,0,P|66:343|129:336,1,97.5,2|0,0:2|0:0,0:0:0:0:
165,351,79056,2,0,P|188:322|251:311,1,97.5,2|0,0:2|0:0,0:0:0:0:
285,304,79375,6,0,B|322:302|349:313|342:338|361:355|421:348,2,130,6|8|0,3:2|1:2|3:0,0:0:0:0:
262,228,80125,1,2,0:2:0:0:
301,160,80275,1,10,1:2:0:0:
265,89,80425,2,0,P|219:80|194:92,1,65,2|0,3:2|0:0,0:0:0:0:
137,42,80725,5,2,0:2:0:0:
77,96,80875,1,10,1:2:0:0:
115,165,81025,2,0,L|104:230,1,65,2|0,3:2|0:0,0:0:0:0:
50,287,81325,2,0,L|67:356,1,65,2|10,3:2|1:2,0:0:0:0:
139,377,81625,1,2,3:2:0:0:
197,322,81775,6,0,B|219:346|219:346|327:362,2,130,0|8|0,3:2|1:2|3:0,0:0:0:0:
230,250,82525,1,0,1:0:0:0:
200,176,82675,2,0,P|210:117|222:112,1,65,8|0,0:2|3:0,0:0:0:0:
211,39,82975,2,0,L|280:29,1,65,0|0,0:0|3:0,0:0:0:0:
348,62,83275,1,8,1:2:0:0:
490,151,83575,6,0,P|501:187|453:242,1,97.5,2|0,3:2|0:0,0:0:0:0:
450,268,83875,2,0,P|417:251|360:272,1,97.5,10|0,1:2|0:0,0:0:0:0:
326,295,84175,6,0,P|297:315|208:293,2,130,2|8|0,3:2|1:2|3:0,0:0:0:0:
305,218,84925,1,2,0:2:0:0:
359,161,85075,1,10,1:2:0:0:
332,85,85225,2,0,B|304:65|304:65|268:67,1,65,2|0,3:2|0:0,0:0:0:0:
192,56,85525,6,0,B|158:53|158:53|119:22,2,65,2|10|2,0:2|1:2|3:2,0:0:0:0:
226,128,85975,2,0,L|197:194,1,65,2|2,0:2|3:2,0:0:0:0:
146,244,86275,1,10,1:2:0:0:
160,322,86425,2,0,P|194:357|274:354,1,130,2|2,3:2|0:2,0:0:0:0:
331,306,86875,6,0,P|365:299|401:317,1,65,6|2,1:2|0:2,0:0:0:0:
461,269,87175,2,0,L|529:289,2,65,2|2|2,0:2|0:2|1:2,0:0:0:0:
408,207,87625,2,0,B|422:149|422:149|419:140|419:140|437:69,1,130,6|2,3:2|3:2,0:0:0:0:
389,18,88075,6,0,P|350:8|321:19,1,65,0|0,1:0|3:0,0:0:0:0:
263,61,88375,1,2,1:2:0:0:
191,28,88525,1,0,1:0:0:0:
125,76,88675,2,0,P|115:126|130:149,1,65,2|0,1:2|1:0,0:0:0:0:
172,197,88975,6,0,P|180:238|108:293,2,130,6|8|0,3:2|1:2|3:0,0:0:0:0:
236,148,89725,1,2,0:2:0:0:
302,192,89875,1,10,1:2:0:0:
376,164,90025,2,0,B|392:133|392:133|383:100,1,65,2|0,3:2|0:0,0:0:0:0:
346,36,90325,5,2,0:2:0:0:
272,65,90475,1,10,1:2:0:0:
216,9,90625,2,0,P|172:8|137:26,1,65,2|0,3:2|0:0,0:0:0:0:
94,66,90925,2,0,L|82:129,1,65,2|10,3:2|1:2,0:0:0:0:
19,180,91225,6,0,B|1:212|1:212|34:301,1,130,2|2,3:2|0:2,0:0:0:0:
83,359,91675,2,0,P|116:363|154:344,1,65,8|0,1:2|0:0,0:0:0:0:
208,301,91975,2,0,P|257:293|293:306,1,65,0|0,3:0|1:0,0:0:0:0:
334,346,92275,1,8,0:2:0:0:
409,318,92425,6,0,P|428:285|388:193,1,130,0|0,3:0|3:0,0:0:0:0:
337,159,92875,1,8,1:2:0:0:
186,91,93175,2,0,L|196:21,2,65,2|0|10,3:2|3:0|1:2,0:0:0:0:
41,173,93775,6,0,L|56:242,1,65,2|0,3:2|0:0,0:0:0:0:
110,294,94075,2,0,P|161:308|224:259,1,130,8|0,1:2|3:0,0:0:0:0:
261,199,94525,1,2,0:2:0:0:
334,228,94675,1,10,1:2:0:0:
405,191,94825,2,0,B|418:162|418:162|405:122,1,65,2|0,3:2|0:0,0:0:0:0:
364,62,95125,6,0,L|431:38,2,65,2|10|2,0:2|1:2|3:2,0:0:0:0:
283,73,95575,2,0,P|286:35|302:11,2,65,2|2|10,0:2|3:2|1:2,0:0:0:0:
235,133,96025,2,0,B|258:160|257:195|245:198|239:220|267:265,1,130,2|2,3:2|0:2,0:0:0:0:
227,327,96475,2,0,P|188:344|156:339,1,65,0|0,1:0|0:0,0:0:0:0:
92,373,96775,2,0,P|61:355|28:354,1,65,0|8,1:0|0:3,0:0:0:0:
8,282,97075,1,4,0:3:0:0:
54,219,97225,1,4,3:2:0:0:
13,57,97675,6,0,L|6:13,4,32.5,2|0|2|0|0,3:2|3:0|3:2|3:0|3:0,0:0:0:0:
235,8,98425,1,2,3:2:0:0:
235,8,98575,6,0,P|253:37|251:75,1,58.4999982147217,12|2,3:2|0:2,0:0:0:0:
308,119,98875,2,0,P|283:161|284:186,1,58.4999982147217,10|2,1:2|0:2,0:0:0:0:
294,248,99175,2,0,B|318:275|318:275|412:264,1,116.999996429443,10|10,3:2|0:2,0:0:0:0:
465,222,99625,1,2,3:2:0:0:
489,57,99925,5,2,3:2:0:0:
489,57,100075,2,0,P|457:52|423:62,1,58.4999982147217,10|2,1:2|0:2,0:0:0:0:
362,18,100375,2,0,P|332:46|301:46,1,58.4999982147217,10|2,0:2|3:2,0:0:0:0:
257,98,100675,1,10,1:2:0:0:
190,56,100825,1,2,0:2:0:0:
37,122,101125,5,2,0:2:0:0:
37,122,101275,2,0,L|57:186,1,58.4999982147217,10|2,1:2|0:2,0:0:0:0:
122,219,101575,2,0,P|157:253|134:335,1,116.999996429443,10|10,3:2|1:2,0:0:0:0:
98,373,102025,1,2,3:2:0:0:
259,324,102325,5,2,3:2:0:0:
259,324,102475,2,0,P|302:331|327:310,1,58.4999982147217,10|2,1:2|0:2,0:0:0:0:
385,360,102775,2,0,P|419:342|446:344,1,58.4999982147217,10|2,3:2|0:2,0:0:0:0:
509,302,103075,2,0,L|516:233,1,58.4999982147217,10|2,1:2|0:2,0:0:0:0:
486,171,103375,5,12,3:2:0:0:
486,171,103525,2,0,P|446:161|422:172,1,58.4999982147217,2|10,0:2|1:2,0:0:0:0:
366,120,103825,1,2,0:2:0:0:
366,120,103975,2,0,P|319:162|261:157,1,116.999996429443,10|10,3:2|0:2,0:0:0:0:
206,112,104425,1,2,3:2:0:0:
46,162,104725,5,2,3:2:0:0:
46,162,104875,2,0,L|62:225,1,58.4999982147217,10|2,1:2|0:2,0:0:0:0:
132,255,105175,2,0,L|128:334,1,58.4999982147217,10|2,1:2|0:2,0:0:0:0:
179,375,105475,2,0,P|212:377|244:360,1,58.4999982147217,10|2,1:2|0:2,0:0:0:0:
292,311,105775,6,0,P|328:300|392:344,1,116.999996429443,10|10,3:2|1:2,0:0:0:0:
469,350,106225,2,0,B|495:317|495:317|473:235,1,116.999996429443,2|2,3:2|1:2,0:0:0:0:
490,168,106675,1,10,0:2:0:0:
442,106,106825,2,0,B|406:116|385:107|381:91|363:77|306:89,1,116.999996429443,6|2,1:2|3:2,0:0:0:0:
271,32,107275,6,0,P|240:44|218:68,1,58.4999982147217,10|2,1:2|0:2,0:0:0:0:
177,126,107575,2,0,P|137:137|112:135,1,58.4999982147217,8|2,3:2|0:2,0:0:0:0:
50,171,107875,2,0,B|39:198|39:198|50:236,1,58.4999982147217,10|2,1:2|0:2,0:0:0:0:
95,291,108175,5,12,3:2:0:0:
169,259,108325,1,2,0:2:0:0:
169,259,108475,2,0,P|211:279|217:299,1,58.4999982147217,10|2,1:2|0:2,0:0:0:0:
272,342,108775,2,0,P|303:348|359:287,1,116.999996429443,10|10,3:2|0:2,0:0:0:0:
345,215,109225,1,2,3:2:0:0:
225,108,109525,5,2,3:2:0:0:
225,108,109675,2,0,P|261:84|294:84,1,58.4999982147217,10|2,1:2|0:2,0:0:0:0:
325,20,109975,2,0,P|364:38|390:37,1,58.4999982147217,10|2,3:2|0:2,0:0:0:0:
459,33,110275,1,10,1:2:0:0:
504,99,110425,1,2,0:2:0:0:
390,213,110725,5,2,0:2:0:0:
390,213,110875,2,0,L|326:206,1,58.4999982147217,10|2,1:2|0:2,0:0:0:0:
278,150,111175,2,0,B|241:133|241:133|155:162,1,116.999996429443,10|10,3:2|1:2,0:0:0:0:
120,219,111625,1,2,3:2:0:0:
24,353,111925,5,2,3:2:0:0:
24,353,112075,2,0,L|10:291,1,58.4999982147217,10|2,1:2|0:2,0:0:0:0:
25,219,112375,2,0,L|14:157,1,58.4999982147217,10|2,3:2|0:2,0:0:0:0:
41,87,112675,2,0,P|74:68|103:74,1,58.4999982147217,10|2,1:2|0:2,0:0:0:0:
163,28,112975,5,12,3:2:0:0:
163,28,113125,2,0,P|199:46|241:45,1,58.4999982147217,2|10,0:2|1:2,0:0:0:0:
282,103,113425,1,2,0:2:0:0:
282,103,113575,2,0,P|326:80|390:120,1,116.999996429443,10|10,3:2|1:2,0:0:0:0:
432,171,114025,1,2,3:2:0:0:
382,329,114325,5,2,3:2:0:0:
382,329,114475,2,0,L|319:344,1,58.4999982147217,10|2,1:2|0:2,0:0:0:0:
248,364,114775,2,0,L|185:348,1,58.4999982147217,10|2,3:2|0:2,0:0:0:0:
136,294,115075,1,10,1:2:0:0:
170,223,115225,1,2,3:2:0:0:
118,161,115375,6,0,P|78:153|17:203,1,116.999996429443,10|10,1:2|1:2,0:0:0:0:
5,274,115825,2,0,B|6:308|6:308|75:367,1,116.999996429443,2|2,0:2|1:2,0:0:0:0:
143,333,116275,1,10,1:2:0:0:
143,333,116425,2,0,P|175:333|242:383,1,116.999996429443,6|2,1:2|3:2,0:0:0:0:
319,368,116875,6,0,P|352:348|354:323,1,58.4999982147217,10|2,1:2|0:2,0:0:0:0:
418,282,117175,2,0,P|397:239|400:206,1,58.4999982147217,10|2,1:2|1:2,0:0:0:0:
363,158,117475,2,0,L|316:151,3,29.2499991073609,10|0|0|0,1:2|1:0|1:0|0:0,0:0:0:0:
296,127,117775,6,0,B|265:156|265:156|281:238,2,116.999996429443,6|8|0,3:2|1:2|3:0,0:0:0:0:
289,48,118525,2,0,P|260:34|232:33,1,58.4999982147217,2|10,3:2|1:2,0:0:0:0:
160,6,118825,2,0,P|131:42|62:57,1,116.999996429443,2|0,3:2|3:0,0:0:0:0:
7,111,119275,1,8,1:2:0:0:
93,252,119575,1,0,3:0:0:0:
255,206,119875,2,0,P|294:211|316:234,1,58.4999982147217,10|0,1:2|1:0,0:0:0:0:
370,276,120175,6,0,P|412:284|461:224,1,116.999996429443,2|10,3:2|1:2,0:0:0:0:
506,171,120625,2,0,P|485:130|483:113,1,58.4999982147217,2|0,0:2|3:0,0:0:0:0:
437,54,120925,2,0,B|406:40|406:40|375:45,1,58.4999982147217,2|8,1:2|0:2,0:0:0:0:
312,4,121225,6,0,B|259:33|259:33|187:19,1,116.999996429443,2|0,3:2|3:0,0:0:0:0:
130,51,121675,1,8,1:2:0:0:
13,171,121975,2,0,L|30:233,1,58.4999982147217,0|0,3:0|3:0,0:0:0:0:
54,301,122275,1,8,1:2:0:0:
209,366,122575,6,0,P|248:361|303:293,1,116.999996429443,2|10,3:2|1:2,0:0:0:0:
312,231,123025,2,0,P|340:211|374:212,1,58.4999982147217,2|0,3:2|3:0,0:0:0:0:
415,148,123325,2,0,P|443:123|445:97,1,58.4999982147217,2|8,3:2|1:2,0:0:0:0:
424,28,123625,6,0,B|397:9|397:9|294:38,1,116.999996429443,2|0,3:2|3:0,0:0:0:0:
270,95,124075,1,8,1:2:0:0:
125,20,124375,1,0,3:0:0:0:
125,20,124525,1,0,3:0:0:0:
61,69,124675,2,0,L|69:144,1,58.4999982147217,10|0,1:2|3:0,0:0:0:0:
36,198,124975,6,0,B|17:226|17:226|47:306,1,116.999996429443,6|10,3:2|1:2,0:0:0:0:
95,368,125425,2,0,P|128:374|154:362,1,58.4999982147217,2|0,0:2|3:0,0:0:0:0:
207,309,125725,2,0,B|215:281|215:281|204:253,1,58.4999982147217,2|8,3:2|1:2,0:0:0:0:
159,187,126025,6,0,P|152:149|215:96,1,116.999996429443,6|2,3:2|3:2,0:0:0:0:
252,33,126475,1,10,1:2:0:0:
252,33,126625,1,2,3:2:0:0:
321,75,126775,2,0,L|380:70,1,58.4999982147217,0|2,1:0|1:2,0:0:0:0:
456,107,127075,1,0,1:0:0:0:
456,107,127225,1,0,1:0:0:0:
411,176,127375,6,0,B|426:230|426:230|424:235|424:235|442:295,2,116.999996429443,6|8|0,3:2|1:2|3:0,0:0:0:0:
339,143,128125,2,0,P|296:149|282:168,1,58.4999982147217,2|10,0:2|1:2,0:0:0:0:
243,224,128425,2,0,P|198:231|148:182,1,116.999996429443,2|0,3:2|3:0,0:0:0:0:
83,143,128875,5,8,1:2:0:0:
189,15,129175,1,0,3:0:0:0:
189,15,129325,1,0,3:0:0:0:
252,65,129475,2,0,L|312:55,1,58.4999982147217,10|0,1:2|1:0,0:0:0:0:
379,9,129775,6,0,P|420:13|447:88,1,116.999996429443,2|10,3:2|1:2,0:0:0:0:
483,146,130225,2,0,P|460:176|455:204,1,58.4999982147217,2|0,0:2|3:0,0:0:0:0:
387,237,130525,2,0,P|403:277|406:308,1,58.4999982147217,2|8,1:2|0:2,0:0:0:0:
357,355,130825,2,0,B|327:369|327:369|235:348,1,116.999996429443,2|0,3:2|3:0,0:0:0:0:
183,300,131275,5,8,1:2:0:0:
27,360,131575,1,0,3:0:0:0:
5,196,131875,2,0,P|27:168|59:168,1,58.4999982147217,10|0,1:2|0:0,0:0:0:0:
112,118,132175,6,0,P|146:140|215:115,1,116.999996429443,2|10,3:2|1:2,0:0:0:0:
266,58,132625,1,2,3:2:0:0:
266,58,132775,2,0,L|334:66,1,58.4999982147217,0|2,3:0|3:2,0:0:0:0:
387,17,133075,1,8,1:2:0:0:
387,17,133225,6,0,B|417:29|417:29|440:116,1,116.999996429443,2|0,3:2|3:0,0:0:0:0:
406,183,133675,2,0,L|421:244,2,58.4999982147217,8|0|0,1:2|3:0|3:0,0:0:0:0:
337,151,134125,1,0,3:0:0:0:
337,151,134275,1,10,1:2:0:0:
190,76,134575,6,0,P|148:77|117:140,1,116.999996429443,6|10,3:2|1:2,0:0:0:0:
60,193,135025,2,0,L|77:257,1,58.4999982147217,2|0,0:2|1:0,0:0:0:0:
125,312,135325,2,0,P|161:320|186:314,1,58.4999982147217,2|8,3:2|3:2,0:0:0:0:
249,273,135625,1,6,3:2:0:0:
395,360,135925,5,0,3:0:0:0:
395,360,136075,2,0,L|401:298,1,58.4999982147217,0|0,1:0|1:0,0:0:0:0:
463,254,136375,1,2,1:2:0:0:
434,180,136525,1,0,1:0:0:0:
438,171,136600,1,0,1:0:0:0:
443,162,136675,2,0,L|439:120,3,29.2499991073609,0|0|0|0,1:0|1:0|1:0|1:0,0:0:0:0:
408,91,136975,6,0,B|432:67|459:63|464:76|492:80|517:51,2,116.999996429443,4|8|2,3:2|1:2|3:2,0:0:0:0:
333,123,137725,1,0,0:0:0:0:
333,123,137875,2,0,L|263:108,1,58.4999982147217,10|0,1:2|3:0,0:0:0:0:
214,58,138175,6,0,P|177:63|146:135,1,116.999996429443,2|8,0:2|1:2,0:0:0:0:
91,189,138625,1,0,3:0:0:0:
91,189,138775,2,0,P|115:223|120:251,1,58.4999982147217,2|0,0:2|3:0,0:0:0:0:
89,313,139075,1,10,1:2:0:0:
239,364,139375,6,0,B|297:368|297:368|305:373|305:373|367:378,2,116.999996429443,2|10|2,3:2|1:2|3:2,0:0:0:0:
186,306,140125,1,2,1:2:0:0:
292,184,140425,6,0,P|314:156|284:88,1,116.999996429443,2|0,3:2|3:0,0:0:0:0:
225,34,140875,2,0,L|157:46,1,58.4999982147217,8|0,1:2|0:0,0:0:0:0:
110,100,141175,2,0,L|43:90,1,58.4999982147217,0|0,3:0|3:0,0:0:0:0:
6,28,141475,1,8,1:2:0:0:
92,179,141775,6,0,P|66:219|-10:219,2,116.999996429443,0|8|2,3:0|1:2|3:2,0:0:0:0:
174,162,142525,1,0,0:0:0:0:
174,162,142675,2,0,P|201:173|216:205,1,58.4999982147217,10|0,1:2|3:0,0:0:0:0:
242,273,142975,6,0,P|286:302|343:271,1,116.999996429443,2|8,0:2|1:2,0:0:0:0:
395,218,143425,1,0,1:0:0:0:
395,218,143575,2,0,L|384:160,1,58.4999982147217,2|0,3:2|3:0,0:0:0:0:
370,82,143875,1,10,1:2:0:0:
215,13,144175,6,0,P|186:23|167:67,1,58.4999982147217,6|0,3:2|0:0,0:0:0:0:
105,90,144475,1,10,1:2:0:0:
105,90,144625,2,0,L|123:153,1,58.4999982147217,2|0,0:2|3:0,0:0:0:0:
183,198,144925,2,0,L|174:268,1,58.4999982147217,2|8,0:2|1:2,0:0:0:0:
203,331,145225,2,0,P|219:360|303:366,1,116.999996429443,6|0,3:2|3:0,0:0:0:0:
350,312,145675,1,8,1:2:0:0:
264,169,145975,5,0,1:0:0:0:
264,169,146125,2,0,L|272:111,1,58.4999982147217,0|0,1:0|1:0,0:0:0:0:
317,44,146425,1,0,1:0:0:0:
317,44,146575,6,0,P|366:37|425:90,2,116.999996429443,4|10|2,3:2|1:2|3:2,0:0:0:0:
250,1,147325,1,2,0:2:0:0:
250,1,147475,2,0,L|175:14,1,58.4999982147217,8|2,1:2|3:2,0:0:0:0:
56,105,147925,5,0,3:0:0:0:
56,105,148075,2,0,L|74:184,1,58.4999982147217,8|0,1:2|3:0,0:0:0:0:
127,216,148375,2,0,L|114:284,1,58.4999982147217,2|0,3:2|3:0,0:0:0:0:
155,344,148675,1,10,1:2:0:0:
314,373,148975,6,0,P|336:353|332:260,1,116.999996429443,2|10,3:2|1:2,0:0:0:0:
277,222,149425,2,0,L|286:160,1,58.4999982147217,2|0,0:2|3:0,0:0:0:0:
237,100,149725,2,0,L|228:28,1,58.4999982147217,2|8,1:2|0:2,0:0:0:0:
304,1,150025,6,0,B|356:12|356:12|361:16|361:16|426:31,1,116.999996429443,2|0,3:2|3:0,0:0:0:0:
497,25,150475,1,8,1:2:0:0:
365,128,150775,2,0,L|375:191,1,58.4999982147217,0|0,3:0|3:0,0:0:0:0:
389,264,151075,1,8,1:2:0:0:
268,372,151375,6,0,P|228:370|203:346,1,58.4999982147217,2|0,3:2|0:0,0:0:0:0:
168,295,151675,1,10,1:2:0:0:
168,295,151825,2,0,L|177:233,1,58.4999982147217,2|0,3:2|3:0,0:0:0:0:
237,187,152125,2,0,L|223:126,1,58.4999982147217,2|8,3:2|1:2,0:0:0:0:
172,69,152425,2,0,P|137:60|67:106,1,116.999996429443,2|0,3:2|3:0,0:0:0:0:
10,149,152875,5,10,1:2:0:0:
25,311,153175,2,0,L|82:326,1,58.4999982147217,2|0,3:2|3:0,0:0:0:0:
146,373,153475,2,0,L|215:356,1,58.4999982147217,10|0,1:2|1:0,0:0:0:0:
263,302,153775,6,0,P|318:318|331:372,2,116.999996429443,6|0|0,3:2|1:0|1:0,0:0:0:0:
206,248,154525,1,0,3:0:0:0:
206,248,154675,1,8,3:2:0:0:
257,187,154825,1,4,3:2:0:0:
206,122,154975,6,0,L|211:98,8,14.6249995536804,0|0|0|0|2|0|0|0|8,0:0|0:0|0:0|0:0|0:2|0:0|0:0|0:0|0:2,0:0:0:0:
415,44,155575,6,0,P|449:79|441:126,1,87.7499973220826,10|0,0:2|0:0,0:0:0:0:
430,158,155875,2,0,P|402:193|428:246,1,87.7499973220826,10|0,0:2|0:0,0:0:0:0:
397,284,156175,6,0,B|428:312|428:312|521:289,2,130,6|8|0,3:2|1:2|3:0,0:0:0:0:
319,300,156925,1,2,0:2:0:0:
269,239,157075,1,10,1:2:0:0:
201,276,157225,2,0,P|155:267|130:279,1,65,2|0,3:2|0:0,0:0:0:0:
80,218,157525,5,2,0:2:0:0:
126,151,157675,1,10,1:2:0:0:
100,78,157825,2,0,L|167:51,1,65,2|0,3:2|0:0,0:0:0:0:
223,3,158125,2,0,L|294:9,1,65,2|10,3:2|1:2,0:0:0:0:
345,65,158425,1,2,3:2:0:0:
412,109,158575,6,0,P|445:83|413:1,2,130,0|8|0,3:2|1:2|3:0,0:0:0:0:
343,146,159325,1,0,1:0:0:0:
313,220,159475,2,0,P|323:279|335:284,1,65,8|0,0:2|3:0,0:0:0:0:
324,357,159775,2,0,L|393:367,1,65,0|0,0:0|3:0,0:0:0:0:
461,334,160075,1,8,1:2:0:0:
503,179,160375,6,0,B|512:139|512:139|478:74,1,97.5,2|0,3:2|0:0,0:0:0:0:
457,50,160675,2,0,P|416:41|365:80,1,97.5,10|0,1:2|0:0,0:0:0:0:
332,93,160975,6,0,P|272:84|245:7,2,130,2|8|0,3:2|1:2|3:0,0:0:0:0:
392,144,161725,1,2,0:2:0:0:
340,201,161875,1,10,1:2:0:0:
373,272,162025,6,0,P|382:314|309:362,1,130,2|2,3:2|0:2,0:0:0:0:
252,322,162475,1,10,1:2:0:0:
193,375,162625,2,0,L|109:360,1,65,2|2,3:2|0:2,0:0:0:0:
73,310,162925,2,0,L|-12:323,2,65,2|10|2,3:2|1:2|3:2,0:0:0:0:
127,251,163375,6,0,B|146:218|146:218|110:132,2,130,0|6|2,3:2|1:2|0:2,0:0:0:0:
183,308,164125,1,2,0:2:0:0:
255,273,164275,1,2,1:2:0:0:
321,317,164425,6,0,P|376:326|429:277,1,130,6|2,3:2|0:2,0:0:0:0:
490,231,164875,2,0,L|481:162,1,65,0|0,1:0|3:0,0:0:0:0:
501,89,165175,1,2,1:2:0:0:
437,40,165325,1,0,1:0:0:0:
376,91,165475,2,0,L|305:81,1,65,2|0,1:2|1:0,0:0:0:0:
242,128,165775,6,0,P|228:82|276:6,2,130,6|8|0,3:2|1:2|3:0,0:0:0:0:
206,200,166525,1,2,0:2:0:0:
244,270,166675,1,10,1:2:0:0:
216,346,166825,6,0,B|188:364|188:364|146:365,1,65,2|0,3:2|0:0,0:0:0:0:
81,335,167125,1,2,0:2:0:0:
105,259,167275,1,10,1:2:0:0:
53,197,167425,2,0,L|65:130,1,65,2|0,3:2|0:0,0:0:0:0:
111,69,167725,2,0,P|152:59|178:68,1,65,2|10,3:2|1:2,0:0:0:0:
247,34,168025,6,0,P|281:72|358:62,1,130,2|2,3:2|0:2,0:0:0:0:
418,18,168475,1,8,1:2:0:0:
463,178,168775,2,0,L|530:163,2,65,0|0|8,3:0|1:0|0:2,0:0:0:0:
408,237,169225,2,0,B|346:223|346:223|343:218|343:218|270:203,1,130,0|0,3:0|3:0,0:0:0:0:
237,142,169675,2,0,P|200:144|162:174,1,65,8|0,1:2|0:0,0:0:0:0:
119,214,169975,2,0,P|85:209|55:183,2,65,2|0|10,3:2|3:0|1:2,0:0:0:0:
219,348,170575,6,0,B|176:364|155:350|152:342|129:337|82:356,2,130,2|8|0,3:2|1:2|3:0,0:0:0:0:
290,312,171325,1,2,0:2:0:0:
336,247,171475,1,10,1:2:0:0:
414,266,171625,6,0,P|457:262|497:182,1,130,2|2,3:2|0:2,0:0:0:0:
475,118,172075,1,10,1:2:0:0:
397,136,172225,2,0,L|311:113,1,65,2|2,3:2|0:2,0:0:0:0:
278,63,172525,2,0,L|188:68,1,65,2|10,3:2|1:2,0:0:0:0:
147,111,172825,1,2,3:2:0:0:
69,126,172975,6,0,B|48:90|48:90|82:0,2,130,0|0|0,3:2|1:0|1:0,0:0:0:0:
35,197,173725,1,8,0:3:0:0:
75,265,173875,1,4,0:3:0:0:
35,335,174025,1,4,3:2:0:0:
189,378,174475,6,0,L|227:368,4,32.5,2|0|2|0|0,3:2|3:0|3:2|3:0|3:0,0:0:0:0:
401,281,175225,1,2,3:2:0:0:
401,281,175375,5,4,3:2:0:0:
343,225,175525,2,0,L|238:247,1,97.50000371933
181,203,175975,1,10,3:2:0:0:
181,203,176125,2,0,L|183:146,1,48.750001859665,2|10,1:2|0:2,0:0:0:0:
141,88,176425,1,2,3:2:0:0:
141,88,176575,5,10,0:2:0:0:
3,167,176875,1,10,1:2:0:0:
3,167,177025,2,0,L|28:263,1,97.50000371933,2|8,0:2|3:2,0:0:0:0:
85,316,177475,1,8,1:2:0:0:
225,233,177775,6,0,P|256:244|284:315,1,97.50000371933,10|10,3:2|1:2,0:0:0:0:
321,368,178225,2,0,L|386:360,1,48.750001859665,2|8,0:2|3:2,0:0:0:0:
426,306,178525,2,0,L|484:324,2,48.750001859665,2|8|2,1:2|1:2|3:2,0:0:0:0:
330,175,179125,5,0,3:0:0:0:
330,175,179275,2,0,L|341:113,1,48.750001859665,8|0,1:2|0:0,0:0:0:0:
289,65,179575,2,0,L|280:15,2,48.750001859665,8|0|8,3:2|3:0|1:2,0:0:0:0:
206,206,180175,6,0,P|170:201|145:148,2,97.50000371933,4|8|10,3:2|1:2|3:2,0:0:0:0:
273,256,180925,1,2,1:2:0:0:
273,256,181075,2,0,L|262:325,1,48.750001859665,10|2,0:2|3:2,0:0:0:0:
212,360,181375,2,0,P|181:365|152:350,1,48.750001859665,10|0,0:2|3:0,0:0:0:0:
103,313,181675,2,0,P|66:314|41:335,1,48.750001859665,10|2,1:2|0:2,0:0:0:0:
2,263,181975,2,0,L|12:203,2,48.750001859665,8|0|8,1:2|3:0|1:2,0:0:0:0:
90,122,182575,6,0,P|141:104|183:131,1,97.50000371933,14|10,3:2|1:2,0:0:0:0:
251,153,183025,2,0,L|299:144,2,48.750001859665,2|8|2,0:2|3:2|1:2,0:0:0:0:
157,283,183625,6,0,P|156:307|213:353,1,97.50000371933,6|0,1:2|3:0,0:0:0:0:
283,335,184075,2,0,P|322:324|372:359,2,97.50000371933,8|8|8,1:2|3:2|1:2,0:0:0:0:
170,213,184975,6,0,P|180:179|244:149,1,97.50000371933,6|10,3:2|1:2,0:0:0:0:
287,92,185425,2,0,L|338:103,2,48.750001859665,2|8|2,0:2|3:2|1:2,0:0:0:0:
145,8,186025,6,0,P|86:12|60:60,1,97.50000371933,2|0,3:2|3:0,0:0:0:0:
8,96,186475,2,0,L|27:148,1,48.750001859665,8|8,1:2|0:2,0:0:0:0:
72,206,186775,2,0,L|61:260,2,48.750001859665,8|8|10,3:2|3:2|1:2,0:0:0:0:
215,125,187375,6,0,P|256:146|267:201,1,97.50000371933,10|10,3:2|1:2,0:0:0:0:
316,257,187825,2,0,L|374:269,1,48.750001859665,2|8,0:2|3:2,0:0:0:0:
425,214,188125,2,0,L|477:205,2,48.750001859665,2|8|2,1:2|1:2|3:2,0:0:0:0:
351,362,188725,5,0,3:0:0:0:
351,362,188875,2,0,P|310:347|294:349,1,48.750001859665,8|0,1:2|0:0,0:0:0:0:
246,295,189175,2,0,P|201:322|184:322,2,48.750001859665,8|0|8,3:2|3:0|1:2,0:0:0:0:
347,166,189775,6,0,P|337:118|285:82,1,97.50000371933,6|10,3:2|1:2,0:0:0:0:
259,22,190225,2,0,L|195:13,1,48.750001859665,2|8,0:2|3:2,0:0:0:0:
146,65,190525,2,0,L|83:73,1,48.750001859665,2|8,1:2|1:2,0:0:0:0:
37,122,190825,6,0,P|23:153|62:211,1,97.50000371933,2|0,3:2|3:0,0:0:0:0:
90,273,191275,1,10,1:2:0:0:
232,195,191575,1,10,3:2:0:0:
372,288,191875,1,10,1:2:0:0:
503,180,192175,6,0,L|493:126,2,48.750001859665,4|8|8,0:2|0:2|3:2,0:0:0:0:
448,238,192625,1,8,0:2:0:0:
445,249,192700,1,0,1:0:0:0:
441,260,192775,2,0,L|452:316,1,48.750001859665,8|8,1:2|1:2,0:0:0:0:
399,369,193075,2,0,L|341:361,1,48.750001859665,8|8,1:2|1:2,0:0:0:0:
172,262,193975,6,0,L|113:276,1,48.750001859665,2|0,1:2|1:0,0:0:0:0:
50,244,194275,2,0,L|38:212,3,24.3750009298325,2|0|0|0,1:2|1:0|1:0|0:0,0:0:0:0:
41,166,194575,6,0,B|83:175|83:175|174:148,2,130,6|8|0,3:2|1:2|3:0,0:0:0:0:
4,95,195325,1,2,0:2:0:0:
50,29,195475,1,10,1:2:0:0:
125,57,195625,6,0,L|201:40,1,65,2|0,3:2|0:0,0:0:0:0:
257,2,195925,1,2,0:2:0:0:
319,53,196075,1,10,1:2:0:0:
388,14,196225,2,0,B|423:19|423:19|442:50,1,65,2|0,3:2|0:0,0:0:0:0:
500,94,196525,2,0,L|483:165,1,65,2|10,3:2|1:2,0:0:0:0:
431,216,196825,1,2,3:2:0:0:
377,279,196975,6,0,P|379:322|456:358,2,130,0|8|0,3:2|1:2|3:0,0:0:0:0:
330,217,197725,2,0,P|289:206|252:224,1,65,0|8,1:0|0:2,0:0:0:0:
201,172,198025,6,0,P|159:193|73:150,1,130,0|0,3:0|3:0,0:0:0:0:
49,97,198475,1,8,1:2:0:0:
190,9,198775,1,2,3:2:0:0:
254,55,198925,1,0,3:0:0:0:
317,6,199075,2,0,L|401:19,1,65,10|0,1:2|0:0,0:0:0:0:
408,94,199375,6,0,B|448:122|448:122|538:100,2,130,2|8|0,3:2|1:2|3:0,0:0:0:0:
330,111,200125,1,2,0:2:0:0:
279,173,200275,1,10,1:2:0:0:
208,140,200425,2,0,B|187:116|187:116|188:77,1,65,2|0,3:2|0:0,0:0:0:0:
117,46,200725,6,0,P|137:17|169:8,2,65,2|10|2,0:2|1:2|3:2,0:0:0:0:
52,95,201175,2,0,B|76:124|76:124|61:215,1,130,2|10,0:2|1:2,0:0:0:0:
85,292,201625,1,2,3:2:0:0:
158,325,201775,6,0,L|226:315,1,65,0|2,3:2|0:2,0:0:0:0:
280,261,202075,2,0,L|364:276,1,65,6|2,1:2|0:2,0:0:0:0:
400,330,202375,1,2,0:2:0:0:
474,298,202525,2,0,L|485:233,1,65,2|2,0:2|1:2,0:0:0:0:
461,159,202825,6,0,P|425:137|343:177,1,130,6|2,3:2|0:2,0:0:0:0:
270,174,203275,1,0,1:0:0:0:
156,49,203575,2,0,L|221:39,1,65,2|0,1:2|1:0,0:0:0:0:
294,8,203875,2,0,L|363:19,1,65,2|0,1:2|1:0,0:0:0:0:
403,86,204175,6,0,P|451:98|501:37,2,130,6|8|0,3:2|1:2|3:0,0:0:0:0:
338,134,204925,1,2,0:2:0:0:
375,204,205075,1,10,1:2:0:0:
341,277,205225,2,0,P|308:295|270:286,1,65,2|0,3:2|0:0,0:0:0:0:
217,245,205525,6,0,P|166:255|146:276,1,65,2|10,0:2|1:2,0:0:0:0:
92,314,205825,2,0,B|54:299|54:299|30:209,1,130,2|2,3:2|3:2,0:0:0:0:
0,140,206275,1,10,1:2:0:0:
57,84,206425,6,0,P|103:78|158:138,1,130,2|2,3:2|0:2,0:0:0:0:
163,213,206875,1,8,1:2:0:0:
279,98,207175,1,0,3:0:0:0:
350,62,207325,1,0,1:0:0:0:
421,105,207475,6,0,L|433:182,1,65,8|0,0:2|3:0,0:0:0:0:
492,220,207775,2,0,L|477:298,1,65,0|0,0:0|3:0,0:0:0:0:
422,340,208075,2,0,P|370:331|341:244,2,130,8|2|10,1:2|3:2|1:2,0:0:0:0:
257,306,208975,6,0,P|186:327|174:382,2,130,2|8|0,3:2|1:2|3:0,0:0:0:0:
247,226,209725,1,2,0:2:0:0:
286,158,209875,1,10,1:2:0:0:
252,86,210025,6,0,B|222:64|222:64|179:72,1,65,2|0,3:2|0:0,0:0:0:0:
132,18,210325,1,2,0:2:0:0:
63,60,210475,1,10,1:2:0:0:
81,137,210625,2,0,L|66:204,1,65,2|2,3:2|0:2,0:0:0:0:
3,247,210925,2,0,L|16:317,1,65,2|10,3:2|1:2,0:0:0:0:
69,370,211225,1,2,3:2:0:0:
134,322,211375,6,0,P|190:315|239:364,2,130,0|0|0,3:2|1:0|1:0,0:0:0:0:
108,247,212125,1,8,0:3:0:0:
154,182,212275,1,4,0:3:0:0:
121,109,212425,1,4,3:2:0:0:
186,36,212575,6,0,B|221:40|221:40|222:47|222:47|260:47,7,65,8|8|8|8|8|8|8|8,0:2|0:2|0:2|0:2|0:2|0:2|0:2|0:2,0:0:0:0:
370,103,213775,6,0,B|334:107|334:107|333:114|333:114|296:114,7,65,8|8|8|8|8|8|8|8,0:2|0:2|0:2|0:2|0:2|0:2|0:2|0:2,0:0:0:0:
242,153,214975,6,0,L|254:210,1,48.750001859665,8|8,3:2|3:2,0:0:0:0:
170,205,215275,2,0,L|182:262,1,48.750001859665,8|8,3:2|3:2,0:0:0:0:
99,257,215575,2,0,L|111:314,1,48.750001859665,8|8,3:2|3:2,0:0:0:0:
26,304,215875,2,0,L|38:361,2,48.750001859665,8|8|0,3:2|3:2|0:0,0:0:0:0:
29,160,217075,6,0,L|14:155,6,16.25,2|0|0|0|2|0|0,0:2|0:0|0:0|0:0|0:2|0:0|0:0,0:0:0:0:
69,131,217375,6,0,P|115:138|129:158,1,58.4999982147217,12|2,3:2|0:2,0:0:0:0:
178,200,217675,2,0,P|203:216|238:212,1,58.4999982147217,10|2,1:2|0:2,0:0:0:0:
305,184,217975,2,0,B|317:153|317:153|288:58,1,116.999996429443,10|10,3:2|0:2,0:0:0:0:
232,23,218425,1,2,3:2:0:0:
394,3,218725,5,2,3:2:0:0:
394,3,218875,2,0,L|406:67,1,58.4999982147217,10|2,1:2|0:2,0:0:0:0:
455,122,219175,2,0,L|446:196,1,58.4999982147217,10|2,0:2|3:2,0:0:0:0:
480,253,219475,1,10,1:2:0:0:
434,316,219625,1,2,0:2:0:0:
282,369,219925,5,2,0:2:0:0:
282,369,220075,2,0,P|249:356|236:334,1,58.4999982147217,10|2,1:2|0:2,0:0:0:0:
190,274,220375,2,0,P|153:264|92:307,1,116.999996429443,10|10,3:2|1:2,0:0:0:0:
32,359,220825,1,2,3:2:0:0:
31,192,221125,5,2,3:2:0:0:
31,192,221275,2,0,L|91:178,1,58.4999982147217,10|2,1:2|0:2,0:0:0:0:
140,121,221575,2,0,L|203:130,1,58.4999982147217,10|2,3:2|0:2,0:0:0:0:
260,177,221875,2,0,L|330:162,1,58.4999982147217,10|2,1:2|0:2,0:0:0:0:
379,116,222175,6,0,L|457:133,1,58.4999982147217,12|2,3:2|0:2,0:0:0:0:
501,176,222475,2,0,P|506:232|495:257,1,58.4999982147217,10|2,1:2|0:2,0:0:0:0:
478,308,222775,2,0,B|434:333|434:333|357:313,1,116.999996429443,10|10,3:2|0:2,0:0:0:0:
288,301,223225,1,2,3:2:0:0:
193,163,223525,5,2,3:2:0:0:
228,92,223675,2,0,L|299:87,1,58.4999982147217,10|2,1:2|0:2,0:0:0:0:
337,26,223975,2,0,L|415:46,1,58.4999982147217,10|2,1:2|0:2,0:0:0:0:
472,31,224275,1,10,1:2:0:0:
503,104,224425,1,2,0:2:0:0:
441,155,224575,6,0,P|420:184|447:257,1,116.999996429443,10|10,3:2|1:2,0:0:0:0:
424,332,225025,2,0,B|395:363|395:363|301:347,1,116.999996429443,2|2,3:2|1:2,0:0:0:0:
270,291,225475,1,10,0:2:0:0:
201,332,225625,1,6,1:2:0:0:
61,237,225925,5,2,3:2:0:0:
61,237,226075,2,0,L|58:162,1,58.4999982147217,10|2,1:2|0:2,0:0:0:0:
26,105,226375,1,8,3:2:0:0:
164,13,226675,1,10,1:2:0:0:
279,127,226975,6,0,P|320:116|356:137,1,58.4999982147217,12|2,3:2|0:2,0:0:0:0:
397,72,227275,2,0,P|434:97|462:94,1,58.4999982147217,10|2,1:2|0:2,0:0:0:0:
499,159,227575,2,0,B|519:192|519:192|500:279,1,116.999996429443,10|10,3:2|0:2,0:0:0:0:
444,324,228025,1,2,3:2:0:0:
292,384,228325,5,2,3:2:0:0:
235,329,228475,2,0,L|242:260,1,58.4999982147217,10|2,1:2|0:2,0:0:0:0:
313,229,228775,2,0,L|300:168,1,58.4999982147217,10|2,3:2|0:2,0:0:0:0:
248,112,229075,1,10,1:2:0:0:
280,40,229225,1,2,0:2:0:0:
116,16,229525,5,2,0:2:0:0:
51,58,229675,2,0,P|37:91|49:123,1,58.4999982147217,10|2,1:2|0:2,0:0:0:0:
6,182,229975,2,0,P|33:213|41:288,1,116.999996429443,10|10,3:2|1:2,0:0:0:0:
16,361,230425,1,2,3:2:0:0:
166,291,230725,5,2,3:2:0:0:
166,291,230875,2,0,P|199:299|221:323,1,58.4999982147217,10|2,1:2|0:2,0:0:0:0:
273,372,231175,2,0,P|315:380|334:372,1,58.4999982147217,10|2,3:2|0:2,0:0:0:0:
397,335,231475,1,10,1:2:0:0:
365,265,231625,1,2,0:2:0:0:
421,207,231775,6,0,P|430:176|422:141,1,58.4999982147217,12|2,3:2|0:2,0:0:0:0:
390,79,232075,2,0,B|363:66|363:66|321:83,1,58.4999982147217,10|2,1:2|0:2,0:0:0:0:
260,56,232375,2,0,P|230:85|160:74,1,116.999996429443,10|10,3:2|1:2,0:0:0:0:
95,30,232825,1,2,3:2:0:0:
19,179,233125,5,2,3:2:0:0:
19,179,233275,2,0,L|82:168,1,58.4999982147217,10|2,1:2|0:2,0:0:0:0:
140,216,233575,2,0,L|210:234,1,58.4999982147217,10|2,3:2|0:2,0:0:0:0:
271,201,233875,1,10,1:2:0:0:
335,248,234025,1,2,3:2:0:0:
407,215,234175,6,0,P|433:171|404:94,1,116.999996429443,10|10,1:2|1:2,0:0:0:0:
360,57,234625,2,0,B|332:40|303:40|296:55|274:55|228:35,1,116.999996429443,2|2,0:2|1:2,0:0:0:0:
179,1,235075,1,10,1:2:0:0:
179,1,235225,2,0,P|130:33|138:96,1,116.999996429443,6|2,1:2|3:2,0:0:0:0:
185,146,235675,6,0,L|172:214,1,58.4999982147217,10|2,1:2|0:2,0:0:0:0:
210,275,235975,2,0,L|221:337,1,58.4999982147217,8|2,1:2|1:2,0:0:0:0:
292,373,236275,6,0,L|322:364,4,29.2499991073609,10|0|2|0|4,1:2|1:0|1:2|1:0|0:0,0:0:0:0:
256,192,236650,12,0,242275,0:0:0:0:
