osu file format v14

[General]
AudioFilename: audio.mp3
AudioLeadIn: 0
PreviewTime: 78325
Countdown: 0
SampleSet: Soft
StackLeniency: 0.4
Mode: 0
LetterboxInBreaks: 0
WidescreenStoryboard: 1

[Editor]
Bookmarks: 19675,21774,40974,60174,78024,94075,117775,136975
DistanceSpacing: 1
BeatDivisor: 8
GridSize: 32
TimelineZoom: 1.9

[Metadata]
Title:Furisodation
TitleUnicode:ふりそでーしょん
Artist:Kyary Pamyu Pamyu
ArtistUnicode:きゃりーぱみゅぱみゅ
Creator:Bazz B
Version:Elcheer's Another
Source:
Tags:Jpop J-pop PaRaDogi Ducky- Kazato Asa Shikibe Mayu Shizuku- Amateurre -Mikan Bazz_B Yasutaka Nakata Japanese jp pop Nanda Collection KPP Best Kimi ni 100 Percent Xenon- Xen Xehn Elcheer dora- doraemonelf
BeatmapID:2199392
BeatmapSetID:1049418

[Difficulty]
HPDrainRate:5
CircleSize:4
OverallDifficulty:8
ApproachRate:9
SliderMultiplier:1.6
SliderTickRate:1

[Events]
//Background and Video events
0,0,"me.jpg",0,0
//Break Periods
//Storyboard Layer 0 (Background)
//Storyboard Layer 1 (Fail)
//Storyboard Layer 2 (Pass)
//Storyboard Layer 3 (Foreground)
//Storyboard Layer 4 (Overlay)
//Storyboard Sound Samples

[TimingPoints]
175,300,4,2,0,70,1,0
1975,-100,4,2,1,70,0,0
2275,-100,4,2,3,70,0,0
2575,-125,4,2,2,70,0,0
2875,-125,4,2,1,70,0,0
3175,-125,4,2,4,70,0,0
3325,-125,4,2,1,70,0,0
3475,-125,4,2,3,70,0,0
3625,-125,4,2,2,70,0,0
3925,-125,4,2,1,70,0,0
4075,-125,4,2,3,70,0,0
4225,-125,4,2,2,70,0,0
4375,-125,4,2,4,70,0,0
4525,-125,4,2,1,70,0,0
4675,-125,4,2,3,70,0,0
4825,-125,4,2,2,70,0,0
4975,-125,4,2,4,70,0,0
5275,-125,4,2,5,70,0,0
5575,-125,4,2,4,70,0,0
5875,-125,4,2,5,70,0,0
6175,-125,4,2,4,70,0,0
6475,-125,4,2,5,70,0,0
6775,-125,4,2,6,70,0,0
7075,-125,4,2,7,70,0,0
7225,-125,4,2,8,70,0,0
7675,-125,4,2,1,70,0,0
7975,-125,4,2,4,70,0,0
8125,-125,4,2,1,70,0,0
8275,-125,4,2,9,70,0,0
8425,-125,4,2,8,70,0,0
8725,-125,4,2,1,70,0,0
8875,-125,4,2,9,70,0,0
9025,-125,4,2,1,70,0,0
9175,-125,4,2,6,70,0,0
9325,-125,4,2,9,70,0,0
9475,-125,4,2,1,70,0,0
9625,-125,4,2,8,70,0,0
9925,-125,4,2,1,70,0,0
10075,-125,4,2,5,70,0,0
10375,-125,4,2,4,70,0,0
10675,-125,4,2,5,70,0,0
10975,-125,4,2,4,70,0,0
11275,-125,4,2,1,70,0,0
11425,-125,4,2,4,70,0,0
11575,-125,4,2,6,70,0,0
11875,-125,4,2,3,70,0,0
12175,-125,4,2,10,70,0,0
12475,-125,4,2,1,70,0,0
12775,-125,4,2,4,70,0,0
12925,-125,4,2,1,70,0,0
13075,-125,4,2,3,70,0,0
13225,-125,4,2,2,70,0,0
13525,-125,4,2,1,70,0,0
13675,-125,4,2,3,70,0,0
13825,-125,4,2,2,70,0,0
13975,-125,4,2,4,70,0,0
14125,-125,4,2,3,70,0,0
14275,-125,4,2,11,70,0,0
14425,-125,4,2,2,70,0,0
14875,-125,4,2,5,70,0,0
15025,-125,4,2,2,70,0,0
15175,-125,4,2,4,70,0,0
15475,-125,4,2,5,70,0,0
15775,-125,4,2,4,70,0,0
15925,-125,4,2,5,70,0,0
16075,-125,4,2,5,70,0,0
16375,-125,4,2,6,70,0,0
16675,-125,4,2,7,70,0,0
16825,-125,4,2,8,70,0,0
16975,-166.666666666667,4,2,8,70,0,0
17275,-166.666666666667,4,2,1,70,0,0
17574,-166.666666666667,4,2,4,70,0,0
17725,-166.666666666667,4,2,1,70,0,0
17875,-166.666666666667,4,2,9,70,0,0
18025,-166.666666666667,4,2,8,70,0,0
18175,-166.666666666667,4,2,12,80,0,0
18324,-166.666666666667,4,2,1,80,0,0
18475,-125,4,2,12,80,0,0
18625,-125,4,2,8,80,0,0
18775,-125,4,2,12,80,0,0
18925,-125,4,2,7,80,0,0
19075,-125,4,2,13,80,0,0
19375,-125,4,2,18,80,0,0
20425,-125,4,2,18,80,0,0
20725,-125,4,2,3,80,0,0
20875,-125,4,2,2,80,0,0
21025,-125,4,2,14,80,0,0
21325,-125,4,2,15,80,0,0
21475,-125,4,2,2,80,0,0
21625,-125,4,2,1,80,0,0
21775,-125,4,2,14,90,0,1
21925,-125,4,2,16,90,0,1
22075,-100,4,2,16,90,0,1
26575,-100,4,2,15,90,0,1
26725,-100,4,2,16,90,0,1
28975,-83.3333333333333,4,2,16,90,0,1
29425,-100,4,2,16,90,0,1
30025,-83.3333333333333,4,2,16,90,0,1
30625,-100,4,2,16,90,0,1
31375,-100,4,2,14,90,0,1
31525,-100,4,2,16,90,0,1
36175,-100,4,2,15,90,0,1
36325,-100,4,2,16,90,0,1
38575,-83.3333333333333,4,2,16,90,0,1
39025,-100,4,2,16,90,0,1
39625,-83.3333333333333,4,2,16,90,0,1
40675,-83.3333333333333,4,2,17,90,0,1
40975,-111.111111111111,4,2,17,75,0,0
41274,-111.111111111111,4,2,18,75,0,0
45475,-111.111111111111,4,2,19,75,0,0
46075,-111.111111111111,4,2,18,75,0,0
49225,-90.9090909090908,4,2,19,75,0,0
49675,-90.9090909090908,4,2,18,75,0,0
50575,-111.111111111111,4,2,18,75,0,0
55075,-111.111111111111,4,2,19,75,0,0
55674,-111.111111111111,4,2,18,75,0,0
58825,-111.111111111111,4,2,19,75,0,0
59725,-111.111111111111,4,2,3,75,0,0
60175,-111.111111111111,4,2,7,80,0,0
60474,-111.111111111111,4,2,18,80,0,0
64675,-249.999999999999,4,2,19,80,0,0
64975,-111.111111111111,4,2,19,80,0,0
65274,-111.111111111111,4,2,18,80,0,0
68425,-111.111111111111,4,2,19,80,0,0
68875,-111.111111111111,4,2,12,80,0,0
69775,-111.111111111111,4,2,7,80,0,0
70074,-111.111111111111,4,2,18,80,0,0
74275,-111.111111111111,4,2,19,80,0,0
74875,-111.111111111111,4,2,18,80,0,0
76975,-111.111111111111,4,2,19,80,0,0
77875,-111.111111111111,4,2,18,80,0,0
78325,-111.111111111111,4,2,20,80,0,0
78399,-111.111111111111,4,2,20,5,0,0
78475,-111.111111111111,4,2,20,80,0,0
78549,-111.111111111111,4,2,20,5,0,0
78737,319.148936170213,4,2,21,80,1,0
78737,-200,4,2,21,80,0,0
78976,-200,4,2,21,5,0,0
79056,-200,4,2,22,90,0,0
79295,-200,4,2,22,5,0,0
79375,300,4,2,23,90,1,1
79375,-90.9090909090909,4,2,23,90,0,1
80125,-90.9090909090909,4,2,21,90,0,1
80275,-90.9090909090909,4,2,22,90,0,1
80425,-90.9090909090909,4,2,23,90,0,1
80725,-90.9090909090909,4,2,21,90,0,1
80875,-90.9090909090909,4,2,22,90,0,1
81025,-90.9090909090909,4,2,23,90,0,1
81325,-90.9090909090909,4,2,21,90,0,1
81475,-90.9090909090909,4,2,22,90,0,1
81625,-90.9090909090909,4,2,23,90,0,1
83575,-90.9090909090909,4,2,21,90,0,1
83875,-90.9090909090909,4,2,24,90,0,1
84175,-90.9090909090909,4,2,25,90,0,1
84475,-90.9090909090909,4,2,21,90,0,1
85075,-90.9090909090909,4,2,26,90,0,1
85225,-90.9090909090909,4,2,25,90,0,1
85525,-90.9090909090909,4,2,21,90,0,1
85675,-90.9090909090909,4,2,26,90,0,1
85825,-90.9090909090909,4,2,21,90,0,1
86125,-90.9090909090909,4,2,26,90,0,1
86275,-90.9090909090909,4,2,21,90,0,1
86425,-90.9090909090909,4,2,25,90,0,1
86725,-90.9090909090909,4,2,21,90,0,1
86875,-90.9090909090909,4,2,9,90,0,1
87025,-90.9090909090909,4,2,1,90,0,1
87325,-90.9090909090909,4,2,9,90,0,1
87475,-90.9090909090909,4,2,1,90,0,1
87625,-90.9090909090909,4,2,27,90,0,1
87925,-90.9090909090909,4,2,1,90,0,1
88225,-90.9090909090909,4,2,21,90,0,1
88675,-90.9090909090909,4,2,22,90,0,1
88975,-90.9090909090909,4,2,23,90,0,1
89725,-90.9090909090909,4,2,21,90,0,1
89875,-90.9090909090909,4,2,22,90,0,1
90025,-90.9090909090909,4,2,23,90,0,1
90325,-90.9090909090909,4,2,21,90,0,1
90475,-90.9090909090909,4,2,22,90,0,1
90625,-90.9090909090909,4,2,23,90,0,1
90925,-90.9090909090909,4,2,22,90,0,1
91075,-90.9090909090909,4,2,28,90,0,1
91225,-90.9090909090909,4,2,23,90,0,1
93175,-90.9090909090909,4,2,21,90,0,1
93475,-90.9090909090909,4,2,24,90,0,1
93775,-90.9090909090909,4,2,25,90,0,1
94075,-90.9090909090909,4,2,21,90,0,1
94675,-90.9090909090909,4,2,26,90,0,1
94825,-90.9090909090909,4,2,25,90,0,1
95125,-90.9090909090909,4,2,21,90,0,1
95275,-90.9090909090909,4,2,26,90,0,1
95425,-90.9090909090909,4,2,25,90,0,1
95575,-90.9090909090909,4,2,29,90,0,1
95725,-90.9090909090909,4,2,24,90,0,1
95875,-90.9090909090909,4,2,23,90,0,1
96325,-90.9090909090909,4,2,29,90,0,1
96925,-90.9090909090909,4,2,1,90,0,1
97225,-90.9090909090909,4,2,15,90,0,0
97675,-90.9090909090909,4,2,13,90,0,0
97825,-90.9090909090909,4,2,14,90,0,0
98125,-90.9090909090909,4,2,15,90,0,0
98275,-90.9090909090909,4,2,2,90,0,0
98425,-90.9090909090909,4,2,6,90,0,0
98575,-90.9090909090909,4,2,14,85,0,0
98725,-90.9090909090909,4,2,16,85,0,0
98875,-100,4,2,16,85,0,0
103375,-100,4,2,15,85,0,0
103525,-100,4,2,16,85,0,0
105775,-83.3333333333333,4,2,16,85,0,0
106225,-100,4,2,16,85,0,0
106825,-83.3333333333333,4,2,16,85,0,0
107124,-83.3333333333333,4,2,15,85,0,0
107275,-83.3333333333333,4,2,36,85,0,0
107425,-83.3333333333333,4,2,14,85,0,0
107575,-100,4,2,14,85,0,0
107725,-100,4,2,3,85,0,0
107875,-100,4,2,36,85,0,0
108025,-100,4,2,1,85,0,0
108175,-100,4,2,14,85,0,0
108325,-100,4,2,16,85,0,0
112975,-100,4,2,15,85,0,0
113125,-100,4,2,16,85,0,0
115375,-83.3333333333333,4,2,16,85,0,0
117475,-83.3333333333333,4,2,17,85,0,0
117775,-111.111111111111,4,2,17,75,0,0
118074,-111.111111111111,4,2,18,75,0,0
122275,-111.111111111111,4,2,19,75,0,0
122874,-111.111111111111,4,2,18,75,0,0
126025,-90.9090909090909,4,2,19,75,0,0
126475,-90.9090909090909,4,2,18,75,0,0
127375,-111.111111111111,4,2,18,75,0,0
131875,-111.111111111111,4,2,19,75,0,0
132474,-111.111111111111,4,2,18,75,0,0
135625,-111.111111111111,4,2,19,75,0,0
136375,-111.111111111111,4,2,30,75,0,0
136525,-111.111111111111,4,2,3,75,0,0
136975,-111.111111111111,4,2,7,80,0,0
137274,-111.111111111111,4,2,18,80,0,0
141475,-250,4,2,19,80,0,0
141775,-111.111111111111,4,2,19,80,0,0
142074,-111.111111111111,4,2,18,80,0,0
145225,-111.111111111111,4,2,19,80,0,0
145675,-111.111111111111,4,2,12,80,0,0
146575,-111.111111111111,4,2,7,80,0,0
146874,-111.111111111111,4,2,18,80,0,0
151075,-111.111111111111,4,2,19,80,0,0
151675,-111.111111111111,4,2,18,80,0,0
153775,-111.111111111111,4,2,19,80,0,0
154675,-111.111111111111,4,2,18,80,0,0
155125,-111.111111111111,4,2,30,80,0,0
155274,-111.111111111111,4,2,31,80,0,0
155856,-111.111111111111,4,2,29,80,0,0
155875,-111.111111111111,4,2,32,80,0,0
156175,-90.9090909090909,4,2,23,90,0,1
156925,-90.9090909090909,4,2,21,90,0,1
157075,-90.9090909090909,4,2,22,90,0,1
157225,-90.9090909090909,4,2,23,90,0,1
157525,-90.9090909090909,4,2,21,90,0,1
157675,-90.9090909090909,4,2,22,90,0,1
157825,-90.9090909090909,4,2,23,90,0,1
158125,-90.9090909090909,4,2,21,90,0,1
158275,-90.9090909090909,4,2,22,90,0,1
158425,-90.9090909090909,4,2,23,90,0,1
160375,-90.9090909090909,4,2,21,90,0,1
160675,-90.9090909090909,4,2,24,90,0,1
160975,-90.9090909090909,4,2,25,90,0,1
161275,-90.9090909090909,4,2,21,90,0,1
161875,-90.9090909090909,4,2,26,90,0,1
162025,-90.9090909090909,4,2,25,90,0,1
162325,-90.9090909090909,4,2,21,90,0,1
162475,-90.9090909090909,4,2,26,90,0,1
162625,-90.9090909090909,4,2,21,90,0,1
162925,-90.9090909090909,4,2,26,90,0,1
163075,-90.9090909090909,4,2,21,90,0,1
163225,-90.9090909090909,4,2,25,90,0,1
163525,-90.9090909090909,4,2,21,90,0,1
163675,-90.9090909090909,4,2,9,90,0,1
163825,-90.9090909090909,4,2,1,90,0,1
164125,-90.9090909090909,4,2,9,90,0,1
164275,-90.9090909090909,4,2,1,90,0,1
164425,-90.9090909090909,4,2,27,90,0,1
164725,-90.9090909090909,4,2,1,90,0,1
165025,-90.9090909090909,4,2,21,90,0,1
165475,-90.9090909090909,4,2,22,90,0,1
165775,-90.9090909090909,4,2,23,90,0,1
166525,-90.9090909090909,4,2,21,90,0,1
166675,-90.9090909090909,4,2,22,90,0,1
166825,-90.9090909090909,4,2,23,90,0,1
167125,-90.9090909090909,4,2,21,90,0,1
167275,-90.9090909090909,4,2,22,90,0,1
167425,-90.9090909090909,4,2,23,90,0,1
167725,-90.9090909090909,4,2,22,90,0,1
167875,-90.9090909090909,4,2,28,90,0,1
168025,-90.9090909090909,4,2,23,90,0,1
169975,-90.9090909090909,4,2,21,90,0,1
170275,-90.9090909090909,4,2,24,90,0,1
170575,-90.9090909090909,4,2,25,90,0,1
170875,-90.9090909090909,4,2,21,90,0,1
171475,-90.9090909090909,4,2,26,90,0,1
171625,-90.9090909090909,4,2,25,90,0,1
171925,-90.9090909090909,4,2,21,90,0,1
172075,-90.9090909090909,4,2,26,90,0,1
172225,-90.9090909090909,4,2,25,90,0,1
172375,-90.9090909090909,4,2,29,90,0,1
172525,-90.9090909090909,4,2,24,90,0,1
172675,-90.9090909090909,4,2,23,90,0,1
173125,-90.9090909090909,4,2,29,90,0,1
173725,-90.9090909090909,4,2,1,90,0,1
174025,-90.9090909090909,4,2,15,90,0,0
174475,-90.9090909090909,4,2,13,90,0,0
174625,-90.9090909090909,4,2,14,90,0,0
174925,-90.9090909090909,4,2,15,90,0,0
175075,-90.9090909090909,4,2,2,90,0,0
175225,-90.9090909090909,4,2,6,90,0,0
175375,-100,4,2,11,80,0,0
175675,-100,4,2,2,80,0,0
175975,-100,4,2,33,80,0,0
176125,-100,4,2,34,80,0,0
176425,-100,4,2,33,80,0,0
176875,-100,4,2,34,80,0,0
177175,-100,4,2,7,80,0,0
177475,-100,4,2,2,80,0,0
177625,-100,4,2,33,80,0,0
178075,-100,4,2,34,80,0,0
178375,-100,4,2,7,80,0,0
178525,-100,4,2,34,80,0,0
178825,-100,4,2,33,80,0,0
179275,-100,4,2,27,80,0,0
179575,-100,4,2,25,80,0,0
179875,-100,4,2,27,80,0,0
180475,-100,4,2,2,80,0,0
180775,-100,4,2,33,80,0,0
180925,-100,4,2,34,80,0,0
181225,-100,4,2,33,80,0,0
181675,-100,4,2,34,80,0,0
181975,-100,4,2,7,80,0,0
182275,-100,4,2,2,80,0,0
182575,-100,4,2,33,80,0,0
182875,-100,4,2,34,80,0,0
183175,-100,4,2,7,80,0,0
183325,-100,4,2,34,80,0,0
183625,-100,4,2,19,80,0,0
183775,-100,4,2,7,80,0,0
184075,-100,4,2,27,80,0,0
184375,-100,4,2,25,80,0,0
184675,-100,4,2,27,80,0,0
184975,-100,4,2,19,80,0,0
185275,-100,4,2,34,80,0,0
185575,-100,4,2,7,80,0,0
185725,-100,4,2,34,80,0,0
186025,-100,4,2,33,80,0,0
186475,-100,4,2,2,80,0,0
186625,-100,4,2,7,80,0,0
187075,-100,4,2,34,80,0,0
187375,-100,4,2,33,80,0,0
187675,-100,4,2,34,80,0,0
187975,-100,4,2,7,80,0,0
188125,-100,4,2,34,80,0,0
188425,-100,4,2,33,80,0,0
188875,-100,4,2,27,80,0,0
189175,-100,4,2,25,80,0,0
189475,-100,4,2,27,80,0,0
189775,-100,4,2,19,80,0,0
190075,-100,4,2,34,80,0,0
190375,-100,4,2,7,80,0,0
190525,-100,4,2,34,80,0,0
190825,-100,4,2,33,80,0,0
191275,-100,4,2,34,80,0,0
191575,-100,4,2,33,80,0,0
191875,-100,4,2,34,80,0,0
192025,-100,4,2,16,80,0,0
192325,-100,4,2,29,80,0,0
192475,-100,4,2,30,80,0,0
192625,-100,4,2,29,80,0,0
193075,-100,4,2,30,80,0,0
193225,-100,4,2,29,80,0,0
193975,-100,4,2,21,80,0,0
194256,-100,4,2,29,80,0,0
194275,-100,4,2,32,80,0,0
194575,-90.9090909090909,4,2,23,90,0,1
195325,-90.9090909090909,4,2,21,90,0,1
195475,-90.9090909090909,4,2,22,90,0,1
195625,-90.9090909090909,4,2,23,90,0,1
195925,-90.9090909090909,4,2,21,90,0,1
196075,-90.9090909090909,4,2,22,90,0,1
196225,-90.9090909090909,4,2,23,90,0,1
196525,-90.9090909090909,4,2,21,90,0,1
196675,-90.9090909090909,4,2,22,90,0,1
196825,-90.9090909090909,4,2,23,90,0,1
198775,-90.9090909090909,4,2,21,90,0,1
199075,-90.9090909090909,4,2,24,90,0,1
199375,-90.9090909090909,4,2,25,90,0,1
199675,-90.9090909090909,4,2,21,90,0,1
200275,-90.9090909090909,4,2,26,90,0,1
200425,-90.9090909090909,4,2,25,90,0,1
200725,-90.9090909090909,4,2,21,90,0,1
200875,-90.9090909090909,4,2,26,90,0,1
201025,-90.9090909090909,4,2,21,90,0,1
201325,-90.9090909090909,4,2,26,90,0,1
201475,-90.9090909090909,4,2,21,90,0,1
201625,-90.9090909090909,4,2,25,90,0,1
201925,-90.9090909090909,4,2,21,90,0,1
202075,-90.9090909090909,4,2,9,90,0,1
202225,-90.9090909090909,4,2,1,90,0,1
202525,-90.9090909090909,4,2,9,90,0,1
202675,-90.9090909090909,4,2,1,90,0,1
202825,-90.9090909090909,4,2,27,90,0,1
203125,-90.9090909090909,4,2,1,90,0,1
203425,-90.9090909090909,4,2,21,90,0,1
203875,-90.9090909090909,4,2,22,90,0,1
204175,-90.9090909090909,4,2,23,90,0,1
204925,-90.9090909090909,4,2,21,90,0,1
205075,-90.9090909090909,4,2,22,90,0,1
205225,-90.9090909090909,4,2,23,90,0,1
205525,-90.9090909090909,4,2,21,90,0,1
205675,-90.9090909090909,4,2,22,90,0,1
205825,-90.9090909090909,4,2,23,90,0,1
206125,-90.9090909090909,4,2,22,90,0,1
206275,-90.9090909090909,4,2,28,90,0,1
206425,-90.9090909090909,4,2,23,90,0,1
208375,-90.9090909090909,4,2,21,90,0,1
208675,-90.9090909090909,4,2,24,90,0,1
208975,-90.9090909090909,4,2,25,90,0,1
209275,-90.9090909090909,4,2,21,90,0,1
209875,-90.9090909090909,4,2,26,90,0,1
210025,-90.9090909090909,4,2,25,90,0,1
210325,-90.9090909090909,4,2,21,90,0,1
210475,-90.9090909090909,4,2,26,90,0,1
210625,-90.9090909090909,4,2,25,90,0,1
210775,-90.9090909090909,4,2,29,90,0,1
210925,-90.9090909090909,4,2,24,90,0,1
211075,-90.9090909090909,4,2,23,90,0,1
211525,-90.9090909090909,4,2,29,90,0,1
212125,-90.9090909090909,4,2,1,90,0,1
212425,-90.9090909090909,4,2,7,90,0,1
212575,-90.9090909090909,4,2,29,80,0,0
214975,-90.9090909090909,4,2,29,100,0,1
216025,-90.9090909090909,4,2,29,100,0,0
216325,-90.9090909090909,4,2,3,100,0,0
216475,-90.9090909090909,4,2,35,100,0,0
216625,-90.9090909090909,4,2,14,100,0,0
216925,-90.9090909090909,4,2,3,100,0,0
217075,-90.9090909090909,4,2,2,70,0,0
217225,-90.9090909090909,4,2,1,70,0,0
217375,-90.9090909090909,4,2,14,90,0,1
217525,-90.9090909090909,4,2,16,90,0,1
222175,-90.9090909090909,4,2,15,90,0,1
222325,-90.9090909090909,4,2,16,90,0,1
225925,-90.9090909090909,4,2,15,90,0,1
226075,-90.9090909090909,4,2,36,90,0,1
226225,-90.9090909090909,4,2,14,90,0,1
226525,-90.9090909090909,4,2,3,90,0,1
226675,-90.9090909090909,4,2,36,90,0,1
226825,-90.9090909090909,4,2,1,90,0,1
226975,-90.9090909090909,4,2,14,90,0,1
227125,-90.9090909090909,4,2,16,90,0,1
231775,-90.9090909090909,4,2,15,90,0,1
231925,-90.9090909090909,4,2,16,90,0,1
235525,-90.9090909090909,4,2,15,90,0,1
235675,-90.9090909090909,4,2,36,90,0,1
235825,-90.9090909090909,4,2,14,90,0,1
236125,-90.9090909090909,4,2,15,90,0,1
236275,-90.9090909090909,4,2,36,90,0,1
236425,-90.9090909090909,4,2,37,90,0,1
236500,-90.9090909090909,4,2,37,90,0,0
242275,-90.9090909090909,4,2,99,5,0,0

[Colours]
Combo1 : 153,255,255
Combo2 : 255,162,208
Combo3 : 136,196,255
Combo4 : 184,112,151

[HitObjects]
52,59,1975,5,2,0:2:0:0:
52,59,2275,1,2,0:2:0:0:
52,59,2575,6,0,B|119:24|184:59|165:82|246:104|310:75,1,256,14|8,3:2|1:2,0:0:0:0:
353,13,3325,5,2,0:2:0:0:
380,91,3475,1,10,0:2:0:0:
477,17,3625,2,0,L|466:101,1,64,2|8,3:2|0:2,0:0:0:0:
353,169,3925,5,2,0:2:0:0:
380,91,4075,1,10,3:2:0:0:
503,161,4225,2,0,L|419:172,1,64,2|8,0:2|1:2,0:0:0:0:
353,169,4525,5,2,0:2:0:0:
380,91,4675,1,10,0:2:0:0:
477,238,4825,1,2,3:2:0:0:
353,169,4975,6,0,P|287:151|213:169,1,128,10|10,3:2|3:2,0:0:0:0:
165,215,5425,1,0,0:0:0:0:
165,215,5575,2,0,L|151:76,1,128,10|10,1:2|0:2,0:0:0:0:
222,44,6025,2,0,L|231:130,1,64,0|10,3:0|0:2,0:0:0:0:
239,190,6325,1,0,0:0:0:0:
326,68,6475,2,0,L|333:120,2,32,10|2|2,3:2|0:2|0:2,0:0:0:0:
419,21,6775,2,0,L|437:97,1,64,10|0,1:2|0:0,0:0:0:0:
345,161,7075,2,0,L|330:98,1,64,10|0,0:2|3:0,0:0:0:0:
434,175,7375,6,0,P|408:228|327:249,1,128,10|8,3:2|3:2,0:0:0:0:
274,208,7825,1,0,0:0:0:0:
345,161,7975,1,8,1:2:0:0:
197,170,8125,5,2,0:2:0:0:
268,123,8275,1,10,0:2:0:0:
203,255,8425,2,0,L|113:238,1,64,2|8,3:2|0:2,0:0:0:0:
274,208,8725,5,2,0:2:0:0:
279,292,8875,1,10,3:2:0:0:
197,170,9025,1,2,0:2:0:0:
94,309,9175,2,0,P|89:340|101:382,1,64,10|2,1:2|0:2,0:0:0:0:
203,255,9475,1,10,0:2:0:0:
284,376,9625,2,0,P|326:387|360:380,1,64,2|8,3:2|3:2,0:0:0:0:
457,305,9925,5,2,0:2:0:0:
433,384,10075,1,10,3:2:0:0:
362,253,10225,1,2,0:2:0:0:
429,204,10375,2,0,P|483:193|506:202,2,64,10|2|10,1:2|0:2|0:2,0:0:0:0:
290,307,10825,2,0,P|258:309|228:297,1,64,2|8,3:2|0:2,0:0:0:0:
298,135,11125,2,0,B|273:233|273:233|233:207,1,128,2|0,0:2|0:0,0:0:0:0:
184,166,11575,6,0,P|129:151|100:161,1,64,10|0,1:2|0:0,0:0:0:0:
63,242,11875,2,0,P|8:257|-21:247,1,64,10|0,0:2|3:0,0:0:0:0:
123,151,12175,6,0,P|166:222|152:289,1,128,14|8,3:2|3:2,0:0:0:0:
99,317,12625,1,0,0:0:0:0:
63,242,12775,1,8,1:2:0:0:
247,271,12925,5,2,0:2:0:0:
211,346,13075,1,10,0:2:0:0:
63,242,13225,2,0,L|153:228,1,64,2|8,3:2|0:2,0:0:0:0:
247,271,13525,5,2,0:2:0:0:
211,196,13675,1,10,3:2:0:0:
339,133,13825,2,0,L|429:147,1,64,2|8,0:2|1:2,0:0:0:0:
329,277,14125,5,2,0:2:0:0:
293,202,14275,1,10,0:2:0:0:
457,215,14425,6,0,L|434:281,1,64,2|8,3:2|3:2,0:0:0:0:
339,133,14725,2,0,L|383:7,1,128,2|0,0:2|0:0,0:0:0:0:
501,104,15175,2,0,P|456:121|418:110,2,64,10|0|10,1:2|0:0|0:2,0:0:0:0:
381,12,15625,2,0,B|326:5|295:17|308:25|267:35|227:10,1,128,0|0,3:0|0:0,0:0:0:0:
168,4,16075,2,0,L|130:-6,2,32,10|2|2,3:2|0:2|0:2,0:0:0:0:
248,105,16375,2,0,P|257:148|249:188,1,64,10|0,1:2|0:0,0:0:0:0:
97,90,16675,2,0,P|88:133|96:173,1,64,10|0,0:2|3:0,0:0:0:0:
207,245,16975,6,0,B|260:261|323:247|298:231|355:213|399:235,1,191.999994140625,10|8,3:2|1:2,0:0:0:0:
457,285,17725,1,2,0:2:0:0:
457,285,17875,1,10,0:2:0:0:
381,194,18025,2,0,P|362:154|381:97,1,95.9999970703126,2|2,3:2|0:2,0:0:0:0:
512,54,18475,6,0,L|487:139,1,64,10|2,1:2|0:2,0:0:0:0:
464,193,18775,1,8,1:2:0:0:
386,76,18925,1,2,1:2:0:0:
285,202,19075,1,10,1:2:0:0:
289,225,19150,1,0,1:0:0:0:
293,249,19225,1,2,1:2:0:0:
256,192,19300,12,4,20425,3:2:0:0:
156,244,21325,5,2,3:2:0:0:
321,187,21475,1,2,1:2:0:0:
321,187,21775,5,12,3:2:0:0:
263,273,21925,1,2,0:2:0:0:
222,146,22075,2,0,P|216:83|234:43,1,80,10|2,1:2|0:2,0:0:0:0:
302,4,22375,1,10,3:2:0:0:
360,89,22525,1,0,1:0:0:0:
220,67,22675,1,10,0:2:0:0:
220,67,22825,6,0,B|171:56|123:69|145:87|95:103|38:70,1,160,2|2,3:2|3:2,0:0:0:0:
184,156,23275,1,10,1:2:0:0:
95,209,23425,1,2,0:2:0:0:
196,334,23575,2,0,P|207:273|198:241,1,80,10|2,0:2|3:2,0:0:0:0:
184,156,23875,1,10,1:2:0:0:
105,288,24025,1,2,0:2:0:0:
105,288,24325,5,2,0:2:0:0:
203,256,24475,2,0,P|244:247|290:263,1,80,10|2,1:2|0:2,0:0:0:0:
356,327,24775,1,10,3:2:0:0:
316,191,24925,1,0,1:0:0:0:
430,259,25075,1,10,1:2:0:0:
430,259,25225,6,0,P|411:178|447:96,1,160,2|2,3:2|3:2,0:0:0:0:
504,29,25675,1,10,1:2:0:0:
341,100,25825,1,2,0:2:0:0:
511,223,25975,2,0,P|521:161|506:112,1,80,10|2,3:2|0:2,0:0:0:0:
434,81,26275,1,10,1:2:0:0:
367,213,26425,1,2,0:2:0:0:
341,100,26575,5,12,3:2:0:0:
284,187,26725,1,2,0:2:0:0:
183,87,26875,2,0,P|174:34|186:5,1,80,10|2,1:2|0:2,0:0:0:0:
265,98,27175,1,10,3:2:0:0:
118,142,27325,1,0,1:0:0:0:
284,187,27475,1,10,0:2:0:0:
121,331,27625,6,0,B|102:227|102:227|150:251,1,160,2|2,3:2|3:2,0:0:0:0:
242,300,28075,1,10,1:2:0:0:
35,318,28225,1,2,0:2:0:0:
129,157,28375,2,0,L|222:202,1,80,10|2,1:2|0:2,0:0:0:0:
294,237,28675,1,10,1:2:0:0:
150,251,28825,1,2,0:2:0:0:
286,151,28975,6,0,P|357:172|364:284,1,191.999994140625,10|10,3:2|1:2,0:0:0:0:
289,354,29425,2,0,B|246:380|246:380|127:357,1,160,2|2,3:2|1:2,0:0:0:0:
235,291,29875,1,10,0:2:0:0:
56,183,30025,6,0,B|28:226|46:285|62:266|77:313|50:368,1,191.999994140625,6|2,1:2|3:2,0:0:0:0:
123,227,30475,1,10,1:2:0:0:
235,291,30625,2,0,P|283:306|337:301,1,80,2|10,0:2|3:2,0:0:0:0:
404,257,30925,1,2,0:2:0:0:
355,165,31075,1,10,1:2:0:0:
424,87,31225,1,2,0:2:0:0:
332,187,31375,5,12,3:2:0:0:
493,148,31525,1,2,0:2:0:0:
380,18,31675,2,0,P|345:64|346:108,1,80,10|2,1:2|0:2,0:0:0:0:
410,163,31975,1,10,3:2:0:0:
507,34,32125,1,0,1:0:0:0:
342,84,32275,1,10,0:2:0:0:
342,84,32425,6,0,B|284:96|246:81|274:67|211:53|159:81,1,160,2|2,3:2|3:2,0:0:0:0:
91,114,32875,1,10,1:2:0:0:
216,149,33025,1,2,0:2:0:0:
86,225,33175,2,0,P|76:278|83:324,1,80,10|2,3:2|0:2,0:0:0:0:
160,366,33475,1,10,1:2:0:0:
261,267,33625,1,2,0:2:0:0:
261,267,33925,5,2,0:2:0:0:
340,334,34075,2,0,P|389:346|436:333,1,80,10|2,1:2|0:2,0:0:0:0:
495,282,34375,1,10,3:2:0:0:
332,211,34525,1,0,1:0:0:0:
417,341,34675,1,10,1:2:0:0:
417,341,34825,6,0,L|425:161,1,160,2|2,3:2|3:2,0:0:0:0:
427,77,35275,1,10,1:2:0:0:
332,211,35425,1,2,0:2:0:0:
223,79,35575,2,0,P|208:137|224:179,1,80,10|2,3:2|0:2,0:0:0:0:
258,249,35875,1,10,1:2:0:0:
335,121,36025,1,2,0:2:0:0:
417,267,36175,5,12,3:2:0:0:
332,211,36325,1,2,0:2:0:0:
250,335,36475,2,0,P|305:351|346:338,1,80,10|2,1:2|0:2,0:0:0:0:
417,267,36775,1,10,3:2:0:0:
332,211,36925,1,0,1:0:0:0:
440,133,37075,1,10,1:2:0:0:
440,133,37225,6,0,B|397:147|346:132|367:122|319:103|267:127,1,160,2|2,3:2|3:2,0:0:0:0:
197,177,37675,1,10,1:2:0:0:
240,37,37825,1,2,0:2:0:0:
127,104,37975,2,0,P|94:120|28:113,1,80,10|2,3:2|0:2,0:0:0:0:
136,20,38275,1,10,1:2:0:0:
197,177,38425,1,2,3:2:0:0:
51,121,38575,6,0,P|38:178|41:316,1,191.999994140625,10|10,1:2|1:2,0:0:0:0:
193,303,39025,2,0,B|147:285|104:300|122:317|76:330|35:308,1,160,2|2,0:2|1:2,0:0:0:0:
135,217,39475,1,10,1:2:0:0:
161,379,39625,2,0,P|251:366|269:273,1,191.999994140625,6|2,1:2|3:2,0:0:0:0:
214,166,40075,2,0,P|200:86|220:48,1,95.9999970703126,10|2,1:2|0:2,0:0:0:0:
316,17,40375,6,0,L|379:32,2,47.9999985351563,10|0|2,1:2|0:0|1:2,0:0:0:0:
203,74,40675,1,10,1:2:0:0:
176,94,40750,1,0,1:0:0:0:
144,104,40825,1,0,1:0:0:0:
111,102,40900,1,0,0:0:0:0:
81,88,40975,6,0,B|63:130|63:130|92:230,2,143.999995605469,6|8|0,3:2|1:2|3:0,0:0:0:0:
139,15,41725,1,2,3:2:0:0:
172,114,41875,1,10,0:2:0:0:
300,50,42025,2,0,P|334:108|306:205,1,143.999995605469,2|0,3:2|3:0,0:0:0:0:
270,258,42475,5,8,1:2:0:0:
186,138,42625,1,0,3:0:0:0:
323,181,42775,2,0,P|371:200|414:197,1,71.9999978027344,0|0,3:0|3:0,0:0:0:0:
468,147,43075,1,10,1:2:0:0:
468,147,43225,1,0,1:0:0:0:
358,281,43375,6,0,B|336:343|371:388|371:388|404:337,1,143.999995605469,2|10,3:2|1:2,0:0:0:0:
431,238,43825,2,0,P|376:199|291:237,1,143.999995605469,2|2,0:2|1:2,0:0:0:0:
306,218,44425,6,0,B|265:248|265:248|157:222,1,143.999995605469,2|0,3:2|3:0,0:0:0:0:
86,193,44875,1,8,1:2:0:0:
252,154,45025,1,0,0:0:0:0:
158,61,45175,2,0,P|140:113|146:147,1,71.9999978027344,0|0,3:0|3:0,0:0:0:0:
174,226,45475,1,8,1:2:0:0:
174,226,45775,6,0,P|192:278|186:312,1,71.9999978027344,2|0,3:2|0:0,0:0:0:0:
132,368,46075,1,10,1:2:0:0:
36,269,46225,2,0,L|121:275,1,71.9999978027344,2|0,3:2|3:0,0:0:0:0:
203,362,46525,2,0,L|118:368,1,71.9999978027344,2|8,3:2|1:2,0:0:0:0:
174,226,46825,6,0,B|210:210|253:222|241:236|286:248|320:233,1,143.999995605469,2|0,3:2|3:0,0:0:0:0:
386,175,47275,1,8,1:2:0:0:
359,307,47425,1,0,3:0:0:0:
288,162,47575,2,0,P|281:111|295:71,1,71.9999978027344,0|0,3:0|3:0,0:0:0:0:
403,0,47875,2,0,P|410:51|396:91,1,71.9999978027344,10|0,1:2|3:0,0:0:0:0:
212,62,48175,6,0,P|248:22|338:32,1,143.999995605469,6|10,3:2|1:2,0:0:0:0:
288,162,48625,2,0,B|247:183|247:183|126:164,1,143.999995605469,2|2,0:2|3:2,0:0:0:0:
57,152,49075,1,8,1:2:0:0:
124,283,49225,6,0,L|299:312,1,176.000005371094,6|2,3:2|3:2,0:0:0:0:
408,284,49675,2,0,P|421:227|408:186,1,88.000002685547,10|2,1:2|3:2,0:0:0:0:
344,108,49975,5,0,1:0:0:0:
344,108,50125,1,2,1:2:0:0:
254,234,50275,1,0,1:0:0:0:
254,234,50425,1,0,1:0:0:0:
152,130,50575,6,0,P|132:51|180:-7,2,143.999995605469,6|8|0,3:2|1:2|3:0,0:0:0:0:
209,204,51325,1,2,0:2:0:0:
285,69,51475,1,10,1:2:0:0:
407,197,51625,6,0,B|431:234|431:234|411:359,1,143.999995605469,2|0,3:2|3:0,0:0:0:0:
345,254,52075,1,8,1:2:0:0:
258,363,52225,2,0,B|216:374|181:362|190:351|146:339|106:358,1,143.999995605469,0|0,3:0|3:0,0:0:0:0:
28,382,52675,1,10,1:2:0:0:
28,382,52825,1,0,1:0:0:0:
128,267,52975,6,0,P|145:198|123:124,1,143.999995605469,2|10,3:2|1:2,0:0:0:0:
48,75,53425,2,0,P|99:105|179:88,1,143.999995605469,2|2,0:2|1:2,0:0:0:0:
178,88,54025,6,0,P|229:58|309:75,1,143.999995605469,2|0,3:2|3:0,0:0:0:0:
358,154,54475,1,8,1:2:0:0:
391,64,54625,1,0,0:0:0:0:
251,146,54775,2,0,L|265:233,1,71.9999978027344,0|0,3:0|3:0,0:0:0:0:
282,308,55075,1,10,1:2:0:0:
282,308,55375,6,0,B|327:291|364:303|351:317|394:326|429:311,1,143.999995605469,2|10,3:2|1:2,0:0:0:0:
390,165,55825,2,0,L|396:236,1,71.9999978027344,2|0,3:2|3:0,0:0:0:0:
274,379,56125,2,0,L|281:308,1,71.9999978027344,2|8,3:2|1:2,0:0:0:0:
146,172,56425,6,0,L|156:323,1,143.999995605469,2|0,3:2|3:0,0:0:0:0:
235,212,56875,1,8,1:2:0:0:
73,265,57025,1,0,3:0:0:0:
89,112,57175,2,0,P|138:88|183:95,1,71.9999978027344,0|0,3:0|3:0,0:0:0:0:
269,118,57475,2,0,P|304:112|334:93,1,71.9999978027344,10|0,1:2|0:0,0:0:0:0:
218,49,57775,6,0,P|189:107|235:200,1,143.999995605469,6|10,3:2|1:2,0:0:0:0:
294,221,58225,1,2,0:2:0:0:
334,93,58375,1,0,1:0:0:0:
214,182,58525,1,2,3:2:0:0:
214,182,58675,1,8,3:2:0:0:
382,161,58825,6,0,L|391:206,5,35.9999989013672,6|0|0|0|0|0,3:2|3:0|3:0|3:0|3:0|3:0,3:0:0:0:
396,234,59275,1,0,1:0:0:0:
294,143,59425,1,0,1:0:0:0:
479,179,59575,1,0,1:0:0:0:
337,285,59725,1,0,1:0:0:0:
337,285,59800,1,0,1:0:0:0:
337,285,59875,2,0,P|286:297|239:282,1,71.9999978027344,0|0,1:0|1:0,0:0:0:0:
237,271,60100,1,0,1:0:0:0:
237,271,60175,6,0,B|192:254|159:262|175:279|129:288|86:269,1,143.999995605469,4|8,3:2|1:2,0:0:0:0:
12,233,60625,1,0,0:0:0:0:
122,130,60775,2,0,L|138:214,1,71.9999978027344,2|0,3:2|0:0,0:0:0:0:
20,84,61075,2,0,L|6:154,1,71.9999978027344,10|0,1:2|3:0,0:0:0:0:
138,47,61375,6,0,B|182:37|219:50|203:62|239:73|285:57,1,143.999995605469,2|8,0:2|1:2,0:0:0:0:
358,11,61825,1,0,3:0:0:0:
309,133,61975,2,0,P|293:183|297:221,1,71.9999978027344,2|0,0:2|3:0,0:0:0:0:
351,276,62275,1,10,1:2:0:0:
413,142,62425,1,0,1:0:0:0:
245,93,62575,6,0,P|218:172|230:265,2,143.999995605469,2|10|0,3:2|1:2|3:0,0:0:0:0:
322,39,63325,1,2,1:2:0:0:
322,39,63475,1,8,0:2:0:0:
413,142,63625,6,0,B|361:177|300:152|300:152|333:119,1,143.999995605469,2|0,3:2|3:0,0:0:0:0:
405,58,64075,1,8,1:2:0:0:
377,250,64225,1,0,0:0:0:0:
246,101,64375,2,0,P|221:148|231:194,1,71.9999978027344,0|0,3:0|3:0,0:0:0:0:
291,282,64675,6,0,P|254:274|232:277,1,48,8|0,1:2|0:0,0:0:0:0:
214,300,64975,6,0,B|172:312|128:300|147:289|106:279|62:295,1,143.999995605469,0|8,3:0|1:2,0:0:0:0:
183,209,65425,1,0,3:0:0:0:
86,121,65575,2,0,P|40:113|-5:123,1,71.9999978027344,2|0,3:2|0:0,0:0:0:0:
112,213,65875,2,0,P|147:215|182:208,1,71.9999978027344,10|0,1:2|3:0,0:0:0:0:
327,111,66175,6,0,P|362:108|450:192,1,143.999995605469,2|8,0:2|1:2,0:0:0:0:
242,151,66625,1,0,1:0:0:0:
344,259,66775,2,0,L|358:180,1,71.9999978027344,2|0,3:2|3:0,0:0:0:0:
206,237,67075,2,0,P|238:268|284:278,1,71.9999978027344,10|0,1:2|1:0,0:0:0:0:
242,151,67375,6,0,P|186:145|156:157,1,71.9999978027344,6|0,3:2|0:0,0:0:0:0:
101,211,67675,1,10,1:2:0:0:
25,109,67825,2,0,P|14:67|18:27,1,71.9999978027344,2|0,0:2|3:0,0:0:0:0:
162,78,68125,2,0,P|173:120|169:160,1,71.9999978027344,2|8,0:2|1:2,0:0:0:0:
61,263,68425,6,0,B|94:246|134:259|120:273|163:285|208:263,1,143.999995605469,6|0,3:2|3:0,0:0:0:0:
295,191,68875,2,0,P|349:172|385:183,1,71.9999978027344,8|0,1:2|3:0,0:0:0:0:
440,226,69175,5,0,1:0:0:0:
440,226,69325,1,0,1:0:0:0:
411,89,69475,1,0,1:0:0:0:
411,89,69625,1,0,1:0:0:0:
347,251,69775,6,0,P|285:273|220:223,2,143.999995605469,4|10|2,3:2|1:2|3:2,0:0:0:0:
307,120,70525,2,0,P|297:155|295:191,1,71.9999978027344,2|8,0:2|1:2,0:0:0:0:
409,301,70825,6,0,P|423:234|364:170,1,143.999995605469,2|0,3:2|3:0,0:0:0:0:
307,120,71275,1,8,1:2:0:0:
347,251,71425,1,0,3:0:0:0:
224,168,71575,2,0,P|175:159|133:167,1,71.9999978027344,2|0,3:2|3:0,0:0:0:0:
39,268,71875,2,0,P|88:277|130:269,1,71.9999978027344,10|0,1:2|1:0,0:0:0:0:
141,87,72175,6,0,P|83:128|100:216,1,143.999995605469,2|10,3:2|1:2,0:0:0:0:
224,168,72625,2,0,P|235:214|229:258,1,71.9999978027344,2|0,0:2|3:0,0:0:0:0:
99,344,72925,2,0,P|99:308|109:274,1,71.9999978027344,2|8,1:2|0:2,0:0:0:0:
329,325,73225,6,0,B|295:341|255:324|266:314|227:299|181:319,1,143.999995605469,2|0,3:2|3:0,0:0:0:0:
308,250,73675,2,0,P|308:214|298:179,1,71.9999978027344,8|0,1:2|0:0,0:0:0:0:
224,122,73975,1,0,3:0:0:0:
167,239,74125,1,0,3:0:0:0:
385,240,74275,2,0,P|385:204|375:169,1,71.9999978027344,8|0,1:2|0:0,0:0:0:0:
233,51,74575,6,0,P|223:85|223:121,1,71.9999978027344,2|0,3:2|0:0,0:0:0:0:
291,186,74875,1,10,1:2:0:0:
377,67,75025,2,0,P|417:60|458:74,1,71.9999978027344,2|0,3:2|3:0,0:0:0:0:
402,210,75325,2,0,P|395:170|409:129,1,71.9999978027344,2|8,3:2|1:2,0:0:0:0:
491,224,75625,6,0,P|473:271|381:301,1,143.999995605469,2|0,3:2|3:0,0:0:0:0:
298,232,76075,2,0,P|255:216|222:221,1,71.9999978027344,10|0,1:2|1:0,0:0:0:0:
162,284,76375,1,2,3:2:0:0:
253,300,76525,1,0,3:0:0:0:
189,153,76675,2,0,P|156:190|153:223,1,71.9999978027344,10|0,1:2|1:0,0:0:0:0:
215,372,76975,6,0,B|261:389|297:376|278:369|313:354|356:369,2,143.999995605469,6|0|0,3:2|1:0|1:0,0:0:0:0:
139,317,77725,1,0,3:0:0:0:
273,246,77875,1,8,3:2:0:0:
126,171,78025,1,4,3:2:0:0:
126,171,78325,6,0,L|132:206,1,35.9999989013672,2|0,0:2|0:0,0:0:0:0:
206,153,78475,2,0,L|212:188,1,35.9999989013672,2|0,0:2|0:0,0:0:0:0:
366,306,78737,6,0,L|380:244,1,60,2|0,0:2|0:0,0:0:0:0:
418,226,79056,6,0,L|432:164,1,60,2|0,0:2|0:0,0:0:0:0:
465,133,79375,6,0,B|423:154|361:133|381:119|340:101|288:118,1,176.000005371094,6|8,3:2|1:2,0:0:0:0:
192,165,79825,1,0,0:0:0:0:
328,196,79975,1,0,3:0:0:0:
186,262,80125,5,2,0:2:0:0:
299,277,80275,1,10,1:2:0:0:
192,165,80425,2,0,P|180:117|193:73,1,88.000002685547,2|0,3:2|0:0,0:0:0:0:
280,10,80725,5,2,0:2:0:0:
316,118,80875,1,10,1:2:0:0:
447,37,81025,2,0,L|472:140,1,88.000002685547,2|0,3:2|0:0,0:0:0:0:
504,230,81325,5,2,3:2:0:0:
400,180,81475,1,10,1:2:0:0:
467,318,81625,1,2,3:2:0:0:
313,223,81775,6,0,B|264:206|217:221|242:234|185:251|137:228,2,176.000005371094,0|8|0,3:2|1:2|3:0,0:0:0:0:
284,384,82525,2,0,L|272:289,1,88.000002685547,0|8,1:0|0:2,0:0:0:0:
128,152,82825,6,0,P|72:198|98:297,1,176.000005371094,0|0,3:0|3:0,0:0:0:0:
216,174,83275,1,8,1:2:0:0:
216,174,83425,1,0,0:0:0:0:
272,296,83575,2,0,P|332:314|367:302,1,88.000002685547,2|0,3:2|3:0,0:0:0:0:
343,148,83875,2,0,L|319:243,1,88.000002685547,10|0,1:2|0:0,0:0:0:0:
451,324,84175,6,0,B|495:270|461:199|461:199|408:250,1,176.000005371094,2|8,3:2|1:2,0:0:0:0:
354,308,84625,1,0,0:0:0:0:
321,233,84775,1,0,3:0:0:0:
181,297,84925,5,2,0:2:0:0:
250,141,85075,1,10,1:2:0:0:
76,200,85225,2,0,P|116:217|160:212,1,88.000002685547,2|0,3:2|0:0,0:0:0:0:
250,141,85525,1,2,0:2:0:0:
181,297,85675,1,10,1:2:0:0:
128,139,85825,1,2,3:2:0:0:
264,255,85975,6,0,P|278:313|260:350,1,88.000002685547,2|2,0:2|3:2,0:0:0:0:
162,379,86275,1,10,1:2:0:0:
200,200,86425,2,0,P|261:170|347:226,1,176.000005371094,2|2,3:2|0:2,0:0:0:0:
375,333,86875,5,6,1:2:0:0:
437,180,87025,1,2,0:2:0:0:
264,255,87175,2,0,P|217:283|175:281,1,88.000002685547,2|2,0:2|0:2,0:0:0:0:
81,233,87475,1,2,1:2:0:0:
207,112,87625,6,0,L|198:215,1,88.000002685547,6|0,3:2|0:0,0:0:0:0:
103,102,87925,1,2,3:2:0:0:
232,29,88075,2,0,P|284:67|293:119,1,88.000002685547,0|0,1:0|3:0,0:0:0:0:
267,198,88375,5,2,1:2:0:0:
267,198,88525,1,0,1:0:0:0:
385,74,88675,1,2,1:2:0:0:
385,74,88825,1,0,1:0:0:0:
479,212,88975,6,0,B|492:275|478:312|466:287|457:331|477:396,2,176.000005371094,6|8|0,3:2|1:2|3:0,0:0:0:0:
418,114,89725,1,2,0:2:0:0:
354,218,89875,1,10,1:2:0:0:
258,66,90025,2,0,L|233:161,1,88.000002685547,2|0,3:2|0:0,0:0:0:0:
206,262,90325,5,2,0:2:0:0:
141,187,90475,1,10,1:2:0:0:
285,212,90625,2,0,P|294:281|278:316,1,88.000002685547,2|0,3:2|0:0,0:0:0:0:
205,375,90925,5,2,3:2:0:0:
206,262,91075,1,10,1:2:0:0:
358,345,91225,6,0,P|406:357|450:347,1,88.000002685547,2|0,3:2|3:2,0:0:0:0:
386,156,91525,2,0,B|404:278|404:278|455:214,1,176.000005371094,2|0,0:2|0:0,0:0:0:0:
505,146,91975,1,0,3:0:0:0:
304,216,92125,1,0,1:0:0:0:
406,58,92275,1,8,0:2:0:0:
406,58,92425,6,0,B|347:79|305:62|326:54|276:41|213:63,1,176.000005371094,0|0,3:0|3:0,0:0:0:0:
140,125,92875,2,0,P|126:188|141:228,1,88.000002685547,8|0,1:2|0:0,0:0:0:0:
277,222,93175,2,0,P|229:178|187:171,1,88.000002685547,2|0,3:2|3:0,0:0:0:0:
124,292,93475,2,0,P|185:272|212:239,1,88.000002685547,10|0,1:2|0:0,0:0:0:0:
316,125,93775,6,0,P|364:113|457:220,1,176.000005371094,2|8,3:2|1:2,0:0:0:0:
387,276,94225,1,0,0:0:0:0:
292,211,94375,1,0,3:0:0:0:
328,329,94525,5,2,0:2:0:0:
370,198,94675,1,10,1:2:0:0:
233,153,94825,2,0,P|210:209|226:263,1,88.000002685547,2|0,3:2|0:0,0:0:0:0:
246,345,95125,5,2,0:2:0:0:
292,211,95275,1,10,1:2:0:0:
152,296,95425,2,0,P|92:307|40:292,1,88.000002685547,2|2,3:2|0:2,0:0:0:0:
7,204,95725,5,2,3:2:0:0:
176,169,95875,1,10,1:2:0:0:
66,302,96025,1,2,3:2:0:0:
110,119,96175,6,0,P|159:90|259:152,1,176.000005371094,0|0,0:0|1:0,0:0:0:0:
285,251,96625,1,0,0:0:0:0:
399,153,96775,2,0,P|412:103|404:51,1,88.000002685547,0|8,1:0|0:3,0:0:0:0:
312,4,97075,1,4,0:3:0:0:
255,141,97225,1,4,3:2:0:0:
255,141,97525,5,2,1:2:0:0:
170,29,97675,1,2,3:2:0:0:
139,27,97750,1,0,3:0:0:0:
108,25,97825,1,2,3:2:0:0:
77,23,97900,1,0,3:0:0:0:
47,21,97975,1,0,3:0:0:0:
137,117,98125,2,0,P|160:175|155:221,1,88.000002685547,2|2,3:2|1:2,0:0:0:0:
104,279,98425,1,2,3:2:0:0:
239,175,98575,5,12,3:2:0:0:
275,264,98725,1,2,0:2:0:0:
362,155,98875,2,0,P|380:105|372:61,1,80,10|2,1:2|0:2,0:0:0:0:
295,15,99175,1,10,3:2:0:0:
254,102,99325,1,0,1:0:0:0:
444,33,99475,1,10,0:2:0:0:
444,33,99625,6,0,P|459:88|441:198,1,160,2|2,3:2|3:2,0:0:0:0:
373,276,100075,1,10,1:2:0:0:
318,196,100225,1,2,0:2:0:0:
226,291,100375,2,0,P|217:342|223:374,1,80,10|2,0:2|3:2,0:0:0:0:
309,332,100675,1,10,1:2:0:0:
144,327,100825,1,2,0:2:0:0:
144,327,101125,5,2,0:2:0:0:
200,248,101275,2,0,P|213:190|206:164,1,80,10|2,1:2|0:2,0:0:0:0:
152,103,101575,1,10,3:2:0:0:
121,185,101725,1,0,1:0:0:0:
78,42,101875,1,10,1:2:0:0:
78,42,102025,6,0,P|162:12|234:46,1,160,2|2,3:2|3:2,0:0:0:0:
277,107,102475,1,10,1:2:0:0:
196,142,102625,1,2,0:2:0:0:
312,219,102775,2,0,P|357:228|404:214,1,80,10|2,3:2|0:2,0:0:0:0:
512,109,103075,2,0,P|467:100|420:114,1,80,10|2,1:2|0:2,0:0:0:0:
354,144,103375,5,12,3:2:0:0:
473,187,103525,1,2,0:2:0:0:
361,64,103675,2,0,L|352:158,1,80,10|2,1:2|0:2,0:0:0:0:
312,219,103975,1,10,3:2:0:0:
257,93,104125,1,0,1:0:0:0:
192,243,104275,1,10,0:2:0:0:
192,243,104425,6,0,B|153:260|105:245|126:232|78:215|24:237,1,160,2|2,3:2|3:2,0:0:0:0:
69,314,104875,1,10,1:2:0:0:
151,170,105025,1,2,0:2:0:0:
242,315,105175,2,0,P|291:328|335:320,1,80,10|2,1:2|0:2,0:0:0:0:
393,275,105475,1,10,1:2:0:0:
314,234,105625,1,2,0:2:0:0:
450,113,105775,6,0,B|460:234|460:234|432:199|395:199,1,191.999994140625,10|10,3:2|1:2,0:0:0:0:
243,200,106225,2,0,B|206:232|206:232|258:259|323:230,1,160,2|2,3:2|1:2,0:0:0:0:
354,156,106675,1,10,0:2:0:0:
158,161,106825,6,0,P|127:204|186:319,1,191.999994140625,6|2,1:2|3:2,0:0:0:0:
264,346,107275,1,10,1:2:0:0:
335,294,107425,1,2,0:2:0:0:
243,200,107575,2,0,P|236:144|251:103,1,80,8|2,3:2|0:2,0:0:0:0:
364,40,107875,2,0,P|371:96|356:137,1,80,10|2,1:2|0:2,0:0:0:0:
198,20,108175,5,12,3:2:0:0:
284,5,108325,1,2,0:2:0:0:
249,138,108475,2,0,P|192:151|156:142,1,80,10|2,1:2|0:2,0:0:0:0:
100,95,108775,1,10,3:2:0:0:
149,240,108925,1,0,1:0:0:0:
13,154,109075,1,10,0:2:0:0:
13,154,109225,6,0,B|-4:197|10:245|26:229|33:281|5:329,1,160,2|2,3:2|3:2,0:0:0:0:
82,191,109675,1,10,1:2:0:0:
151,312,109825,1,2,0:2:0:0:
231,201,109975,2,0,P|276:189|310:200,1,80,10|2,3:2|0:2,0:0:0:0:
372,257,110275,1,10,1:2:0:0:
274,327,110425,1,2,0:2:0:0:
274,327,110725,5,2,0:2:0:0:
346,376,110875,2,0,P|392:383|428:373,1,80,10|2,1:2|0:2,0:0:0:0:
492,319,111175,1,10,3:2:0:0:
394,271,111325,1,0,1:0:0:0:
500,172,111475,1,10,1:2:0:0:
500,172,111625,6,0,P|431:192|337:180,1,160,2|2,3:2|3:2,0:0:0:0:
266,139,112075,1,10,1:2:0:0:
345,101,112225,1,2,0:2:0:0:
193,19,112375,2,0,P|177:67|188:112,1,80,10|2,3:2|0:2,0:0:0:0:
217,212,112675,1,10,1:2:0:0:
266,139,112825,1,2,0:2:0:0:
309,293,112975,5,12,3:2:0:0:
358,220,113125,1,2,0:2:0:0:
453,336,113275,2,0,P|412:348|370:341,1,80,10|2,1:2|0:2,0:0:0:0:
309,293,113575,1,10,3:2:0:0:
406,150,113725,1,0,1:0:0:0:
247,232,113875,1,10,1:2:0:0:
247,232,114025,6,0,B|193:246|193:246|80:219,1,160,2|2,3:2|3:2,0:0:0:0:
8,193,114475,1,10,1:2:0:0:
143,137,114625,1,2,0:2:0:0:
38,24,114775,2,0,P|22:75|26:105,1,80,10|2,3:2|0:2,0:0:0:0:
129,213,115075,2,0,P|145:162|141:132,1,80,10|2,1:2|3:2,0:0:0:0:
3,298,115375,6,0,L|98:310,1,95.9999970703126,10|0,1:2|0:0,0:0:0:0:
181,374,115675,2,0,L|276:362,1,95.9999970703126,10|2,1:2|0:2,0:0:0:0:
363,347,115975,1,8,3:2:0:0:
300,284,116125,1,2,1:2:0:0:
426,228,116275,1,10,1:2:0:0:
354,135,116425,6,0,P|341:71|468:60,1,191.999994140625,6|2,1:2|3:2,0:0:0:0:
426,228,116875,2,0,L|316:206,1,95.9999970703126,10|2,1:2|0:2,0:0:0:0:
227,190,117175,2,0,L|176:179,2,47.9999985351563,10|0|2,1:2|0:0|1:2,0:0:0:0:
225,282,117475,1,10,1:2:0:0:
192,275,117550,1,0,1:0:0:0:
159,268,117625,1,0,1:0:0:0:
126,262,117700,1,0,0:0:0:0:
93,255,117775,6,0,B|72:208|72:208|101:114,2,143.999995605469,6|8|0,3:2|1:2|3:0,0:0:0:0:
131,340,118525,1,2,3:2:0:0:
213,208,118675,1,10,1:2:0:0:
291,338,118825,2,0,B|336:358|376:341|358:330|410:322|442:336,1,143.999995605469,2|0,3:2|3:0,0:0:0:0:
512,384,119275,5,8,1:2:0:0:
455,241,119425,1,0,3:0:0:0:
328,267,119575,2,0,P|316:206|327:177,1,71.9999978027344,0|0,3:0|3:0,0:0:0:0:
343,107,119875,1,10,1:2:0:0:
343,107,120025,1,0,1:0:0:0:
273,229,120175,6,0,B|231:241|193:227|209:213|161:201|105:227,1,143.999995605469,2|10,3:2|1:2,0:0:0:0:
56,272,120625,2,0,P|40:222|44:197,1,71.9999978027344,2|0,0:2|3:0,0:0:0:0:
159,101,120925,2,0,P|175:151|171:176,1,71.9999978027344,2|8,1:2|0:2,0:0:0:0:
6,112,121225,6,0,B|-14:47|14:0|14:0|53:25,1,143.999995605469,2|0,3:2|3:0,0:0:0:0:
122,57,121675,1,8,1:2:0:0:
202,8,121825,1,0,0:0:0:0:
274,131,121975,2,0,P|286:173|276:217,1,71.9999978027344,0|0,3:0|3:0,0:0:0:0:
227,277,122275,1,8,1:2:0:0:
227,277,122575,6,0,P|285:248|363:281,1,143.999995605469,2|10,3:2|1:2,0:0:0:0:
403,354,123025,2,0,P|395:305|406:259,1,71.9999978027344,2|0,3:2|3:0,0:0:0:0:
489,181,123325,2,0,P|497:230|486:276,1,71.9999978027344,2|8,3:2|1:2,0:0:0:0:
352,189,123625,2,0,B|403:164|403:164|499:182,1,143.999995605469,2|0,3:2|3:0,0:0:0:0:
420,244,124075,5,8,1:2:0:0:
386,86,124225,1,0,3:0:0:0:
270,181,124375,2,0,L|187:164,1,71.9999978027344,0|0,3:0|3:0,0:0:0:0:
167,77,124675,2,0,L|237:91,1,71.9999978027344,10|0,1:2|3:0,0:0:0:0:
106,239,124975,6,0,B|86:133|86:133|130:160,1,143.999995605469,6|10,3:2|1:2,0:0:0:0:
182,263,125425,2,0,P|160:299|58:308,1,143.999995605469,2|2,0:2|3:2,0:0:0:0:
7,239,125875,1,8,1:2:0:0:
116,151,126025,6,0,B|170:138|212:150|197:163|242:176|292:156,1,176.000005371094,6|2,3:2|3:2,0:0:0:0:
388,101,126475,2,0,P|404:152|393:199,1,88.000002685547,10|2,1:2|3:2,0:0:0:0:
365,298,126775,5,0,1:0:0:0:
365,298,126925,1,2,1:2:0:0:
287,157,127075,1,0,1:0:0:0:
287,157,127225,1,0,1:0:0:0:
152,260,127375,6,0,P|203:291|290:266,2,143.999995605469,6|8|0,3:2|1:2|3:0,0:0:0:0:
102,180,128125,1,2,0:2:0:0:
46,255,128275,1,10,1:2:0:0:
11,86,128425,6,0,B|56:73|94:81|82:98|122:106|166:93,1,143.999995605469,2|0,3:2|3:0,0:0:0:0:
221,34,128875,1,8,1:2:0:0:
249,123,129025,1,0,3:0:0:0:
352,18,129175,2,0,L|340:99,1,71.9999978027344,0|0,3:0|3:0,0:0:0:0:
324,181,129475,1,10,1:2:0:0:
409,142,129625,1,0,1:0:0:0:
340,276,129775,6,0,P|288:273|237:187,1,143.999995605469,2|10,3:2|1:2,0:0:0:0:
425,225,130225,2,0,L|412:375,1,143.999995605469,2|2,0:2|1:2,0:0:0:0:
340,276,130675,1,8,0:2:0:0:
265,366,130825,6,0,B|219:378|219:378|112:358,1,143.999995605469,2|0,3:2|3:0,0:0:0:0:
34,331,131275,1,8,1:2:0:0:
110,276,131425,1,0,0:0:0:0:
22,154,131575,1,0,3:0:0:0:
31,247,131725,1,0,3:0:0:0:
188,177,131875,2,0,P|147:153|96:156,1,71.9999978027344,10|0,1:2|0:0,0:0:0:0:
197,277,132175,6,0,L|347:266,1,143.999995605469,2|10,3:2|1:2,0:0:0:0:
389,186,132625,2,0,L|317:192,1,71.9999978027344,2|0,3:2|3:0,0:0:0:0:
400,324,132925,2,0,L|430:258,1,71.9999978027344,2|8,3:2|1:2,0:0:0:0:
405,108,133225,6,0,L|261:118,1,143.999995605469,2|0,3:2|3:0,0:0:0:0:
167,124,133675,1,8,1:2:0:0:
213,42,133825,1,0,3:0:0:0:
119,44,133975,2,0,P|80:89|74:116,1,71.9999978027344,0|0,3:0|3:0,0:0:0:0:
100,190,134275,1,10,1:2:0:0:
167,124,134425,1,0,0:0:0:0:
231,246,134575,6,0,P|246:295|197:373,1,143.999995605469,6|10,3:2|1:2,0:0:0:0:
95,284,135025,2,0,L|172:299,1,71.9999978027344,2|0,0:2|1:0,0:0:0:0:
301,232,135325,2,0,L|230:245,1,71.9999978027344,2|8,3:2|3:2,0:0:0:0:
343,305,135625,6,0,P|384:254|355:163,1,143.999995605469,6|0,3:2|3:0,0:0:0:0:
307,112,136075,1,0,1:0:0:0:
225,157,136225,1,0,1:0:0:0:
255,26,136375,1,2,1:2:0:0:
143,98,136525,1,0,1:0:0:0:
143,98,136600,1,0,1:0:0:0:
143,98,136675,2,0,P|126:145|133:182,1,71.9999978027344,0|0,1:0|1:0,0:0:0:0:
150,190,136900,1,0,1:0:0:0:
150,190,136975,6,0,P|182:244|151:333,1,143.999995605469,4|8,3:2|1:2,0:0:0:0:
163,319,137575,2,0,P|212:311|243:319,1,71.9999978027344,2|0,3:2|0:0,0:0:0:0:
312,365,137875,2,0,P|361:373|392:365,1,71.9999978027344,10|0,1:2|3:0,0:0:0:0:
348,197,138175,6,0,B|328:247|354:299|354:299|396:263,1,143.999995605469,2|8,0:2|1:2,0:0:0:0:
460,221,138625,1,0,3:0:0:0:
354,125,138775,2,0,L|346:217,1,71.9999978027344,2|0,0:2|3:0,0:0:0:0:
496,70,139075,2,0,L|504:162,1,71.9999978027344,10|0,1:2|1:0,0:0:0:0:
278,86,139375,6,0,P|340:42|408:63,2,143.999995605469,2|10|2,3:2|1:2|3:2,0:0:0:0:
229,165,140125,1,2,1:2:0:0:
172,90,140275,1,8,0:2:0:0:
76,199,140425,6,0,P|56:255|78:343,1,143.999995605469,2|0,3:2|3:0,0:0:0:0:
157,377,140875,1,8,1:2:0:0:
214,303,141025,1,0,0:0:0:0:
329,373,141175,2,0,P|367:380|407:370,1,71.9999978027344,0|0,3:0|3:0,0:0:0:0:
357,252,141475,6,0,L|364:306,1,48,8|0,1:2|0:0,0:0:0:0:
403,314,141775,6,0,L|382:164,1,143.999995605469,0|8,3:0|1:2,0:0:0:0:
365,79,142225,1,0,3:0:0:0:
286,182,142375,2,0,L|208:167,1,71.9999978027344,2|0,3:2|0:0,0:0:0:0:
148,102,142675,2,0,L|70:117,1,71.9999978027344,10|0,1:2|3:0,0:0:0:0:
124,278,142975,6,0,B|138:181|138:181|77:193,1,143.999995605469,2|8,0:2|1:2,0:0:0:0:
9,199,143425,1,0,1:0:0:0:
124,278,143575,2,0,P|167:290|210:278,1,71.9999978027344,2|0,3:2|3:0,0:0:0:0:
275,238,143875,2,0,P|318:226|361:238,1,71.9999978027344,10|0,1:2|1:0,0:0:0:0:
328,382,144175,6,0,L|319:295,1,71.9999978027344,6|0,3:2|0:0,0:0:0:0:
408,343,144475,1,10,1:2:0:0:
481,243,144625,2,0,P|492:197|484:162,1,71.9999978027344,2|0,0:2|3:0,0:0:0:0:
387,96,144925,2,0,P|376:142|384:177,1,71.9999978027344,2|8,0:2|1:2,0:0:0:0:
467,56,145225,6,0,P|396:13|321:37,1,143.999995605469,6|0,3:2|3:0,0:0:0:0:
263,79,145675,2,0,P|250:119|258:170,1,71.9999978027344,8|0,1:2|3:0,0:0:0:0:
309,221,145975,1,0,1:0:0:0:
309,221,146125,1,0,1:0:0:0:
387,96,146275,1,0,1:0:0:0:
387,96,146425,1,0,1:0:0:0:
251,148,146575,6,0,B|216:161|172:152|193:135|143:124|101:138,2,143.999995605469,4|10|2,3:2|1:2|3:2,0:0:0:0:
325,91,147325,1,2,0:2:0:0:
252,32,147475,1,8,1:2:0:0:
172,139,147625,6,0,P|161:200|172:288,1,143.999995605469,2|0,3:2|3:0,0:0:0:0:
215,362,148075,1,8,1:2:0:0:
271,287,148225,1,0,3:0:0:0:
375,374,148375,2,0,L|289:369,1,71.9999978027344,2|0,3:2|3:0,0:0:0:0:
354,231,148675,2,0,L|392:307,1,71.9999978027344,10|0,1:2|1:0,0:0:0:0:
252,212,148975,6,0,L|291:151,1,71.9999978027344,2|0,3:2|0:0,0:0:0:0:
340,72,149275,1,10,1:2:0:0:
451,153,149425,2,0,P|414:159|372:141,1,71.9999978027344,2|0,0:2|3:0,0:0:0:0:
414,6,149725,2,0,L|425:86,1,71.9999978027344,2|8,1:2|0:2,0:0:0:0:
256,10,150025,6,0,L|230:178,1,143.999995605469,2|0,3:2|3:0,0:0:0:0:
217,244,150475,1,8,1:2:0:0:
126,115,150625,1,0,0:0:0:0:
86,298,150775,1,0,3:0:0:0:
86,298,150925,1,0,3:0:0:0:
36,194,151075,1,8,1:2:0:0:
36,194,151375,6,0,P|81:208|116:203,1,71.9999978027344,2|0,3:2|0:0,0:0:0:0:
192,169,151675,1,10,1:2:0:0:
293,291,151825,2,0,P|311:344|306:378,1,71.9999978027344,2|0,3:2|3:0,0:0:0:0:
159,343,152125,2,0,L|242:337,1,71.9999978027344,2|8,3:2|1:2,0:0:0:0:
354,241,152425,6,0,P|281:215|224:254,1,143.999995605469,2|0,3:2|3:0,0:0:0:0:
310,359,152875,1,10,1:2:0:0:
310,359,153025,1,0,1:0:0:0:
354,241,153175,2,0,P|362:196|358:159,1,71.9999978027344,2|0,3:2|3:0,0:0:0:0:
216,81,153475,2,0,P|208:126|212:163,1,71.9999978027344,10|0,1:2|1:0,0:0:0:0:
432,149,153775,6,0,P|403:109|295:127,2,143.999995605469,6|0|0,3:2|1:0|1:0,0:0:0:0:
469,233,154525,1,0,3:0:0:0:
360,169,154675,1,8,3:2:0:0:
418,325,154825,1,4,3:2:0:0:
203,177,155125,6,0,L|213:128,2,35.9999989013672,2|0|8,0:2|0:0|0:2,0:0:0:0:
181,338,155575,1,10,0:2:0:0:
181,338,155875,1,10,0:2:0:0:
181,338,156175,6,0,P|104:350|67:264,1,176.000005371094,6|8,3:2|1:2,0:0:0:0:
104,165,156625,1,0,0:0:0:0:
194,234,156775,1,0,3:0:0:0:
266,86,156925,5,2,0:2:0:0:
306,192,157075,1,10,1:2:0:0:
192,131,157225,2,0,P|179:83|200:26,1,88.000002685547,2|0,3:2|0:0,0:0:0:0:
344,2,157525,5,2,0:2:0:0:
266,86,157675,1,10,1:2:0:0:
414,168,157825,2,0,P|426:104|413:65,1,88.000002685547,2|0,3:2|0:0,0:0:0:0:
344,2,158125,5,2,3:2:0:0:
266,86,158275,1,10,1:2:0:0:
420,82,158425,1,2,3:2:0:0:
287,213,158575,6,0,B|237:226|185:211|210:189|154:176|101:200,2,176.000005371094,0|8|0,3:2|1:2|3:0,0:0:0:0:
254,47,159325,2,0,L|247:146,1,88.000002685547,0|8,1:0|0:2,0:0:0:0:
79,270,159625,6,0,P|34:202|83:115,1,176.000005371094,0|0,3:0|3:0,0:0:0:0:
165,58,160075,1,8,1:2:0:0:
165,58,160225,1,0,0:0:0:0:
297,176,160375,2,0,P|311:242|300:277,1,88.000002685547,2|0,3:2|3:0,0:0:0:0:
147,238,160675,2,0,L|249:224,1,88.000002685547,10|0,1:2|0:0,0:0:0:0:
365,313,160975,6,0,P|386:232|359:132,1,176.000005371094,2|8,3:2|1:2,0:0:0:0:
254,47,161425,1,0,0:0:0:0:
278,124,161575,1,0,3:0:0:0:
159,6,161725,5,2,0:2:0:0:
104,136,161875,1,10,1:2:0:0:
17,33,162025,2,0,L|2:140,1,88.000002685547,2|0,3:2|0:0,0:0:0:0:
48,223,162325,5,2,0:2:0:0:
104,136,162475,1,10,1:2:0:0:
196,258,162625,1,2,3:2:0:0:
278,178,162775,2,0,P|345:169|375:176,2,88.000002685547,2|2|10,0:2|3:2|1:2,0:0:0:0:
311,333,163225,6,0,L|327:237,1,88.000002685547,2|0,3:2|3:2,0:0:0:0:
196,258,163525,1,2,0:2:0:0:
223,368,163675,1,6,1:2:0:0:
115,327,163825,1,2,0:2:0:0:
204,170,163975,2,0,L|194:268,2,88.000002685547,2|2|2,0:2|0:2|1:2,0:0:0:0:
221,56,164425,6,0,P|299:24|332:124,1,176.000005371094,6|2,3:2|0:2,0:0:0:0:
342,199,164875,2,0,P|337:258|323:302,1,88.000002685547,0|0,1:0|3:0,0:0:0:0:
269,374,165175,5,2,1:2:0:0:
269,374,165325,1,0,1:0:0:0:
150,263,165475,1,2,1:2:0:0:
150,263,165625,1,0,1:0:0:0:
342,199,165775,6,0,B|396:187|435:207|419:222|474:238|520:222,2,176.000005371094,6|8|0,3:2|1:2|3:0,0:0:0:0:
239,250,166525,1,2,0:2:0:0:
285,94,166675,1,10,1:2:0:0:
194,163,166825,2,0,P|141:174|108:165,1,88.000002685547,2|0,3:2|0:0,0:0:0:0:
82,54,167125,5,2,0:2:0:0:
194,75,167275,1,10,1:2:0:0:
39,131,167425,2,0,P|31:174|43:216,1,88.000002685547,2|0,3:2|0:0,0:0:0:0:
115,304,167725,5,2,3:2:0:0:
193,220,167875,1,10,1:2:0:0:
284,366,168025,2,0,P|336:377|374:367,1,88.000002685547,2|0,3:2|3:2,0:0:0:0:
326,180,168325,6,0,B|289:238|330:301|330:301|362:259,1,176.000005371094,2|0,0:2|0:0,0:0:0:0:
427,171,168775,1,0,3:0:0:0:
488,267,168925,1,0,1:0:0:0:
326,180,169075,1,8,0:2:0:0:
326,180,169225,6,0,P|357:90|433:67,1,176.000005371094,0|0,3:0|3:0,0:0:0:0:
511,193,169675,2,0,L|418:168,1,88.000002685547,8|0,1:2|0:0,0:0:0:0:
311,278,169975,2,0,L|404:253,1,88.000002685547,2|0,3:2|3:0,0:0:0:0:
250,137,170275,2,0,P|237:183|248:234,1,88.000002685547,10|0,1:2|0:0,0:0:0:0:
176,364,170575,6,0,P|189:290|106:219,1,176.000005371094,2|8,3:2|1:2,0:0:0:0:
48,278,171025,1,0,0:0:0:0:
9,208,171175,1,0,3:0:0:0:
124,223,171325,5,2,0:2:0:0:
163,108,171475,1,10,1:2:0:0:
253,215,171625,2,0,P|300:225|342:211,1,88.000002685547,2|0,3:2|0:0,0:0:0:0:
428,143,171925,5,2,0:2:0:0:
416,256,172075,1,10,1:2:0:0:
294,147,172225,2,0,L|315:48,1,88.000002685547,2|2,3:2|0:2,0:0:0:0:
428,143,172525,5,2,3:2:0:0:
448,30,172675,1,10,1:2:0:0:
294,147,172825,1,2,3:2:0:0:
209,17,172975,6,0,B|149:6|108:19|129:33|75:47|26:21,2,176.000005371094,0|0|0,3:2|1:0|1:0,0:0:0:0:
312,60,173725,1,8,0:3:0:0:
213,118,173875,1,4,0:3:0:0:
372,183,174025,1,4,3:2:0:0:
372,183,174325,5,2,1:2:0:0:
325,287,174475,1,2,3:2:0:0:
294,284,174550,1,0,3:0:0:0:
263,281,174625,1,2,3:2:0:0:
232,278,174700,1,0,3:0:0:0:
202,276,174775,1,0,3:0:0:0:
88,263,174925,2,0,P|80:192|98:160,1,88.000002685547,2|2,3:2|1:2,0:0:0:0:
148,82,175225,1,2,3:2:0:0:
258,193,175375,6,0,P|306:202|348:186,1,80,4|0,3:2|0:0,0:0:0:0:
399,133,175675,2,0,P|437:124|476:133,1,80,8|0,1:2|0:0,0:0:0:0:
460,286,175975,5,10,3:2:0:0:
436,201,176125,1,2,1:2:0:0:
372,333,176275,1,10,0:2:0:0:
350,248,176425,1,2,3:2:0:0:
216,319,176575,2,0,L|307:305,1,80,10|8,0:2|3:2,0:0:0:0:
251,230,176875,1,10,1:2:0:0:
312,166,177025,2,0,P|326:115|316:75,1,80,2|8,0:2|3:2,0:0:0:0:
259,25,177325,1,8,3:2:0:0:
194,144,177475,1,8,1:2:0:0:
194,144,177625,1,8,3:2:0:0:
107,87,177775,6,0,L|88:180,1,80,10|0,3:2|0:0,0:0:0:0:
67,250,178075,1,10,1:2:0:0:
194,144,178225,2,0,L|213:237,1,80,2|8,0:2|3:2,0:0:0:0:
315,333,178525,2,0,L|331:254,1,80,2|8,1:2|1:2,0:0:0:0:
174,302,178825,6,0,P|208:335|319:329,1,160,2|0,3:2|3:0,0:0:0:0:
370,263,179275,2,0,P|415:241|460:248,1,80,8|0,1:2|0:0,0:0:0:0:
430,329,179575,1,8,3:2:0:0:
430,329,179725,1,0,3:0:0:0:
387,158,179875,2,0,L|364:66,1,80,8|0,1:2|0:0,0:0:0:0:
216,119,180175,6,0,P|260:144|298:142,1,80,4|0,3:2|0:0,0:0:0:0:
277,56,180475,1,8,1:2:0:0:
277,56,180775,5,10,3:2:0:0:
216,119,180925,1,2,1:2:0:0:
192,35,181075,1,10,0:2:0:0:
132,98,181225,1,2,3:2:0:0:
240,203,181375,6,0,B|208:188|154:200|179:218|129:230|80:209,1,160,10|10,0:2|1:2,0:0:0:0:
15,156,181825,1,2,0:2:0:0:
101,251,181975,2,0,P|110:294|102:337,1,80,8|0,1:2|3:0,0:0:0:0:
32,379,182275,1,8,1:2:0:0:
32,379,182425,1,0,0:0:0:0:
101,251,182575,6,0,L|196:263,1,80,14|0,3:2|0:0,0:0:0:0:
267,273,182875,1,10,1:2:0:0:
176,179,183025,2,0,P|181:125|206:98,1,80,2|8,0:2|3:2,0:0:0:0:
329,181,183325,2,0,L|238:159,1,80,2|8,1:2|0:2,0:0:0:0:
383,117,183625,6,0,P|413:171|355:262,1,160,6|0,1:2|3:0,0:0:0:0:
262,333,184075,2,0,P|316:323|371:341,1,80,8|0,1:2|0:0,0:0:0:0:
426,360,184375,1,8,3:2:0:0:
426,360,184525,1,0,0:0:0:0:
300,237,184675,1,8,1:2:0:0:
300,237,184975,6,0,P|248:232|216:244,1,80,6|0,3:2|0:0,0:0:0:0:
159,302,185275,1,10,1:2:0:0:
60,200,185425,2,0,L|75:102,1,80,2|8,0:2|3:2,0:0:0:0:
182,29,185725,2,0,L|194:108,1,80,2|8,1:2|0:2,0:0:0:0:
300,237,186025,6,0,L|325:79,1,160,2|0,3:2|3:0,0:0:0:0:
474,136,186475,2,0,P|424:158|376:147,1,80,8|8,1:2|0:2,0:0:0:0:
419,70,186775,1,8,3:2:0:0:
419,70,186925,1,8,3:2:0:0:
455,243,187075,1,10,1:2:0:0:
399,156,187225,1,2,0:2:0:0:
337,306,187375,6,0,B|300:324|252:310|269:296|221:281|178:301,1,160,10|10,3:2|1:2,0:0:0:0:
115,356,187825,2,0,P|100:315|103:270,1,80,2|8,0:2|3:2,0:0:0:0:
209,215,188125,2,0,P|224:256|221:301,1,80,2|8,1:2|1:2,0:0:0:0:
25,297,188425,6,0,P|72:211|145:219,1,160,2|0,3:2|3:0,0:0:0:0:
223,291,188875,2,0,P|272:303|310:294,1,80,8|0,1:2|0:0,0:0:0:0:
367,240,189175,1,8,3:2:0:0:
367,240,189325,1,0,3:0:0:0:
228,145,189475,1,8,1:2:0:0:
228,145,189775,6,0,L|242:246,1,80,6|0,3:2|0:0,0:0:0:0:
313,176,190075,1,10,1:2:0:0:
226,67,190225,2,0,P|182:80|154:118,1,80,2|8,0:2|3:2,0:0:0:0:
136,190,190525,1,2,1:2:0:0:
78,123,190675,1,8,1:2:0:0:
4,293,190825,6,0,B|52:312|91:298|71:282|123:273|161:296,1,160,2|0,3:2|3:0,0:0:0:0:
216,360,191275,2,0,P|263:375|301:369,1,80,10|0,1:2|0:0,0:0:0:0:
422,261,191575,2,0,P|375:246|337:252,1,80,10|0,3:2|0:0,0:0:0:0:
269,294,191875,1,10,1:2:0:0:
377,334,192025,1,0,3:0:0:0:
340,171,192175,5,4,0:2:0:0:
340,171,192325,1,8,0:2:0:0:
269,294,192475,1,8,3:2:0:0:
214,195,192625,2,0,L|192:150,2,40,8|0|8,0:2|1:0|1:2,0:0:0:0:
174,273,192925,1,8,1:2:0:0:
111,140,193075,1,8,1:2:0:0:
61,227,193225,1,8,1:2:0:0:
61,227,193975,5,2,1:2:0:0:
111,140,194125,1,0,1:0:0:0:
174,273,194275,1,2,1:2:0:0:
201,277,194350,1,0,1:0:0:0:
229,282,194425,1,0,1:0:0:0:
256,286,194500,1,0,0:0:0:0:
283,291,194575,6,0,B|345:287|387:325|356:331|394:368|441:370,2,176.000005371094,6|8|0,3:2|1:2|3:0,0:0:0:0:
193,363,195325,1,2,0:2:0:0:
173,254,195475,1,10,1:2:0:0:
4,317,195625,2,0,L|104:336,1,88.000002685547,2|0,3:2|0:0,0:0:0:0:
173,254,195925,5,2,0:2:0:0:
79,187,196075,1,10,1:2:0:0:
207,93,196225,2,0,P|228:143|223:194,1,88.000002685547,2|0,3:2|0:0,0:0:0:0:
173,254,196525,5,2,3:2:0:0:
79,187,196675,1,10,1:2:0:0:
207,93,196825,1,2,3:2:0:0:
284,151,196975,6,0,B|332:175|381:153|363:139|418:126|463:151,2,176.000005371094,0|8|0,3:2|1:2|3:0,0:0:0:0:
323,45,197725,1,0,1:0:0:0:
323,45,197875,1,8,0:2:0:0:
411,210,198025,6,0,L|389:391,1,176.000005371094,0|0,3:0|3:0,0:0:0:0:
243,274,198475,2,0,P|290:251|339:255,1,88.000002685547,8|0,1:2|0:0,0:0:0:0:
262,363,198775,1,2,3:2:0:0:
262,363,198925,1,0,3:0:0:0:
157,286,199075,2,0,L|168:185,1,88.000002685547,10|0,1:2|0:0,0:0:0:0:
251,105,199375,6,0,P|227:152|120:116,2,176.000005371094,2|8|0,3:2|1:2|3:0,0:0:0:0:
192,5,200125,1,2,0:2:0:0:
300,40,200275,1,10,1:2:0:0:
124,128,200425,2,0,L|117:31,1,88.000002685547,2|0,3:2|0:0,0:0:0:0:
13,89,200725,5,2,0:2:0:0:
124,128,200875,1,10,1:2:0:0:
32,197,201025,1,2,3:2:0:0:
173,273,201175,2,0,P|220:285|265:275,2,88.000002685547,2|2|10,0:2|3:2|1:2,0:0:0:0:
207,119,201625,6,0,L|224:217,1,88.000002685547,2|0,3:2|3:2,0:0:0:0:
312,135,201925,1,2,0:2:0:0:
345,245,202075,1,6,1:2:0:0:
424,162,202225,1,2,0:2:0:0:
486,295,202375,2,0,P|499:345|490:384,2,88.000002685547,2|2|2,0:2|0:2|1:2,0:0:0:0:
299,332,202825,6,0,L|398:349,1,88.000002685547,6|0,3:2|0:0,0:0:0:0:
486,295,203125,1,2,0:2:0:0:
392,175,203275,2,0,P|350:221|344:251,1,88.000002685547,0|0,1:0|3:0,0:0:0:0:
473,215,203575,5,2,1:2:0:0:
473,215,203725,1,0,1:0:0:0:
431,56,203875,1,2,1:2:0:0:
431,56,204025,1,0,1:0:0:0:
308,118,204175,6,0,B|259:144|259:144|129:112,2,176.000005371094,6|8|0,3:2|1:2|3:0,0:0:0:0:
327,4,204925,1,2,0:2:0:0:
400,115,205075,1,10,1:2:0:0:
288,203,205225,2,0,L|308:118,1,88.000002685547,2|0,3:2|0:0,0:0:0:0:
240,23,205525,5,2,0:2:0:0:
162,107,205675,1,10,1:2:0:0:
288,203,205825,2,0,L|379:193,1,88.000002685547,2|0,3:2|0:0,0:0:0:0:
459,242,206125,5,2,3:2:0:0:
406,343,206275,1,10,1:2:0:0:
288,203,206425,2,0,L|273:300,1,88.000002685547,2|0,3:2|3:2,0:0:0:0:
150,342,206725,6,0,P|188:274|282:300,1,176.000005371094,2|0,0:2|0:0,0:0:0:0:
150,342,207175,2,0,L|47:325,2,88.000002685547,0|0|8,3:0|1:0|0:2,0:0:0:0:
213,192,207625,6,0,B|195:62|195:62|150:94,1,176.000005371094,0|0,3:0|3:0,0:0:0:0:
70,160,208075,1,8,1:2:0:0:
70,160,208225,1,0,0:0:0:0:
213,192,208375,2,0,L|304:170,1,88.000002685547,2|0,3:2|3:0,0:0:0:0:
421,92,208675,2,0,L|330:70,1,88.000002685547,10|0,1:2|0:0,0:0:0:0:
418,218,208975,6,0,B|453:154|419:95|419:95|377:136,1,176.000005371094,2|8,3:2|1:2,0:0:0:0:
298,171,209425,1,0,0:0:0:0:
267,100,209575,1,0,3:0:0:0:
221,261,209725,5,2,0:2:0:0:
167,129,209875,1,10,1:2:0:0:
44,214,210025,2,0,L|135:230,1,88.000002685547,2|0,3:2|0:0,0:0:0:0:
175,334,210325,5,2,0:2:0:0:
61,319,210475,1,10,1:2:0:0:
221,261,210625,2,0,P|258:301|260:346,1,88.000002685547,2|2,3:2|0:2,0:0:0:0:
125,262,210925,5,2,3:2:0:0:
178,160,211075,1,10,1:2:0:0:
44,214,211225,1,2,3:2:0:0:
111,107,211375,6,0,P|209:88|260:140,1,176.000005371094,0|0,3:2|1:0,0:0:0:0:
290,247,211825,1,0,0:0:0:0:
398,152,211975,2,0,P|411:102|403:50,1,88.000002685547,0|8,1:0|0:3,0:0:0:0:
317,0,212275,1,4,0:3:0:0:
258,135,212425,1,4,3:2:0:0:
408,67,212575,5,8,0:2:0:0:
408,67,212725,1,8,0:2:0:0:
327,189,212875,1,8,0:2:0:0:
327,189,213025,1,8,0:2:0:0:
463,145,213175,5,8,0:2:0:0:
463,145,213325,1,8,0:2:0:0:
382,267,213475,1,8,0:2:0:0:
382,267,213625,1,8,0:2:0:0:
306,105,213775,5,8,0:2:0:0:
306,105,213925,1,8,0:2:0:0:
447,171,214075,1,8,0:2:0:0:
447,171,214225,1,8,0:2:0:0:
241,201,214375,5,8,0:2:0:0:
241,201,214525,1,8,0:2:0:0:
382,267,214675,1,8,0:2:0:0:
382,267,214825,1,8,0:2:0:0:
306,105,214975,5,8,3:2:0:0:
270,289,215125,1,8,3:2:0:0:
394,169,215275,1,8,3:2:0:0:
190,199,215425,1,8,3:2:0:0:
321,76,215575,5,8,3:2:0:0:
264,313,215725,1,8,3:2:0:0:
180,97,215875,1,8,3:2:0:0:
394,169,216025,1,8,3:2:0:0:
31,342,217075,6,0,L|20:306,6,22.0000006713867,2|0|0|0|2|0|0,0:2|0:0|0:0|0:0|0:2|0:0|0:0,0:0:0:0:
42,375,217375,5,12,3:2:0:0:
0,245,217525,1,2,0:2:0:0:
134,301,217675,2,0,P|188:319|223:311,1,88.000002685547,10|2,1:2|0:2,0:0:0:0:
312,250,217975,1,10,3:2:0:0:
278,377,218125,1,0,1:0:0:0:
189,237,218275,1,10,0:2:0:0:
189,237,218425,6,0,B|158:178|158:178|185:38,1,176.000005371094,2|2,3:2|3:2,0:0:0:0:
277,10,218875,1,10,1:2:0:0:
246,168,219025,1,2,0:2:0:0:
92,62,219175,2,0,P|135:58|178:70,1,88.000002685547,10|2,0:2|3:2,0:0:0:0:
246,168,219475,1,10,1:2:0:0:
83,211,219625,1,2,0:2:0:0:
83,211,219925,5,2,0:2:0:0:
187,256,220075,2,0,P|205:303|195:359,1,88.000002685547,10|2,1:2|0:2,0:0:0:0:
89,317,220375,1,10,3:2:0:0:
244,182,220525,1,0,1:0:0:0:
209,338,220675,1,10,1:2:0:0:
209,338,220825,6,0,B|266:318|305:329|291:341|344:354|387:336,1,176.000005371094,2|2,3:2|3:2,0:0:0:0:
488,296,221275,1,10,1:2:0:0:
329,241,221425,1,2,0:2:0:0:
425,149,221575,2,0,P|435:208|418:262,1,88.000002685547,10|2,3:2|0:2,0:0:0:0:
381,338,221875,1,10,1:2:0:0:
488,296,222025,1,2,0:2:0:0:
329,241,222175,5,12,3:2:0:0:
426,148,222325,1,2,0:2:0:0:
272,110,222475,2,0,P|309:148|361:163,1,88.000002685547,10|2,1:2|0:2,0:0:0:0:
410,68,222775,1,10,3:2:0:0:
428,180,222925,1,0,1:0:0:0:
272,110,223075,1,10,0:2:0:0:
272,110,223225,6,0,P|239:189|238:285,1,176.000005371094,2|2,3:2|3:2,0:0:0:0:
312,364,223675,1,10,1:2:0:0:
155,286,223825,1,2,0:2:0:0:
321,195,223975,2,0,P|332:246|323:294,1,88.000002685547,10|2,1:2|0:2,0:0:0:0:
235,350,224275,1,10,1:2:0:0:
160,200,224425,1,2,0:2:0:0:
31,298,224575,6,0,B|97:331|155:286|155:286|107:262,1,176.000005371094,10|10,3:2|1:2,0:0:0:0:
22,209,225025,2,0,B|-17:189|-17:189|40:144|106:177,1,176.000005371094,2|2,3:2|1:2,0:0:0:0:
208,230,225475,1,10,0:2:0:0:
279,67,225625,2,0,P|307:20|342:102,1,176.000005371094,6|2,1:2|3:2,0:0:0:0:
280,174,226075,1,10,1:2:0:0:
427,133,226225,2,0,B|446:181|436:226|420:204|408:249|430:310,1,176.000005371094,2|2,0:2|0:2,0:0:0:0:
512,384,226675,1,10,1:2:0:0:
346,306,226825,1,2,0:2:0:0:
502,257,226975,5,12,3:2:0:0:
434,349,227125,1,2,0:2:0:0:
336,217,227275,2,0,P|281:202|241:214,1,88.000002685547,10|2,1:2|0:2,0:0:0:0:
162,281,227575,1,10,3:2:0:0:
296,315,227725,1,0,1:0:0:0:
183,175,227875,1,10,0:2:0:0:
183,175,228025,6,0,B|134:161|87:175|109:185|45:199|4:172,1,176.000005371094,2|2,3:2|3:2,0:0:0:0:
54,69,228475,1,10,1:2:0:0:
145,247,228625,1,2,0:2:0:0:
233,98,228775,2,0,P|242:37|230:-2,1,88.000002685547,10|2,3:2|0:2,0:0:0:0:
148,86,229075,1,10,1:2:0:0:
304,146,229225,1,2,0:2:0:0:
304,146,229525,5,2,0:2:0:0:
207,206,229675,2,0,P|189:249|192:303,1,88.000002685547,10|2,1:2|0:2,0:0:0:0:
264,375,229975,1,10,3:2:0:0:
316,199,230125,1,0,1:0:0:0:
188,289,230275,1,10,1:2:0:0:
188,289,230425,6,0,B|230:270|286:281|264:300|326:315|375:287,1,176.000005371094,2|2,3:2|3:2,0:0:0:0:
453,229,230875,1,10,1:2:0:0:
395,372,231025,1,2,0:2:0:0:
316,199,231175,2,0,P|305:139|325:101,1,88.000002685547,10|2,3:2|0:2,0:0:0:0:
402,42,231475,1,10,1:2:0:0:
451,199,231625,1,2,0:2:0:0:
314,115,231775,5,12,3:2:0:0:
428,119,231925,1,2,0:2:0:0:
314,282,232075,2,0,P|303:240|316:199,1,88.000002685547,10|2,1:2|0:2,0:0:0:0:
403,273,232375,1,10,3:2:0:0:
257,342,232525,1,0,1:0:0:0:
315,199,232675,1,10,1:2:0:0:
315,199,232825,6,0,B|269:177|223:190|233:210|182:219|136:197,1,176.000005371094,2|2,3:2|3:2,0:0:0:0:
64,118,233275,1,10,1:2:0:0:
124,291,233425,1,2,0:2:0:0:
186,130,233575,2,0,P|198:73|189:34,1,88.000002685547,10|2,3:2|0:2,0:0:0:0:
86,2,233875,1,10,1:2:0:0:
117,191,234025,1,2,3:2:0:0:
271,70,234175,6,0,B|318:53|318:53|454:82,1,176.000005371094,10|10,1:2|1:2,0:0:0:0:
343,236,234625,2,0,B|331:130|331:130|418:151,1,176.000005371094,2|2,0:2|1:2,0:0:0:0:
511,165,235075,1,10,1:2:0:0:
411,287,235225,2,0,P|367:315|261:256,1,176.000005371094,6|2,1:2|3:2,0:0:0:0:
229,157,235675,2,0,P|158:117|116:122,1,88.000002685547,10|2,1:2|0:2,0:0:0:0:
48,163,235975,1,8,1:2:0:0:
152,36,236125,1,2,1:2:0:0:
163,201,236275,5,10,1:2:0:0:
164,231,236350,1,0,1:0:0:0:
166,262,236425,1,2,1:2:0:0:
168,293,236500,1,0,1:0:0:0:
