osu file format v14

[General]
AudioFilename: audio.mp3
AudioLeadIn: 0
PreviewTime: 78325
Countdown: 0
SampleSet: Soft
StackLeniency: 0.7
Mode: 0
LetterboxInBreaks: 0
WidescreenStoryboard: 1

[Editor]
Bookmarks: 2575,21775,40975,60175,79375,98575,110350,117775,136975,156175,175375,194575,217375,236500
DistanceSpacing: 1
BeatDivisor: 4
GridSize: 32
TimelineZoom: 1.9

[Metadata]
Title:Furisodation
TitleUnicode:ふりそでーしょん
Artist:Kyary Pamyu Pamyu
ArtistUnicode:きゃりーぱみゅぱみゅ
Creator:Bazz B
Version:Ducky-'s Normal
Source:
Tags:Jpop J-pop PaRaDogi Ducky- Kazato Asa Shikibe Mayu Shizuku- Amateurre -Mikan Bazz_B Yasutaka Nakata Japanese jp pop Nanda Collection KPP Best Kimi ni 100 Percent Xenon- Xen Xehn Elcheer dora- doraemonelf
BeatmapID:2990136
BeatmapSetID:1049418

[Difficulty]
HPDrainRate:3
CircleSize:3
OverallDifficulty:4
ApproachRate:5.5
SliderMultiplier:0.9
SliderTickRate:1

[Events]
//Background and Video events
0,0,"me.jpg",0,0
//Break Periods
//Storyboard Layer 0 (Background)
//Storyboard Layer 1 (Fail)
//Storyboard Layer 2 (Pass)
//Storyboard Layer 3 (Foreground)
//Storyboard Layer 4 (Overlay)
//Storyboard Sound Samples

[TimingPoints]
175,300,4,2,0,70,1,0
1975,-111.111111111111,4,2,1,70,0,0
2275,-111.111111111111,4,2,3,70,0,0
2575,-111.111111111111,4,2,2,70,0,0
2875,-111.111111111111,4,2,1,70,0,0
3175,-111.111111111111,4,2,4,70,0,0
3325,-111.111111111111,4,2,1,70,0,0
3475,-111.111111111111,4,2,3,70,0,0
3625,-111.111111111111,4,2,2,70,0,0
3925,-111.111111111111,4,2,1,70,0,0
4075,-111.111111111111,4,2,3,70,0,0
4225,-111.111111111111,4,2,2,70,0,0
4375,-111.111111111111,4,2,4,70,0,0
4525,-111.111111111111,4,2,1,70,0,0
4675,-111.111111111111,4,2,3,70,0,0
4825,-111.111111111111,4,2,2,70,0,0
4975,-111.111111111111,4,2,4,70,0,0
5275,-111.111111111111,4,2,5,70,0,0
5575,-111.111111111111,4,2,4,70,0,0
5875,-111.111111111111,4,2,5,70,0,0
6175,-111.111111111111,4,2,4,70,0,0
6475,-111.111111111111,4,2,5,70,0,0
6775,-111.111111111111,4,2,6,70,0,0
7075,-111.111111111111,4,2,7,70,0,0
7225,-111.111111111111,4,2,8,70,0,0
7675,-111.111111111111,4,2,1,70,0,0
7975,-111.111111111111,4,2,4,70,0,0
8125,-111.111111111111,4,2,1,70,0,0
8275,-111.111111111111,4,2,9,70,0,0
8425,-111.111111111111,4,2,8,70,0,0
8725,-111.111111111111,4,2,1,70,0,0
8875,-111.111111111111,4,2,9,70,0,0
9025,-111.111111111111,4,2,1,70,0,0
9175,-111.111111111111,4,2,6,70,0,0
9325,-111.111111111111,4,2,9,70,0,0
9475,-111.111111111111,4,2,1,70,0,0
9625,-111.111111111111,4,2,8,70,0,0
9925,-111.111111111111,4,2,1,70,0,0
10075,-111.111111111111,4,2,5,70,0,0
10375,-111.111111111111,4,2,4,70,0,0
10675,-111.111111111111,4,2,5,70,0,0
10975,-111.111111111111,4,2,4,70,0,0
11275,-111.111111111111,4,2,1,70,0,0
11575,-111.111111111111,4,2,6,70,0,0
11875,-111.111111111111,4,2,3,70,0,0
12175,-100,4,2,10,70,0,0
12475,-100,4,2,1,70,0,0
12775,-100,4,2,4,70,0,0
12925,-100,4,2,1,70,0,0
13075,-100,4,2,3,70,0,0
13225,-100,4,2,2,70,0,0
13525,-100,4,2,1,70,0,0
13675,-100,4,2,3,70,0,0
13825,-100,4,2,2,70,0,0
13975,-100,4,2,4,70,0,0
14125,-100,4,2,3,70,0,0
14275,-100,4,2,11,70,0,0
14425,-100,4,2,2,70,0,0
14875,-100,4,2,5,70,0,0
15175,-100,4,2,4,70,0,0
15475,-100,4,2,5,70,0,0
15775,-100,4,2,4,70,0,0
16075,-100,4,2,5,70,0,0
16375,-100,4,2,6,70,0,0
16675,-100,4,2,7,70,0,0
16825,-100,4,2,8,70,0,0
17275,-100,4,2,1,70,0,0
17575,-100,4,2,4,70,0,0
17725,-100,4,2,1,70,0,0
17875,-100,4,2,9,70,0,0
18025,-100,4,2,8,70,0,0
18175,-100,4,2,12,80,0,0
18325,-100,4,2,1,80,0,0
18475,-100,4,2,12,80,0,0
18625,-100,4,2,8,80,0,0
18775,-100,4,2,12,80,0,0
18925,-100,4,2,7,80,0,0
19075,-100,4,2,13,80,0,0
19375,-100,4,2,18,80,0,0
20725,-100,4,2,3,80,0,0
20875,-100,4,2,2,80,0,0
21025,-100,4,2,14,80,0,0
21325,-100,4,2,15,80,0,0
21475,-100,4,2,2,80,0,0
21625,-100,4,2,1,80,0,0
21775,-90.9090909090909,4,2,14,90,0,0
21925,-90.9090909090909,4,2,16,90,0,0
26575,-90.9090909090909,4,2,15,90,0,0
26725,-90.9090909090909,4,2,16,90,0,0
31375,-90.9090909090909,4,2,14,90,0,0
31525,-90.9090909090909,4,2,16,90,0,0
36175,-90.9090909090909,4,2,15,90,0,0
36325,-90.9090909090909,4,2,16,90,0,0
40675,-90.9090909090909,4,2,17,90,0,0
40975,-100,4,2,17,75,0,0
41275,-100,4,2,18,75,0,0
45475,-100,4,2,19,75,0,0
46075,-100,4,2,18,75,0,0
49225,-100,4,2,19,75,0,0
49675,-100,4,2,18,75,0,0
55075,-100,4,2,19,75,0,0
55675,-100,4,2,18,75,0,0
58825,-100,4,2,19,75,0,0
59725,-100,4,2,3,75,0,0
60175,-100,4,2,7,80,0,0
60475,-100,4,2,18,80,0,0
64675,-100,4,2,19,80,0,0
65275,-100,4,2,18,80,0,0
68425,-100,4,2,19,80,0,0
68875,-100,4,2,12,80,0,0
69775,-100,4,2,7,80,0,0
70075,-100,4,2,18,80,0,0
74275,-100,4,2,19,80,0,0
74875,-100,4,2,18,80,0,0
76975,-100,4,2,19,80,0,0
77875,-100,4,2,18,80,0,0
78325,-100,4,2,20,80,0,0
78737,319.148936170213,4,2,21,80,1,0
79056,-100,4,2,22,90,0,0
79375,300,4,2,23,90,1,0
79375,-90.9090909090909,4,2,23,90,0,1
80125,-90.9090909090909,4,2,21,90,0,1
80275,-90.9090909090909,4,2,22,90,0,1
80425,-90.9090909090909,4,2,23,90,0,1
80725,-90.9090909090909,4,2,21,90,0,1
80875,-90.9090909090909,4,2,22,90,0,1
81025,-90.9090909090909,4,2,23,90,0,1
81325,-90.9090909090909,4,2,21,90,0,1
81475,-90.9090909090909,4,2,22,90,0,1
81625,-90.9090909090909,4,2,23,90,0,1
83575,-90.9090909090909,4,2,21,90,0,1
83875,-90.9090909090909,4,2,24,90,0,1
84175,-90.9090909090909,4,2,25,90,0,1
84475,-90.9090909090909,4,2,21,90,0,1
85075,-90.9090909090909,4,2,26,90,0,1
85225,-90.9090909090909,4,2,25,90,0,1
85525,-90.9090909090909,4,2,21,90,0,1
85675,-90.9090909090909,4,2,26,90,0,1
85825,-90.9090909090909,4,2,21,90,0,1
86125,-90.9090909090909,4,2,26,90,0,1
86275,-90.9090909090909,4,2,21,90,0,1
86425,-90.9090909090909,4,2,25,90,0,1
86725,-90.9090909090909,4,2,21,90,0,1
86875,-90.9090909090909,4,2,9,90,0,1
87025,-90.9090909090909,4,2,1,90,0,1
87325,-90.9090909090909,4,2,9,90,0,1
87475,-90.9090909090909,4,2,1,90,0,1
87625,-90.9090909090909,4,2,27,90,0,1
87775,-90.9090909090909,4,2,1,90,0,1
87925,-90.9090909090909,4,2,1,90,0,1
88225,-90.9090909090909,4,2,21,90,0,1
88675,-90.9090909090909,4,2,22,90,0,1
88975,-90.9090909090909,4,2,23,90,0,1
89725,-90.9090909090909,4,2,21,90,0,1
89875,-90.9090909090909,4,2,22,90,0,1
90025,-90.9090909090909,4,2,23,90,0,1
90325,-90.9090909090909,4,2,21,90,0,1
90475,-90.9090909090909,4,2,22,90,0,1
90625,-90.9090909090909,4,2,23,90,0,1
90925,-90.9090909090909,4,2,22,90,0,1
91075,-90.9090909090909,4,2,28,90,0,1
91225,-90.9090909090909,4,2,23,90,0,1
93175,-90.9090909090909,4,2,21,90,0,1
93475,-90.9090909090909,4,2,24,90,0,1
93775,-90.9090909090909,4,2,25,90,0,1
94075,-90.9090909090909,4,2,21,90,0,1
94675,-90.9090909090909,4,2,26,90,0,1
94825,-90.9090909090909,4,2,25,90,0,1
95125,-90.9090909090909,4,2,21,90,0,1
95275,-90.9090909090909,4,2,26,90,0,1
95425,-90.9090909090909,4,2,25,90,0,1
95575,-90.9090909090909,4,2,29,90,0,1
95725,-90.9090909090909,4,2,24,90,0,1
95875,-90.9090909090909,4,2,23,90,0,1
96325,-90.9090909090909,4,2,29,90,0,1
96925,-90.9090909090909,4,2,1,90,0,1
97225,-90.9090909090909,4,2,15,90,0,1
97675,-90.9090909090909,4,2,13,90,0,1
97825,-90.9090909090909,4,2,14,90,0,1
98125,-90.9090909090909,4,2,15,90,0,1
98275,-90.9090909090909,4,2,2,90,0,1
98425,-90.9090909090909,4,2,6,90,0,1
98575,-90.9090909090909,4,2,14,85,0,0
98725,-90.9090909090909,4,2,16,85,0,0
103375,-90.9090909090909,4,2,15,85,0,0
103525,-90.9090909090909,4,2,16,85,0,0
107125,-90.9090909090909,4,2,15,85,0,0
107275,-90.9090909090909,4,2,36,85,0,0
107425,-90.9090909090909,4,2,14,85,0,0
107725,-90.9090909090909,4,2,3,85,0,0
107875,-90.9090909090909,4,2,36,85,0,0
108025,-90.9090909090909,4,2,1,85,0,0
108175,-90.9090909090909,4,2,14,85,0,0
108325,-90.9090909090909,4,2,16,85,0,0
112975,-90.9090909090909,4,2,15,85,0,0
113125,-90.9090909090909,4,2,16,85,0,0
117475,-90.9090909090909,4,2,17,85,0,0
117775,-100,4,2,17,75,0,0
118075,-100,4,2,18,75,0,0
122275,-100,4,2,19,75,0,0
122875,-100,4,2,18,75,0,0
126025,-100,4,2,19,75,0,0
126475,-100,4,2,18,75,0,0
131875,-100,4,2,19,75,0,0
132475,-100,4,2,18,75,0,0
135625,-100,4,2,19,75,0,0
136375,-100,4,2,30,75,0,0
136525,-100,4,2,3,75,0,0
136975,-100,4,2,7,80,0,0
137275,-100,4,2,18,80,0,0
141475,-100,4,2,19,80,0,0
142075,-100,4,2,18,80,0,0
145225,-100,4,2,19,80,0,0
145675,-100,4,2,12,80,0,0
146575,-100,4,2,7,80,0,0
146875,-100,4,2,18,80,0,0
151075,-100,4,2,19,80,0,0
151675,-100,4,2,18,80,0,0
153775,-100,4,2,19,80,0,0
154675,-100,4,2,18,80,0,0
155125,-100,4,2,30,80,0,0
155275,-100,4,2,31,80,0,0
155856,-100,4,2,29,80,0,0
155875,-100,4,2,32,80,0,0
156175,-90.9090909090909,4,2,23,90,0,1
156925,-90.9090909090909,4,2,21,90,0,1
157075,-90.9090909090909,4,2,22,90,0,1
157225,-90.9090909090909,4,2,23,90,0,1
157525,-90.9090909090909,4,2,21,90,0,1
157675,-90.9090909090909,4,2,22,90,0,1
157825,-90.9090909090909,4,2,23,90,0,1
158125,-90.9090909090909,4,2,21,90,0,1
158275,-90.9090909090909,4,2,22,90,0,1
158425,-90.9090909090909,4,2,23,90,0,1
160375,-90.9090909090909,4,2,21,90,0,1
160675,-90.9090909090909,4,2,24,90,0,1
160975,-90.9090909090909,4,2,25,90,0,1
161275,-90.9090909090909,4,2,21,90,0,1
161875,-90.9090909090909,4,2,26,90,0,1
162025,-90.9090909090909,4,2,25,90,0,1
162325,-90.9090909090909,4,2,21,90,0,1
162475,-90.9090909090909,4,2,26,90,0,1
162625,-90.9090909090909,4,2,21,90,0,1
162925,-90.9090909090909,4,2,26,90,0,1
163075,-90.9090909090909,4,2,21,90,0,1
163225,-90.9090909090909,4,2,25,90,0,1
163525,-90.9090909090909,4,2,21,90,0,1
163675,-90.9090909090909,4,2,9,90,0,1
163825,-90.9090909090909,4,2,1,90,0,1
164125,-90.9090909090909,4,2,9,90,0,1
164275,-90.9090909090909,4,2,1,90,0,1
164425,-90.9090909090909,4,2,27,90,0,1
164575,-90.9090909090909,4,2,1,90,0,1
164725,-90.9090909090909,4,2,1,90,0,1
165025,-90.9090909090909,4,2,21,90,0,1
165475,-90.9090909090909,4,2,22,90,0,1
165775,-90.9090909090909,4,2,23,90,0,1
166525,-90.9090909090909,4,2,21,90,0,1
166675,-90.9090909090909,4,2,22,90,0,1
166825,-90.9090909090909,4,2,23,90,0,1
167125,-90.9090909090909,4,2,21,90,0,1
167275,-90.9090909090909,4,2,22,90,0,1
167425,-90.9090909090909,4,2,23,90,0,1
167725,-90.9090909090909,4,2,22,90,0,1
167875,-90.9090909090909,4,2,28,90,0,1
168025,-90.9090909090909,4,2,23,90,0,1
169975,-90.9090909090909,4,2,21,90,0,1
170275,-90.9090909090909,4,2,24,90,0,1
170575,-90.9090909090909,4,2,25,90,0,1
170875,-90.9090909090909,4,2,21,90,0,1
171475,-90.9090909090909,4,2,26,90,0,1
171625,-90.9090909090909,4,2,25,90,0,1
171925,-90.9090909090909,4,2,21,90,0,1
172075,-90.9090909090909,4,2,26,90,0,1
172225,-90.9090909090909,4,2,25,90,0,1
172375,-90.9090909090909,4,2,29,90,0,1
172525,-90.9090909090909,4,2,24,90,0,1
172675,-90.9090909090909,4,2,23,90,0,1
173125,-90.9090909090909,4,2,29,90,0,1
173725,-90.9090909090909,4,2,1,90,0,1
174025,-90.9090909090909,4,2,15,90,0,1
174475,-90.9090909090909,4,2,13,90,0,1
174625,-90.9090909090909,4,2,14,90,0,1
174925,-90.9090909090909,4,2,15,90,0,1
175075,-90.9090909090909,4,2,2,90,0,1
175225,-90.9090909090909,4,2,6,90,0,1
175375,-90.9090909090909,4,2,11,80,0,0
175675,-90.9090909090909,4,2,2,80,0,0
175975,-90.9090909090909,4,2,33,80,0,0
176125,-90.9090909090909,4,2,34,80,0,0
176425,-90.9090909090909,4,2,33,80,0,0
176875,-90.9090909090909,4,2,34,80,0,0
177175,-90.9090909090909,4,2,7,80,0,0
177475,-90.9090909090909,4,2,2,80,0,0
177625,-90.9090909090909,4,2,33,80,0,0
178075,-90.9090909090909,4,2,34,80,0,0
178375,-90.9090909090909,4,2,7,80,0,0
178525,-90.9090909090909,4,2,34,80,0,0
178825,-90.9090909090909,4,2,33,80,0,0
179275,-90.9090909090909,4,2,27,80,0,0
179575,-90.9090909090909,4,2,25,80,0,0
179875,-90.9090909090909,4,2,27,80,0,0
180475,-90.9090909090909,4,2,2,80,0,0
180775,-90.9090909090909,4,2,33,80,0,0
180925,-90.9090909090909,4,2,34,80,0,0
181225,-90.9090909090909,4,2,33,80,0,0
181675,-90.9090909090909,4,2,34,80,0,0
181975,-90.9090909090909,4,2,7,80,0,0
182275,-90.9090909090909,4,2,2,80,0,0
182575,-90.9090909090909,4,2,33,80,0,0
182875,-90.9090909090909,4,2,34,80,0,0
183175,-90.9090909090909,4,2,7,80,0,0
183325,-90.9090909090909,4,2,34,80,0,0
183625,-90.9090909090909,4,2,19,80,0,0
183775,-90.9090909090909,4,2,7,80,0,0
184075,-90.9090909090909,4,2,27,80,0,0
184375,-90.9090909090909,4,2,25,80,0,0
184675,-90.9090909090909,4,2,27,80,0,0
184975,-90.9090909090909,4,2,19,80,0,0
185275,-90.9090909090909,4,2,34,80,0,0
185575,-90.9090909090909,4,2,7,80,0,0
185725,-90.9090909090909,4,2,34,80,0,0
186025,-90.9090909090909,4,2,33,80,0,0
186475,-90.9090909090909,4,2,2,80,0,0
186625,-90.9090909090909,4,2,7,80,0,0
187075,-90.9090909090909,4,2,34,80,0,0
187375,-90.9090909090909,4,2,33,80,0,0
187675,-90.9090909090909,4,2,34,80,0,0
187975,-90.9090909090909,4,2,7,80,0,0
188125,-90.9090909090909,4,2,34,80,0,0
188425,-90.9090909090909,4,2,33,80,0,0
188875,-90.9090909090909,4,2,27,80,0,0
189175,-90.9090909090909,4,2,25,80,0,0
189475,-90.9090909090909,4,2,27,80,0,0
189775,-90.9090909090909,4,2,19,80,0,0
190075,-90.9090909090909,4,2,34,80,0,0
190375,-90.9090909090909,4,2,7,80,0,0
190525,-90.9090909090909,4,2,34,80,0,0
190825,-90.9090909090909,4,2,33,80,0,0
191275,-90.9090909090909,4,2,34,80,0,0
191575,-90.9090909090909,4,2,33,80,0,0
191875,-90.9090909090909,4,2,34,80,0,0
192025,-90.9090909090909,4,2,16,80,0,0
192325,-90.9090909090909,4,2,29,80,0,0
192475,-90.9090909090909,4,2,30,80,0,0
192625,-90.9090909090909,4,2,29,80,0,0
193075,-90.9090909090909,4,2,30,80,0,0
193225,-90.9090909090909,4,2,29,80,0,0
193975,-90.9090909090909,4,2,21,80,0,0
194256,-90.9090909090909,4,2,29,80,0,0
194275,-90.9090909090909,4,2,32,80,0,0
194575,-90.9090909090909,4,2,23,90,0,1
195325,-90.9090909090909,4,2,21,90,0,1
195475,-90.9090909090909,4,2,22,90,0,1
195625,-90.9090909090909,4,2,23,90,0,1
195925,-90.9090909090909,4,2,21,90,0,1
196075,-90.9090909090909,4,2,22,90,0,1
196225,-90.9090909090909,4,2,23,90,0,1
196525,-90.9090909090909,4,2,21,90,0,1
196675,-90.9090909090909,4,2,22,90,0,1
196825,-90.9090909090909,4,2,23,90,0,1
198775,-90.9090909090909,4,2,21,90,0,1
199075,-90.9090909090909,4,2,24,90,0,1
199375,-90.9090909090909,4,2,25,90,0,1
199675,-90.9090909090909,4,2,21,90,0,1
200275,-90.9090909090909,4,2,26,90,0,1
200425,-90.9090909090909,4,2,25,90,0,1
200725,-90.9090909090909,4,2,21,90,0,1
200875,-90.9090909090909,4,2,26,90,0,1
201025,-90.9090909090909,4,2,21,90,0,1
201325,-90.9090909090909,4,2,26,90,0,1
201475,-90.9090909090909,4,2,21,90,0,1
201625,-90.9090909090909,4,2,25,90,0,1
201925,-90.9090909090909,4,2,21,90,0,1
202075,-90.9090909090909,4,2,9,90,0,1
202225,-90.9090909090909,4,2,1,90,0,1
202525,-90.9090909090909,4,2,9,90,0,1
202675,-90.9090909090909,4,2,1,90,0,1
202825,-90.9090909090909,4,2,27,90,0,1
202975,-90.9090909090909,4,2,1,90,0,1
203125,-90.9090909090909,4,2,1,90,0,1
203425,-90.9090909090909,4,2,21,90,0,1
203875,-90.9090909090909,4,2,22,90,0,1
204175,-90.9090909090909,4,2,23,90,0,1
204925,-90.9090909090909,4,2,21,90,0,1
205075,-90.9090909090909,4,2,22,90,0,1
205225,-90.9090909090909,4,2,23,90,0,1
205525,-90.9090909090909,4,2,21,90,0,1
205675,-90.9090909090909,4,2,22,90,0,1
205825,-90.9090909090909,4,2,23,90,0,1
206125,-90.9090909090909,4,2,22,90,0,1
206275,-90.9090909090909,4,2,28,90,0,1
206425,-90.9090909090909,4,2,23,90,0,1
208375,-90.9090909090909,4,2,21,90,0,1
208675,-90.9090909090909,4,2,24,90,0,1
208975,-90.9090909090909,4,2,25,90,0,1
209275,-90.9090909090909,4,2,21,90,0,1
209875,-90.9090909090909,4,2,26,90,0,1
210025,-90.9090909090909,4,2,25,90,0,1
210325,-90.9090909090909,4,2,21,90,0,1
210475,-90.9090909090909,4,2,26,90,0,1
210625,-90.9090909090909,4,2,25,90,0,1
210775,-90.9090909090909,4,2,29,90,0,1
210925,-90.9090909090909,4,2,24,90,0,1
211075,-90.9090909090909,4,2,23,90,0,1
211525,-90.9090909090909,4,2,29,90,0,1
212125,-90.9090909090909,4,2,1,90,0,1
212425,-90.9090909090909,4,2,7,90,0,1
212575,-90.9090909090909,4,2,29,80,0,0
214975,-90.9090909090909,4,2,29,100,0,0
216325,-90.9090909090909,4,2,3,100,0,0
216475,-90.9090909090909,4,2,35,100,0,0
216625,-90.9090909090909,4,2,14,100,0,0
216925,-90.9090909090909,4,2,3,100,0,0
217075,-90.9090909090909,4,2,2,100,0,0
217225,-90.9090909090909,4,2,1,100,0,0
217375,-90.9090909090909,4,2,14,90,0,0
217525,-90.9090909090909,4,2,16,90,0,0
222175,-90.9090909090909,4,2,15,90,0,0
222325,-90.9090909090909,4,2,16,90,0,0
225925,-90.9090909090909,4,2,15,90,0,0
226075,-90.9090909090909,4,2,36,90,0,0
226225,-90.9090909090909,4,2,14,90,0,0
226525,-90.9090909090909,4,2,3,90,0,0
226675,-90.9090909090909,4,2,36,90,0,0
226825,-90.9090909090909,4,2,1,90,0,0
226975,-90.9090909090909,4,2,14,90,0,0
227125,-90.9090909090909,4,2,16,90,0,0
231775,-90.9090909090909,4,2,15,90,0,0
231925,-90.9090909090909,4,2,16,90,0,0
235525,-90.9090909090909,4,2,15,90,0,0
235675,-90.9090909090909,4,2,36,90,0,0
235825,-90.9090909090909,4,2,14,90,0,0
236125,-90.9090909090909,4,2,15,90,0,0
236275,-90.9090909090909,4,2,36,90,0,0
236425,-90.9090909090909,4,2,37,90,0,0
242275,-90.9090909090909,4,2,99,5,0,0

[Colours]
Combo1 : 153,255,255
Combo2 : 255,162,208
Combo3 : 136,196,255
Combo4 : 184,112,151

[HitObjects]
179,298,1975,5,2,0:2:0:0:
179,298,2275,1,2,0:2:0:0:
139,220,2575,6,0,P|87:220|52:234,2,80.9999975280763,14|8|8,3:2|3:2|1:2,0:0:0:0:
197,163,3475,2,0,P|207:114|220:75,1,80.9999975280763,10|8,0:2|0:2,0:0:0:0:
274,27,4075,1,10,3:2:0:0:
274,27,4225,1,2,0:2:0:0:
372,98,4675,2,0,P|375:119|380:152,1,40.4999987640381,10|2,0:2|3:2,0:0:0:0:
395,174,4975,6,0,P|438:179|477:209,1,80.9999975280763,10|10,3:2|3:2,0:0:0:0:
456,279,5575,2,0,P|422:300|382:304,1,80.9999975280763,10|10,1:2|0:2,0:0:0:0:
308,270,6175,1,10,0:2:0:0:
252,328,6475,1,10,3:2:0:0:
186,280,6775,2,0,P|191:247|205:194,1,80.9999975280763,10|10,1:2|0:2,0:0:0:0:
250,135,7375,6,0,P|298:155|342:162,2,80.9999975280763,10|8|8,3:2|3:2|1:2,0:0:0:0:
209,71,8275,1,10,0:2:0:0:
209,71,8425,1,2,3:2:0:0:
94,31,8875,2,0,L|88:76,1,40.4999987640381,10|2,3:2|0:2,0:0:0:0:
60,100,9175,2,0,L|65:158,1,40.4999987640381,10|2,1:2|0:2,0:0:0:0:
47,179,9475,1,10,0:2:0:0:
47,179,9625,1,2,3:2:0:0:
79,259,9925,5,2,0:2:0:0:
79,259,10075,2,0,P|127:287|175:279,2,80.9999975280763,10|10|10,3:2|1:2|0:2,0:0:0:0:
47,179,10975,1,8,0:2:0:0:
118,141,11275,1,8,3:2:0:0:
181,191,11575,2,0,P|243:200|279:208,1,80.9999975280763,10|10,1:2|0:2,0:0:0:0:
322,269,12175,6,0,P|302:317|323:363,2,90,14|8|8,3:2|3:2|1:2,0:0:0:0:
387,206,13075,2,0,L|382:148,1,45,10|2,0:2|3:2,0:0:0:0:
314,51,13675,1,10,3:2:0:0:
314,51,13825,1,2,0:2:0:0:
240,103,14125,2,0,L|196:98,1,45,2|10,0:2|0:2,0:0:0:0:
157,123,14425,1,2,3:2:0:0:
157,123,14575,6,0,P|82:135|61:147,1,90,8|10,3:2|3:2,0:0:0:0:
26,219,15175,2,0,P|16:265|34:309,1,90,10|10,1:2|0:2,0:0:0:0:
99,362,15775,1,10,0:2:0:0:
157,293,16075,1,10,3:2:0:0:
225,351,16375,2,0,P|292:325|327:325,1,90,10|10,1:2|0:2,0:0:0:0:
389,279,16975,6,0,B|395:173|445:224|448:95,1,180,10|8,3:2|1:2,0:0:0:0:
195,16,18475,2,0,L|191:80,1,45,10|2,1:2|0:2,0:0:0:0:
157,88,18775,2,0,L|161:152,1,45,8|2,1:2|1:2,0:0:0:0:
178,173,19075,2,0,L|174:237,1,45,10|2,1:2|1:2,0:0:0:0:
149,255,19375,5,8,0:2:0:0:
256,192,19525,12,4,20425,3:2:0:0:
66,20,21325,6,0,L|78:72,1,45,2|2,3:2|1:2,0:0:0:0:
116,159,21775,5,12,3:2:0:0:
116,159,21925,2,0,L|109:217,2,49.5000015106202,2|10|2,0:2|1:2|0:2,0:0:0:0:
149,122,22375,2,0,P|181:105|256:113,1,99.0000030212403,10|10,3:2|0:2,0:0:0:0:
278,140,22825,1,2,3:2:0:0:
241,234,23125,1,2,3:2:0:0:
241,234,23275,2,0,L|247:306,1,49.5000015106202,10|2,1:2|0:2,0:0:0:0:
271,325,23575,2,0,L|343:331,1,49.5000015106202,10|2,0:2|3:2,0:0:0:0:
358,360,23875,1,10,1:2:0:0:
426,289,24175,5,8,3:2:0:0:
426,289,24325,2,0,L|497:284,2,49.5000015106202,2|10|2,0:2|1:2|0:2,0:0:0:0:
389,255,24775,2,0,P|371:207|380:120,1,99.0000030212403,10|10,3:2|1:2,0:0:0:0:
402,122,25225,1,2,3:2:0:0:
345,48,25525,1,2,3:2:0:0:
345,48,25675,2,0,L|273:54,1,49.5000015106202,10|2,1:2|0:2,0:0:0:0:
245,23,25975,2,0,L|173:29,1,49.5000015106202,10|2,3:2|0:2,0:0:0:0:
148,63,26275,1,10,1:2:0:0:
83,138,26575,5,12,3:2:0:0:
83,138,26725,2,0,L|25:131,2,49.5000015106202,2|10|2,0:2|1:2|0:2,0:0:0:0:
111,178,27175,2,0,B|169:203|131:224|182:248,1,99.0000030212403,10|10,3:2|0:2,0:0:0:0:
224,228,27625,1,2,3:2:0:0:
320,267,27925,1,2,3:2:0:0:
320,267,28075,2,0,L|392:261,1,49.5000015106202,10|2,1:2|0:2,0:0:0:0:
411,236,28375,2,0,L|415:186,1,49.5000015106202,10|2,1:2|0:2,0:0:0:0:
445,147,28675,1,10,1:2:0:0:
396,60,28975,6,0,P|349:66|295:77,1,99.0000030212403,10|10,3:2|1:2,0:0:0:0:
254,52,29425,1,2,3:2:0:0:
254,52,29575,2,0,P|207:58|153:69,1,99.0000030212403,8|10,3:2|0:2,0:0:0:0:
109,52,30025,1,6,1:2:0:0:
47,129,30325,1,2,3:2:0:0:
47,129,30475,2,0,L|34:195,1,49.5000015106202,10|2,1:2|0:2,0:0:0:0:
67,217,30775,2,0,L|116:223,1,49.5000015106202,10|2,3:2|0:2,0:0:0:0:
161,204,31075,1,10,1:2:0:0:
258,240,31375,5,12,3:2:0:0:
258,240,31525,2,0,L|324:230,2,49.5000015106202,2|10|2,0:2|1:2|0:2,0:0:0:0:
219,271,31975,2,0,P|213:327|260:362,1,99.0000030212403,10|10,3:2|0:2,0:0:0:0:
288,367,32425,1,2,3:2:0:0:
387,345,32725,1,2,3:2:0:0:
387,345,32875,2,0,L|381:273,1,49.5000015106202,10|2,1:2|0:2,0:0:0:0:
412,245,33175,2,0,L|406:173,1,49.5000015106202,10|2,3:2|0:2,0:0:0:0:
372,148,33475,1,10,1:2:0:0:
430,69,33775,5,8,3:2:0:0:
430,69,33925,2,0,L|501:64,2,49.5000015106202,2|10|2,0:2|1:2|0:2,0:0:0:0:
383,53,34375,2,0,B|330:37|364:24|289:10,1,99.0000030212403,10|10,3:2|1:2,0:0:0:0:
255,41,34825,1,2,3:2:0:0:
172,93,35125,1,2,3:2:0:0:
172,93,35275,2,0,L|178:165,1,49.5000015106202,10|2,1:2|0:2,0:0:0:0:
190,190,35575,2,0,L|184:262,1,49.5000015106202,10|2,3:2|0:2,0:0:0:0:
162,283,35875,1,10,1:2:0:0:
79,335,36175,5,12,3:2:0:0:
79,335,36325,2,0,L|86:393,2,49.5000015106202,2|10|2,0:2|1:2|0:2,0:0:0:0:
55,290,36775,2,0,P|65:212|70:159,1,99.0000030212403,10|10,3:2|1:2,0:0:0:0:
95,151,37225,1,2,3:2:0:0:
172,93,37525,1,2,3:2:0:0:
172,93,37675,2,0,L|244:99,1,49.5000015106202,10|2,1:2|0:2,0:0:0:0:
256,62,37975,2,0,L|305:57,1,49.5000015106202,10|2,3:2|0:2,0:0:0:0:
341,92,38275,1,10,1:2:0:0:
387,179,38575,6,0,P|372:251|363:297,1,99.0000030212403,10|10,1:2|1:2,0:0:0:0:
344,320,39025,1,2,0:2:0:0:
344,320,39175,2,0,P|292:280|229:292,1,99.0000030212403,8|10,3:2|1:2,0:0:0:0:
220,307,39625,1,6,1:2:0:0:
153,241,39925,1,2,3:2:0:0:
153,241,40075,2,0,L|159:169,1,49.5000015106202,10|2,1:2|0:2,0:0:0:0:
196,161,40375,2,0,L|190:89,1,49.5000015106202,10|2,1:2|1:2,0:0:0:0:
160,73,40675,1,10,1:2:0:0:
71,54,40975,6,0,B|21:41|49:24|-15:5,2,90,6|8|0,3:2|1:2|3:0,0:0:0:0:
32,135,41875,2,0,P|41:161|45:201,1,45,10|2,0:2|3:2,0:0:0:0:
35,222,42175,2,0,P|82:232|127:250,1,90,0|8,0:0|1:2,0:0:0:0:
185,309,42775,2,0,P|227:293|271:283,1,90,0|10,3:0|1:2,0:0:0:0:
355,316,43375,6,0,P|402:348|437:320,1,90,2|10,3:2|1:2,0:0:0:0:
458,303,43825,2,0,P|469:249|478:209,2,90,2|2|2,0:2|1:2|3:2,0:0:0:0:
426,335,44575,1,0,0:0:0:0:
351,284,44875,1,8,1:2:0:0:
378,198,45175,1,0,3:0:0:0:
332,120,45475,1,8,1:2:0:0:
262,177,45775,6,0,P|221:184|160:200,1,90,2|10,3:2|1:2,0:0:0:0:
133,175,46225,2,0,P|141:112|142:68,2,90,2|2|2,3:2|3:2|3:2,0:0:0:0:
96,201,46975,1,0,0:0:0:0:
127,285,47275,2,0,L|185:275,2,45,8|0|0,1:2|3:0|3:0,0:0:0:0:
99,370,47875,1,10,1:2:0:0:
40,301,48175,6,0,P|19:246|28:211,1,90,6|10,3:2|1:2,0:0:0:0:
61,189,48625,2,0,P|79:130|87:71,1,90,2|2,0:2|3:2,0:0:0:0:
133,27,49225,2,0,P|176:32|209:62,1,90,6|2,3:2|3:2,0:0:0:0:
227,110,49675,1,10,1:2:0:0:
227,110,49825,2,0,P|262:130|335:124,1,90,2|2,3:2|1:2,0:0:0:0:
349,108,50275,1,0,1:0:0:0:
436,88,50575,6,0,P|433:48|426:-8,2,90,6|8|0,3:2|1:2|3:0,0:0:0:0:
484,164,51475,2,0,L|480:208,1,45,10|2,1:2|3:2,0:0:0:0:
449,241,51775,2,0,P|457:318|458:357,1,90,0|8,0:0|1:2,0:0:0:0:
378,373,52375,2,0,P|321:361|283:359,1,90,0|10,3:0|1:2,0:0:0:0:
209,317,52975,6,0,P|201:275|194:213,1,90,2|10,3:2|1:2,0:0:0:0:
218,189,53425,2,0,P|232:130|246:84,2,90,2|2|2,0:2|1:2|3:2,0:0:0:0:
195,228,54175,1,0,0:0:0:0:
108,201,54475,1,8,1:2:0:0:
30,246,54775,1,0,3:0:0:0:
23,335,55075,1,10,1:2:0:0:
101,379,55375,6,0,P|147:360|212:355,1,90,2|10,3:2|1:2,0:0:0:0:
223,329,55825,2,0,P|267:331|312:338,2,90,2|2|2,3:2|3:2|3:2,0:0:0:0:
207,286,56575,1,0,0:0:0:0:
250,206,56875,2,0,L|303:197,2,45,8|0|0,1:2|3:0|3:0,0:0:0:0:
208,126,57475,1,10,1:2:0:0:
275,66,57775,6,0,P|337:59|399:46,1,90,6|10,3:2|1:2,0:0:0:0:
407,66,58225,2,0,P|441:100|428:145,1,90,2|2,0:2|3:2,0:0:0:0:
383,211,58825,2,0,P|321:228|287:243,1,90,6|0,3:2|3:0,0:0:0:0:
273,276,59275,1,0,1:0:0:0:
195,229,59575,2,0,P|174:221|146:216,1,45,0|0,1:0|1:0,0:0:0:0:
115,190,59875,2,0,P|93:198|71:202,1,45,0|0,1:0|1:0,0:0:0:0:
30,183,60175,6,0,P|12:97|10:60,1,90,4|8,3:2|1:2,0:0:0:0:
80,37,60775,2,0,P|107:25|141:24,1,45,2|0,3:2|0:0,0:0:0:0:
167,45,61075,2,0,P|187:53|211:53,1,45,10|0,1:2|3:0,0:0:0:0:
247,28,61375,2,0,B|362:43|288:105|408:111,1,180,2|2,0:2|0:2,0:0:0:0:
437,191,62275,1,10,1:2:0:0:
375,256,62575,6,0,P|324:265|276:295,1,90,2|10,3:2|1:2,0:0:0:0:
211,321,63175,1,0,3:0:0:0:
211,321,63325,2,0,P|204:349|189:376,1,45,2|8,1:2|0:2,0:0:0:0:
152,364,63625,2,0,P|104:344|56:344,1,90,2|0,3:2|3:0,0:0:0:0:
25,360,64075,1,8,1:2:0:0:
7,271,64375,2,0,P|2:248|0:226,2,45,0|0|8,3:0|3:0|1:2,0:0:0:0:
66,342,64975,6,0,P|107:326|132:290,1,90,0|8,3:0|1:2,0:0:0:0:
205,237,65575,2,0,P|199:210|194:183,1,45,2|0,3:2|0:0,0:0:0:0:
226,159,65875,2,0,P|230:141|237:101,1,45,10|0,1:2|3:0,0:0:0:0:
224,71,66175,2,0,B|127:56|188:10|60:4,1,180,2|2,0:2|3:2,0:0:0:0:
14,80,67075,1,10,1:2:0:0:
62,156,67375,6,0,P|76:215|78:256,1,90,6|10,3:2|1:2,0:0:0:0:
109,276,67825,2,0,P|168:291|208:322,1,90,2|2,0:2|0:2,0:0:0:0:
271,349,68425,2,0,P|331:335|390:333,1,90,6|0,3:2|3:0,0:0:0:0:
400,350,68875,1,8,1:2:0:0:
468,291,69175,2,0,L|485:236,2,45,0|0|0,1:0|1:0|1:0,0:0:0:0:
400,350,69775,5,4,3:2:0:0:
337,285,70075,2,0,P|325:223|316:182,1,90,10|2,1:2|3:2,0:0:0:0:
289,162,70525,2,0,P|262:157|223:157,1,45,2|8,0:2|1:2,0:0:0:0:
197,193,70825,2,0,P|153:203|89:208,1,90,2|0,3:2|3:0,0:0:0:0:
67,188,71275,1,8,1:2:0:0:
17,112,71575,2,0,P|13:55|30:9,1,90,2|10,3:2|1:2,0:0:0:0:
109,1,72175,6,0,P|172:9|215:22,1,90,2|10,3:2|1:2,0:0:0:0:
230,46,72625,2,0,P|249:54|277:62,1,45,2|0,0:2|3:0,0:0:0:0:
302,94,72925,1,2,1:2:0:0:
368,33,73225,2,0,P|412:27|447:60,1,90,2|0,3:2|3:0,0:0:0:0:
438,99,73675,2,0,P|454:159|460:194,1,90,8|0,1:2|3:0,0:0:0:0:
448,233,74125,1,0,3:0:0:0:
448,233,74275,1,8,1:2:0:0:
366,193,74575,6,0,P|298:203|250:216,1,90,2|10,3:2|1:2,0:0:0:0:
237,187,75025,2,0,P|214:183|182:176,1,45,2|0,3:2|3:0,0:0:0:0:
158,148,75325,1,2,3:2:0:0:
69,165,75625,2,0,P|59:198|94:236,1,90,2|0,3:2|3:0,0:0:0:0:
120,272,76075,2,0,P|110:332|99:360,2,90,10|2|10,1:2|3:2|1:2,0:0:0:0:
209,261,76975,6,0,P|260:247|299:245,1,90,6|0,3:2|1:0,0:0:0:0:
386,255,77575,2,0,P|400:224|402:192,1,45,0|0,1:0|3:0,0:0:0:0:
387,170,77875,2,0,L|375:104,1,45,8|4,3:2|3:2,0:0:0:0:
407,43,78325,1,2,0:2:0:0:
407,43,78475,1,2,0:2:0:0:
144,84,79375,6,0,P|68:63|17:54,2,99.0000030212403,6|8|0,3:2|1:2|3:0,0:0:0:0:
176,121,80125,2,0,L|179:175,2,49.5000015106202,2|10|2,0:2|1:2|3:2,0:0:0:0:
251,56,80725,2,0,L|256:-4,2,49.5000015106202,2|10|2,0:2|1:2|3:2,0:0:0:0:
323,123,81325,2,0,L|329:181,2,49.5000015106202,2|10|2,3:2|1:2|3:2,0:0:0:0:
354,84,81775,6,0,P|410:68|467:72,1,99.0000030212403,0|8,3:2|1:2,0:0:0:0:
502,153,82375,2,0,P|518:225|504:264,1,99.0000030212403,0|8,3:0|0:2,0:0:0:0:
447,323,82975,1,0,0:0:0:0:
359,276,83275,1,8,1:2:0:0:
286,342,83575,2,0,P|228:350|183:358,1,99.0000030212403,2|10,3:2|1:2,0:0:0:0:
127,278,84175,6,0,P|83:269|26:263,2,99.0000030212403,2|8|0,3:2|1:2|3:0,0:0:0:0:
165,245,84925,2,0,L|160:187,2,49.5000015106202,2|10|2,0:2|1:2|3:2,0:0:0:0:
247,310,85525,1,2,0:2:0:0:
247,310,85675,2,0,L|309:299,1,49.5000015106202,10|2,1:2|3:2,0:0:0:0:
332,267,85975,2,0,L|391:278,1,49.5000015106202,2|2,0:2|3:2,0:0:0:0:
421,313,86275,1,10,1:2:0:0:
421,313,86425,1,2,3:2:0:0:
472,229,86725,5,2,0:2:0:0:
472,229,86875,2,0,P|481:173|498:119,2,99.0000030212403,6|2|2,1:2|0:2|1:2,0:0:0:0:
421,313,87775,1,0,0:0:0:0:
332,267,88075,1,0,1:0:0:0:
265,340,88375,2,0,P|211:346|162:360,1,99.0000030212403,2|2,1:2|1:2,0:0:0:0:
94,291,88975,6,0,P|36:270|-13:268,2,99.0000030212403,6|8|0,3:2|1:2|3:0,0:0:0:0:
138,268,89725,2,0,L|151:214,2,49.5000015106202,2|10|2,0:2|1:2|3:2,0:0:0:0:
235,288,90325,2,0,L|246:336,2,49.5000015106202,2|10|2,0:2|1:2|3:2,0:0:0:0:
328,254,90925,2,0,L|334:196,1,49.5000015106202,2|10,3:2|1:2,0:0:0:0:
369,171,91225,1,2,3:2:0:0:
369,171,91375,6,0,P|358:124|351:73,1,99.0000030212403,0|8,3:2|1:2,0:0:0:0:
258,38,91975,2,0,P|193:53|144:56,1,99.0000030212403,0|8,3:0|0:2,0:0:0:0:
94,128,92575,1,0,0:0:0:0:
120,223,92875,1,8,1:2:0:0:
215,197,93175,2,0,P|275:208|316:221,1,99.0000030212403,2|10,3:2|1:2,0:0:0:0:
404,185,93775,6,0,P|425:136|434:82,2,99.0000030212403,2|8|0,3:2|1:2|3:0,0:0:0:0:
359,210,94525,2,0,L|300:221,2,49.5000015106202,2|10|2,0:2|1:2|3:2,0:0:0:0:
429,287,95125,1,2,0:2:0:0:
429,287,95275,2,0,L|434:345,1,49.5000015106202,10|2,1:2|3:2,0:0:0:0:
387,355,95575,2,0,L|326:367,1,49.5000015106202,2|2,0:2|3:2,0:0:0:0:
296,350,95875,1,10,1:2:0:0:
296,350,96025,1,2,3:2:0:0:
268,260,96325,5,2,0:2:0:0:
268,260,96475,2,0,P|175:238|149:236,2,99.0000030212403,0|0|4,1:0|1:0|0:3,0:0:0:0:
307,237,97225,1,4,3:2:0:0:
378,168,97525,2,0,L|434:182,2,49.5000015106202,2|2|2,1:2|3:2|3:2,0:0:0:0:
322,86,98125,2,0,L|370:75,2,49.5000015106202,2|2|2,3:2|1:2|3:2,0:0:0:0:
284,116,98575,5,12,3:2:0:0:
284,116,98725,2,0,L|277:174,2,49.5000015106202,2|10|2,0:2|1:2|0:2,0:0:0:0:
244,86,99175,2,0,P|195:81|150:101,1,99.0000030212403,10|10,3:2|0:2,0:0:0:0:
133,147,99625,1,2,3:2:0:0:
83,234,99925,1,2,3:2:0:0:
83,234,100075,2,0,L|89:306,1,49.5000015106202,10|2,1:2|0:2,0:0:0:0:
123,317,100375,2,0,L|195:323,1,49.5000015106202,10|2,0:2|3:2,0:0:0:0:
213,349,100675,1,10,1:2:0:0:
294,291,100975,5,8,3:2:0:0:
294,291,101125,2,0,L|365:286,2,49.5000015106202,2|10|2,0:2|1:2|0:2,0:0:0:0:
257,257,101575,2,0,P|239:209|248:122,1,99.0000030212403,10|10,3:2|1:2,0:0:0:0:
281,137,102025,1,2,3:2:0:0:
236,55,102325,1,2,3:2:0:0:
236,55,102475,2,0,L|164:61,1,49.5000015106202,10|2,1:2|0:2,0:0:0:0:
136,30,102775,2,0,L|64:36,1,49.5000015106202,10|2,3:2|0:2,0:0:0:0:
39,70,103075,1,10,1:2:0:0:
48,172,103375,5,12,3:2:0:0:
48,172,103525,2,0,L|-10:165,2,49.5000015106202,2|10|2,0:2|1:2|0:2,0:0:0:0:
96,160,103975,2,0,B|154:185|116:206|167:230,1,99.0000030212403,10|10,3:2|0:2,0:0:0:0:
202,258,104425,1,2,3:2:0:0:
290,211,104725,1,2,3:2:0:0:
290,211,104875,2,0,L|362:205,1,49.5000015106202,10|2,1:2|0:2,0:0:0:0:
381,180,105175,2,0,L|385:130,1,49.5000015106202,10|2,1:2|0:2,0:0:0:0:
415,91,105475,1,10,1:2:0:0:
364,5,105775,6,0,P|317:11|263:22,1,99.0000030212403,10|10,3:2|1:2,0:0:0:0:
233,58,106225,1,2,3:2:0:0:
233,58,106375,2,0,P|186:64|132:75,1,99.0000030212403,8|10,3:2|0:2,0:0:0:0:
94,101,106825,1,6,1:2:0:0:
48,189,107125,6,0,P|27:181|-4:173,2,49.5000015106202,2|10|2,3:2|1:2|0:2,0:0:0:0:
109,266,107725,2,0,P|91:288|75:327,2,49.5000015106202,2|10|2,0:2|1:2|0:2,0:0:0:0:
151,238,108175,5,12,3:2:0:0:
151,238,108325,2,0,L|159:172,2,49.5000015106202,2|10|2,0:2|1:2|0:2,0:0:0:0:
191,267,108775,2,0,P|239:271|301:287,1,99.0000030212403,10|10,3:2|0:2,0:0:0:0:
315,324,109225,1,2,3:2:0:0:
406,281,109525,1,2,3:2:0:0:
406,281,109675,2,0,L|400:209,1,49.5000015106202,10|2,1:2|0:2,0:0:0:0:
364,199,109975,2,0,L|358:127,1,49.5000015106202,10|2,3:2|0:2,0:0:0:0:
387,108,110275,1,10,1:2:0:0:
423,18,110575,5,8,3:2:0:0:
423,18,110725,2,0,L|494:13,2,49.5000015106202,2|10|2,0:2|1:2|0:2,0:0:0:0:
374,7,111175,2,0,B|305:19|339:32|286:48,1,99.0000030212403,10|10,3:2|1:2,0:0:0:0:
240,29,111625,1,2,3:2:0:0:
147,55,111925,1,2,3:2:0:0:
147,55,112075,2,0,L|153:127,1,49.5000015106202,10|2,1:2|0:2,0:0:0:0:
165,152,112375,2,0,L|159:224,1,49.5000015106202,10|2,3:2|0:2,0:0:0:0:
137,245,112675,1,10,1:2:0:0:
225,300,112975,5,12,3:2:0:0:
225,300,113125,2,0,L|232:358,2,49.5000015106202,2|10|2,0:2|1:2|0:2,0:0:0:0:
265,271,113575,2,0,P|275:193|280:140,1,99.0000030212403,10|10,3:2|1:2,0:0:0:0:
250,131,114025,1,2,3:2:0:0:
330,71,114325,1,2,3:2:0:0:
330,71,114475,2,0,L|402:77,1,49.5000015106202,10|2,1:2|0:2,0:0:0:0:
414,40,114775,2,0,L|463:35,1,49.5000015106202,10|2,3:2|0:2,0:0:0:0:
499,70,115075,1,10,1:2:0:0:
450,156,115375,6,0,P|435:228|426:274,1,99.0000030212403,10|10,1:2|1:2,0:0:0:0:
392,285,115825,1,2,0:2:0:0:
392,285,115975,2,0,P|340:245|277:257,1,99.0000030212403,8|10,3:2|1:2,0:0:0:0:
271,277,116425,1,6,1:2:0:0:
200,215,116725,1,2,3:2:0:0:
200,215,116875,2,0,L|206:143,1,49.5000015106202,10|2,1:2|0:2,0:0:0:0:
243,135,117175,2,0,L|237:63,1,49.5000015106202,10|2,1:2|1:2,0:0:0:0:
207,47,117475,1,10,1:2:0:0:
118,61,117775,6,0,P|74:40|26:34,2,90,6|8|0,3:2|1:2|3:0,0:0:0:0:
73,139,118675,2,0,P|82:165|86:205,1,45,10|2,1:2|3:2,0:0:0:0:
95,225,118975,2,0,P|142:235|187:253,1,90,0|8,0:0|1:2,0:0:0:0:
243,314,119575,2,0,P|285:298|329:288,1,90,0|10,3:0|1:2,0:0:0:0:
404,337,120175,6,0,P|447:334|474:285,1,90,2|10,3:2|1:2,0:0:0:0:
460,254,120625,2,0,P|471:200|480:160,2,90,2|2|2,0:2|1:2|3:2,0:0:0:0:
472,298,121375,1,0,0:0:0:0:
390,335,121675,1,8,1:2:0:0:
322,275,121975,1,0,3:0:0:0:
347,188,122275,1,8,1:2:0:0:
289,118,122575,6,0,P|248:125|187:141,1,90,2|10,3:2|1:2,0:0:0:0:
160,117,123025,2,0,P|168:54|169:10,2,90,2|2|2,3:2|3:2|3:2,0:0:0:0:
121,141,123775,1,0,0:0:0:0:
170,216,124075,2,0,L|214:223,2,45,8|0|0,1:2|3:0|3:0,0:0:0:0:
102,275,124675,1,10,1:2:0:0:
30,220,124975,6,0,P|9:165|18:130,1,90,6|10,3:2|1:2,0:0:0:0:
57,120,125425,2,0,P|75:61|83:2,1,90,2|2,0:2|3:2,0:0:0:0:
168,18,126025,2,0,P|211:23|244:53,1,90,6|2,3:2|3:2,0:0:0:0:
257,102,126475,1,10,1:2:0:0:
257,102,126625,2,0,P|292:122|365:116,1,90,2|2,3:2|1:2,0:0:0:0:
379,100,127075,1,0,1:0:0:0:
468,88,127375,6,0,P|465:48|458:-8,2,90,6|8|0,3:2|1:2|3:0,0:0:0:0:
480,177,128275,2,0,L|476:221,1,45,10|2,1:2|3:2,0:0:0:0:
447,256,128575,2,0,P|455:333|456:372,1,90,0|8,0:0|1:2,0:0:0:0:
367,364,129175,2,0,P|310:352|272:350,1,90,0|10,3:0|1:2,0:0:0:0:
197,309,129775,6,0,P|189:267|182:205,1,90,2|10,3:2|1:2,0:0:0:0:
218,189,130225,2,0,P|233:150|286:141,2,90,2|2|2,0:2|1:2|3:2,0:0:0:0:
183,220,130975,1,0,0:0:0:0:
97,191,131275,1,8,1:2:0:0:
15,229,131575,1,0,3:0:0:0:
10,318,131875,1,10,1:2:0:0:
85,367,132175,6,0,P|131:348|196:343,1,90,2|10,3:2|1:2,0:0:0:0:
200,308,132625,2,0,P|244:310|289:317,2,90,2|2|2,3:2|3:2|3:2,0:0:0:0:
183,265,133375,1,0,0:0:0:0:
237,193,133675,2,0,L|290:184,2,45,8|0|0,1:2|3:0|3:0,0:0:0:0:
196,112,134275,1,10,1:2:0:0:
257,45,134575,6,0,P|319:38|373:14,1,90,6|10,3:2|1:2,0:0:0:0:
388,41,135025,2,0,P|422:75|409:120,1,90,2|2,0:2|3:2,0:0:0:0:
367,189,135625,2,0,P|305:206|271:221,1,90,6|0,3:2|3:0,0:0:0:0:
256,253,136075,1,0,1:0:0:0:
193,188,136375,2,0,P|172:180|144:175,1,45,2|0,1:2|1:0,0:0:0:0:
112,200,136675,2,0,P|90:208|68:212,1,45,0|0,1:0|1:0,0:0:0:0:
28,191,136975,6,0,P|10:105|8:68,1,90,4|8,3:2|1:2,0:0:0:0:
71,37,137575,2,0,P|98:25|132:24,1,45,2|0,3:2|0:0,0:0:0:0:
148,51,137875,2,0,P|168:59|192:59,1,45,10|0,1:2|3:0,0:0:0:0:
226,87,138175,2,0,P|310:82|405:60,1,180,2|2,0:2|0:2,0:0:0:0:
458,131,139075,1,10,1:2:0:0:
405,203,139375,6,0,P|354:212|306:242,1,90,2|10,3:2|1:2,0:0:0:0:
275,309,139975,1,2,3:2:0:0:
275,309,140125,2,0,P|268:337|253:364,1,45,2|8,1:2|0:2,0:0:0:0:
218,367,140425,2,0,P|170:347|122:347,1,90,2|0,3:2|3:0,0:0:0:0:
92,366,140875,1,8,1:2:0:0:
39,292,141175,2,0,P|34:269|32:247,2,45,0|0|8,3:0|3:0|1:2,0:0:0:0:
92,366,141775,6,0,P|133:350|158:314,1,90,0|8,3:0|1:2,0:0:0:0:
158,222,142375,2,0,P|152:195|147:168,1,45,2|0,3:2|0:0,0:0:0:0:
184,150,142675,2,0,P|188:132|195:92,1,45,10|0,1:2|3:0,0:0:0:0:
169,67,142975,2,0,B|72:52|133:6|5:0,1,180,2|2,0:2|3:2,0:0:0:0:
34,86,143875,1,10,1:2:0:0:
95,151,144175,6,0,P|109:210|111:251,1,90,6|10,3:2|1:2,0:0:0:0:
129,280,144625,2,0,P|188:295|228:326,1,90,2|2,0:2|0:2,0:0:0:0:
289,356,145225,2,0,P|349:342|408:340,1,90,6|0,3:2|3:0,0:0:0:0:
417,359,145675,1,8,1:2:0:0:
461,280,145975,2,0,L|478:225,2,45,0|0|0,1:0|1:0|1:0,0:0:0:0:
417,359,146575,5,4,3:2:0:0:
364,286,146875,2,0,P|352:224|359:183,1,90,10|2,1:2|3:2,0:0:0:0:
334,157,147325,2,0,P|306:149|268:152,1,45,2|8,0:2|1:2,0:0:0:0:
255,177,147625,2,0,P|211:187|147:192,1,90,2|0,3:2|3:0,0:0:0:0:
133,222,148075,1,8,1:2:0:0:
72,155,148375,2,0,P|68:98|85:52,1,90,2|10,3:2|1:2,0:0:0:0:
151,16,148975,6,0,P|214:24|257:37,1,90,2|10,3:2|1:2,0:0:0:0:
262,69,149425,2,0,P|281:77|309:85,1,45,2|0,0:2|3:0,0:0:0:0:
341,110,149725,1,2,1:2:0:0:
415,58,150025,2,0,P|447:91|434:142,1,90,2|0,3:2|3:0,0:0:0:0:
433,175,150475,2,0,P|449:235|455:270,1,90,8|0,1:2|3:0,0:0:0:0:
454,311,150925,1,0,3:0:0:0:
454,311,151075,1,8,1:2:0:0:
372,272,151375,6,0,P|304:282|256:295,1,90,2|10,3:2|1:2,0:0:0:0:
244,309,151825,2,0,P|221:305|189:298,1,45,2|0,3:2|3:0,0:0:0:0:
160,278,152125,1,2,3:2:0:0:
89,334,152425,2,0,P|57:313|51:262,1,90,2|0,3:2|3:0,0:0:0:0:
19,231,152875,2,0,P|4:188|-1:144,2,90,10|2|10,1:2|3:2|1:2,0:0:0:0:
102,199,153775,6,0,P|153:185|192:183,1,90,6|0,3:2|1:0,0:0:0:0:
280,213,154375,2,0,P|294:182|296:150,1,45,0|0,1:0|3:0,0:0:0:0:
278,129,154675,2,0,L|266:63,1,45,8|4,3:2|3:2,0:0:0:0:
331,18,155125,2,0,L|407:8,1,45,2|8,0:2|0:2,0:0:0:0:
385,308,156175,6,0,P|461:329|512:338,2,99.0000030212403,6|8|0,3:2|1:2|3:0,0:0:0:0:
349,272,156925,2,0,P|338:244|346:218,2,49.5000015106202,2|10|2,0:2|1:2|3:2,0:0:0:0:
263,321,157525,2,0,P|269:347|258:381,2,49.5000015106202,2|10|2,0:2|1:2|3:2,0:0:0:0:
189,261,158125,2,0,L|199:205,2,49.5000015106202,2|10|2,3:2|1:2|3:2,0:0:0:0:
156,298,158575,6,0,P|100:314|43:310,1,99.0000030212403,0|8,3:2|1:2,0:0:0:0:
10,231,159175,2,0,P|17:171|21:130,1,99.0000030212403,0|8,3:0|0:2,0:0:0:0:
65,44,159775,1,0,0:0:0:0:
144,103,160075,1,8,1:2:0:0:
224,45,160375,2,0,P|282:37|327:29,1,99.0000030212403,2|10,3:2|1:2,0:0:0:0:
393,99,160975,6,0,P|437:108|494:114,2,99.0000030212403,2|8|0,3:2|1:2|3:0,0:0:0:0:
362,138,161725,2,0,L|367:196,2,49.5000015106202,2|10|2,0:2|1:2|3:2,0:0:0:0:
288,80,162325,1,2,0:2:0:0:
288,80,162475,2,0,L|226:91,1,49.5000015106202,10|2,1:2|3:2,0:0:0:0:
203,123,162775,2,0,L|144:112,1,49.5000015106202,2|2,0:2|3:2,0:0:0:0:
122,83,163075,1,10,1:2:0:0:
122,83,163225,1,2,3:2:0:0:
58,159,163525,5,2,0:2:0:0:
58,159,163675,2,0,P|49:215|32:269,2,99.0000030212403,6|2|2,1:2|0:2|1:2,0:0:0:0:
122,83,164575,1,0,0:0:0:0:
211,125,164875,1,0,1:0:0:0:
266,42,165175,2,0,P|320:36|369:22,1,99.0000030212403,2|2,1:2|1:2,0:0:0:0:
413,109,165775,6,0,P|471:130|520:132,2,99.0000030212403,6|8|0,3:2|1:2|3:0,0:0:0:0:
382,148,166525,2,0,P|366:171|369:202,2,49.5000015106202,2|10|2,0:2|1:2|3:2,0:0:0:0:
306,83,167125,2,0,P|304:56|295:35,2,49.5000015106202,2|10|2,0:2|1:2|3:2,0:0:0:0:
224,139,167725,2,0,L|218:203,1,49.5000015106202,2|10,3:2|1:2,0:0:0:0:
191,229,168025,1,2,3:2:0:0:
191,229,168175,6,0,P|202:276|209:327,1,99.0000030212403,0|8,3:2|1:2,0:0:0:0:
301,362,168775,2,0,P|366:347|415:344,1,99.0000030212403,0|8,3:0|0:2,0:0:0:0:
465,272,169375,1,0,0:0:0:0:
440,175,169675,1,8,1:2:0:0:
351,218,169975,2,0,P|291:207|250:194,1,99.0000030212403,2|10,3:2|1:2,0:0:0:0:
161,230,170575,6,0,P|140:279|131:333,2,99.0000030212403,2|8|0,3:2|1:2|3:0,0:0:0:0:
206,205,171325,2,0,L|265:194,2,49.5000015106202,2|10|2,0:2|1:2|3:2,0:0:0:0:
171,117,171925,1,2,0:2:0:0:
171,117,172075,2,0,L|166:59,1,49.5000015106202,10|2,1:2|3:2,0:0:0:0:
213,49,172375,2,0,L|274:37,1,49.5000015106202,2|2,0:2|3:2,0:0:0:0:
304,54,172675,1,10,1:2:0:0:
304,54,172825,1,2,3:2:0:0:
384,120,173125,5,2,0:2:0:0:
384,120,173275,2,0,P|477:142|503:144,2,99.0000030212403,0|0|4,1:0|1:0|0:3,0:0:0:0:
341,145,174025,1,4,3:2:0:0:
270,214,174325,2,0,L|214:200,2,49.5000015106202,2|2|2,1:2|3:2|3:2,0:0:0:0:
332,291,174925,2,0,L|380:280,2,49.5000015106202,2|2|2,3:2|1:2|3:2,0:0:0:0:
292,321,175375,6,0,P|256:328|223:349,1,49.5000015106202,4|0,3:2|0:0,0:0:0:0:
198,315,175675,1,8,1:2:0:0:
105,280,175975,2,0,L|85:200,1,49.5000015106202,10|2,3:2|1:2,0:0:0:0:
115,187,176275,1,10,0:2:0:0:
64,101,176575,1,10,0:2:0:0:
135,32,176875,6,0,L|199:43,2,49.5000015106202,10|2|8,1:2|0:2|3:2,0:0:0:0:
107,0,177325,1,8,3:2:0:0:
107,0,177475,1,8,1:2:0:0:
39,72,177775,2,0,P|16:99|42:168,1,99.0000030212403,10|10,3:2|1:2,0:0:0:0:
74,175,178225,2,0,P|159:192|209:203,1,99.0000030212403,2|2,0:2|1:2,0:0:0:0:
201,234,178675,1,8,1:2:0:0:
201,234,178825,1,2,3:2:0:0:
286,183,179125,2,0,L|351:170,1,49.5000015106202,0|8,3:0|1:2,0:0:0:0:
428,143,179575,2,0,L|444:91,1,49.5000015106202,8|0,3:2|3:0,0:0:0:0:
423,49,179875,1,8,1:2:0:0:
324,45,180175,6,0,P|311:23|314:-6,2,49.5000015106202,4|0|8,3:2|0:0|1:2,0:0:0:0:
243,103,180775,2,0,P|209:108|175:120,1,49.5000015106202,10|2,3:2|1:2,0:0:0:0:
158,146,181075,1,10,0:2:0:0:
64,113,181375,1,10,0:2:0:0:
39,208,181675,2,0,P|47:236|58:272,1,49.5000015106202,10|2,1:2|0:2,0:0:0:0:
89,288,181975,2,0,P|106:294|138:311,2,49.5000015106202,8|0|8,1:2|3:0|1:2,0:0:0:0:
165,224,182575,6,0,P|233:210|268:207,1,99.0000030212403,14|10,3:2|1:2,0:0:0:0:
293,245,183025,2,0,P|358:258|407:273,1,99.0000030212403,2|2,0:2|1:2,0:0:0:0:
464,202,183625,1,6,1:2:0:0:
396,129,183925,2,0,L|389:78,1,49.5000015106202,0|8,3:0|1:2,0:0:0:0:
314,14,184375,1,8,3:2:0:0:
246,86,184675,1,8,1:2:0:0:
159,38,184975,6,0,P|99:51|61:60,1,99.0000030212403,6|10,3:2|1:2,0:0:0:0:
19,84,185425,2,0,P|10:150|44:181,1,99.0000030212403,2|2,0:2|1:2,0:0:0:0:
113,221,186025,2,0,P|195:205|247:203,1,99.0000030212403,2|0,3:2|3:0,0:0:0:0:
254,225,186475,1,8,1:2:0:0:
336,170,186775,1,8,3:2:0:0:
278,89,187075,2,0,L|287:37,1,49.5000015106202,10|2,1:2|0:2,0:0:0:0:
323,7,187375,5,10,3:2:0:0:
411,52,187675,1,10,1:2:0:0:
411,52,187825,1,2,0:2:0:0:
500,93,188125,2,0,P|502:118|487:154,1,49.5000015106202,2|8,1:2|1:2,0:0:0:0:
459,175,188425,1,2,3:2:0:0:
489,269,188725,1,0,3:0:0:0:
489,269,188875,1,8,1:2:0:0:
404,320,189175,2,0,P|374:313|337:301,1,49.5000015106202,8|0,3:2|3:0,0:0:0:0:
326,267,189475,1,8,1:2:0:0:
246,325,189775,6,0,P|124:350|120:351,1,99.0000030212403,6|10,3:2|1:2,0:0:0:0:
99,337,190225,2,0,P|70:300|89:248,1,99.0000030212403,2|2,0:2|1:2,0:0:0:0:
130,240,190675,1,8,1:2:0:0:
130,240,190825,2,0,L|141:157,1,49.5000015106202,2|8,3:2|0:2,0:0:0:0:
119,93,191275,1,10,1:2:0:0:
197,32,191575,1,10,3:2:0:0:
283,80,191875,1,10,1:2:0:0:
366,26,192175,6,0,L|426:36,1,49.5000015106202,4|8,0:2|0:2,0:0:0:0:
459,54,192475,2,0,P|483:105|445:175,1,99.0000030212403,8|8,3:2|1:2,0:0:0:0:
438,179,192925,1,8,1:2:0:0:
438,179,193075,2,0,L|370:190,1,49.5000015106202,8|8,1:2|1:2,0:0:0:0:
218,366,193975,1,2,1:2:0:0:
218,366,194125,2,0,P|221:302|230:253,1,99.0000030212403,0|0,1:0|1:0,0:0:0:0:
266,238,194575,6,0,P|342:259|393:268,2,99.0000030212403,6|8|0,3:2|1:2|3:0,0:0:0:0:
243,193,195325,2,0,L|240:139,2,49.5000015106202,2|10|2,0:2|1:2|3:2,0:0:0:0:
154,237,195925,2,0,L|149:297,2,49.5000015106202,2|10|2,0:2|1:2|3:2,0:0:0:0:
70,182,196525,2,0,L|64:124,2,49.5000015106202,2|10|2,3:2|1:2|3:2,0:0:0:0:
29,210,196975,6,0,P|45:266|41:323,1,99.0000030212403,0|8,3:2|1:2,0:0:0:0:
121,367,197575,2,0,P|169:373|215:357,1,99.0000030212403,0|8,3:0|0:2,0:0:0:0:
285,287,198175,1,0,0:0:0:0:
240,198,198475,1,8,1:2:0:0:
310,127,198775,2,0,P|368:119|413:111,1,99.0000030212403,2|10,3:2|1:2,0:0:0:0:
404,12,199375,6,0,P|448:21|505:27,2,99.0000030212403,2|8|0,3:2|1:2|3:0,0:0:0:0:
359,34,200125,2,0,L|364:92,2,49.5000015106202,2|10|2,0:2|1:2|3:2,0:0:0:0:
266,15,200725,1,2,0:2:0:0:
266,15,200875,2,0,L|204:26,1,49.5000015106202,10|2,1:2|3:2,0:0:0:0:
181,58,201175,2,0,L|122:47,1,49.5000015106202,2|2,0:2|3:2,0:0:0:0:
88,67,201475,1,10,1:2:0:0:
88,67,201625,1,2,3:2:0:0:
48,160,201925,5,2,0:2:0:0:
48,160,202075,2,0,P|39:216|22:270,2,99.0000030212403,6|2|2,1:2|0:2|1:2,0:0:0:0:
88,67,202975,1,0,0:0:0:0:
171,120,203275,1,0,1:0:0:0:
244,53,203575,2,0,P|298:47|347:33,1,99.0000030212403,2|2,1:2|1:2,0:0:0:0:
413,103,204175,6,0,P|471:124|520:126,2,99.0000030212403,6|8|0,3:2|1:2|3:0,0:0:0:0:
369,127,204925,2,0,L|356:181,2,49.5000015106202,2|10|2,0:2|1:2|3:2,0:0:0:0:
275,92,205525,2,0,L|264:44,2,49.5000015106202,2|10|2,0:2|1:2|3:2,0:0:0:0:
191,144,206125,2,0,L|185:202,1,49.5000015106202,2|10,3:2|1:2,0:0:0:0:
166,241,206425,1,2,3:2:0:0:
166,241,206575,6,0,P|177:288|184:339,1,99.0000030212403,0|8,3:2|1:2,0:0:0:0:
277,371,207175,2,0,P|342:356|391:353,1,99.0000030212403,0|8,3:0|0:2,0:0:0:0:
444,283,207775,1,0,0:0:0:0:
374,212,208075,1,8,1:2:0:0:
454,154,208375,2,0,P|465:94|478:53,1,99.0000030212403,2|10,3:2|1:2,0:0:0:0:
381,28,208975,6,0,P|332:7|278:-2,2,99.0000030212403,2|8|0,3:2|1:2|3:0,0:0:0:0:
392,76,209725,2,0,L|401:124,2,49.5000015106202,2|10|2,0:2|1:2|3:2,0:0:0:0:
297,93,210325,1,2,0:2:0:0:
297,93,210475,2,0,L|239:98,1,49.5000015106202,10|2,1:2|3:2,0:0:0:0:
208,128,210775,2,0,L|147:116,1,49.5000015106202,2|2,0:2|3:2,0:0:0:0:
117,133,211075,1,10,1:2:0:0:
117,133,211225,1,2,3:2:0:0:
58,213,211525,5,2,0:2:0:0:
58,213,211675,2,0,P|80:306|82:332,2,99.0000030212403,0|0|4,1:0|1:0|0:3,0:0:0:0:
22,178,212425,1,4,3:2:0:0:
256,192,212575,12,0,216175,0:0:0:0:
0,335,217375,5,12,3:2:0:0:
0,335,217525,2,0,L|7:393,2,49.5000015106202,2|10|2,0:2|1:2|0:2,0:0:0:0:
39,305,217975,2,0,P|85:294|157:284,1,99.0000030212403,10|10,3:2|0:2,0:0:0:0:
180,308,218425,1,2,3:2:0:0:
266,257,218725,1,2,3:2:0:0:
266,257,218875,2,0,L|338:263,1,49.5000015106202,10|2,1:2|0:2,0:0:0:0:
347,298,219175,2,0,L|396:302,1,49.5000015106202,10|2,0:2|3:2,0:0:0:0:
440,325,219475,1,10,1:2:0:0:
458,231,219775,5,8,3:2:0:0:
458,231,219925,2,0,L|529:226,2,49.5000015106202,2|10|2,0:2|1:2|0:2,0:0:0:0:
419,199,220375,2,0,P|401:151|419:97,1,99.0000030212403,10|10,3:2|1:2,0:0:0:0:
451,75,220825,1,2,3:2:0:0:
373,23,221125,1,2,3:2:0:0:
373,23,221275,2,0,L|301:29,1,49.5000015106202,10|2,1:2|0:2,0:0:0:0:
273,0,221575,2,0,L|201:6,1,49.5000015106202,10|2,3:2|0:2,0:0:0:0:
176,38,221875,1,10,1:2:0:0:
84,68,222175,5,12,3:2:0:0:
84,68,222325,2,0,P|63:41|39:32,2,49.5000015106202,2|10|2,0:2|1:2|0:2,0:0:0:0:
94,116,222775,2,0,B|87:179|124:156|119:212,1,99.0000030212403,10|10,3:2|0:2,0:0:0:0:
86,245,223225,1,2,3:2:0:0:
157,321,223525,1,2,3:2:0:0:
157,321,223675,2,0,L|229:315,1,49.5000015106202,10|2,1:2|0:2,0:0:0:0:
251,296,223975,2,0,L|301:300,1,49.5000015106202,10|2,1:2|0:2,0:0:0:0:
340,330,224275,1,10,1:2:0:0:
393,246,224575,6,0,P|440:240|471:200,1,99.0000030212403,10|10,3:2|1:2,0:0:0:0:
506,167,225025,1,2,3:2:0:0:
506,167,225175,2,0,P|500:120|489:66,1,99.0000030212403,8|10,3:2|0:2,0:0:0:0:
463,28,225625,1,6,1:2:0:0:
364,41,225925,6,0,P|343:33|312:25,2,49.5000015106202,2|10|2,3:2|1:2|0:2,0:0:0:0:
303,119,226525,2,0,P|276:129|243:154,2,49.5000015106202,2|10|2,0:2|1:2|0:2,0:0:0:0:
348,150,226975,5,12,3:2:0:0:
348,150,227125,2,0,L|414:160,2,49.5000015106202,2|10|2,0:2|1:2|0:2,0:0:0:0:
334,197,227575,2,0,P|328:253|375:288,1,99.0000030212403,10|10,3:2|0:2,0:0:0:0:
400,301,228025,1,2,3:2:0:0:
318,354,228325,1,2,3:2:0:0:
318,354,228475,2,0,L|246:360,1,49.5000015106202,10|2,1:2|0:2,0:0:0:0:
218,329,228775,2,0,L|146:335,1,49.5000015106202,10|2,3:2|0:2,0:0:0:0:
121,369,229075,1,10,1:2:0:0:
48,310,229375,5,8,3:2:0:0:
48,310,229525,2,0,L|-23:315,2,49.5000015106202,2|10|2,0:2|1:2|0:2,0:0:0:0:
79,271,229975,2,0,B|95:218|120:241|122:177,1,99.0000030212403,10|10,3:2|1:2,0:0:0:0:
106,137,230425,1,2,3:2:0:0:
140,46,230725,1,2,3:2:0:0:
140,46,230875,2,0,L|212:40,1,49.5000015106202,10|2,1:2|0:2,0:0:0:0:
237,28,231175,2,0,L|309:34,1,49.5000015106202,10|2,3:2|0:2,0:0:0:0:
314,72,231475,1,10,1:2:0:0:
413,103,231775,5,12,3:2:0:0:
413,103,231925,2,0,L|406:45,2,49.5000015106202,2|10|2,0:2|1:2|0:2,0:0:0:0:
373,132,232375,2,0,P|363:210|358:263,1,99.0000030212403,10|10,3:2|1:2,0:0:0:0:
325,264,232825,1,2,3:2:0:0:
250,328,233125,1,2,3:2:0:0:
250,328,233275,2,0,L|178:322,1,49.5000015106202,10|2,1:2|0:2,0:0:0:0:
166,359,233575,2,0,L|117:364,1,49.5000015106202,10|2,3:2|0:2,0:0:0:0:
81,329,233875,1,10,1:2:0:0:
32,242,234175,6,0,P|47:170|56:124,1,99.0000030212403,10|10,1:2|1:2,0:0:0:0:
37,103,234625,1,2,0:2:0:0:
37,103,234775,2,0,P|89:63|152:75,1,99.0000030212403,8|10,3:2|1:2,0:0:0:0:
163,86,235225,1,6,1:2:0:0:
200,183,235525,1,2,3:2:0:0:
200,183,235675,2,0,L|272:189,1,49.5000015106202,10|2,1:2|0:2,0:0:0:0:
280,226,235975,2,0,L|352:220,1,49.5000015106202,8|2,1:2|1:2,0:0:0:0:
368,190,236275,2,0,P|370:150|377:105,1,74.2500022659302,10|0,1:2|1:0,0:0:0:0:
