osu file format v14

[General]
AudioFilename: audio.mp3
AudioLeadIn: 0
PreviewTime: 44681
Countdown: 0
SampleSet: Soft
StackLeniency: 0.4
Mode: 0
LetterboxInBreaks: 0
WidescreenStoryboard: 1

[Editor]
Bookmarks: 35027
DistanceSpacing: 0.1
BeatDivisor: 4
GridSize: 32
TimelineZoom: 1.7

[Metadata]
Title:Absolute Secret (ED Ver.)
TitleUnicode:Absolute Secret (ED Ver.)
Artist:Kyaru (CV: Tachibana Rika)
ArtistUnicode:キャル (CV: 立花理香)
Creator:PikAqours
Version:suyuko's Expert
Source:プリンセスコネクト!Re:Dive
Tags:Princess Connect! Re Dive プリコネR Priconne Karyl Japanese Video Game Ending Short Version Cygames TheSea NoFC Suyuko Log Off Now Lon Wanpachi Cycopton Elinor [_Eli_] StarCastler anime pop rock j-pop j-rock redive ed gacha purikone ORIGINAL SOUNDTRACK VOL.2 Lost ~ようこそ美食殿へ!~ ~yōkoso bishoku dono e!~ youkoso mobile
BeatmapID:2521163
BeatmapSetID:1187485

[Difficulty]
HPDrainRate:5
CircleSize:3.6
OverallDifficulty:8.5
ApproachRate:9.1
SliderMultiplier:1.7
SliderTickRate:1

[Events]
//Background and Video events
0,0,"bglucawa.jpg",0,0
//Break Periods
//Storyboard Layer 0 (Background)
//Storyboard Layer 1 (Fail)
//Storyboard Layer 2 (Pass)
//Storyboard Layer 3 (Foreground)
//Storyboard Layer 4 (Overlay)
//Storyboard Sound Samples

[TimingPoints]
559,319.148936170213,4,2,1,55,1,0
1356,-153.846153846153,4,2,1,55,0,0
9176,-333.333333333333,4,2,1,80,0,0
9415,-333.333333333333,4,2,1,5,0,0
9495,-86.9565217391304,4,2,1,80,0,0
14282,-100,4,2,1,65,0,0
14601,-125,4,2,1,60,0,0
24814,-100,4,2,1,70,0,0
26330,-100,4,2,1,5,0,0
26410,-100,4,2,1,70,0,0
35027,-125,4,2,1,70,0,0
42686,-100,4,2,1,70,0,0
44761,-100,4,2,1,60,0,0
45239,-80,4,2,1,85,0,1
55372,-80,4,2,1,85,0,0
55452,-80,4,2,1,85,0,1
59122,-80,4,2,1,85,0,0
59362,-80,4,2,1,5,0,0
59441,-80,4,2,1,85,0,0
59681,-80,4,2,1,5,0,0
59761,-80,4,2,1,85,0,0
60000,-80,4,2,1,5,0,0
60080,-80,4,2,1,85,0,0
60319,-80,4,2,1,5,0,0
60399,-80,4,2,1,85,0,1
65665,-80,4,2,1,85,0,0
68059,-400,4,2,1,85,0,0
68138,-400,4,2,1,50,0,0

[Colours]
Combo1 : 155,36,143
Combo2 : 15,164,60

[HitObjects]
470,330,1356,6,0,L|483:404,2,55.2499974708558,2|2|2,0:2|0:2|0:2,0:0:0:0:
375,291,1835,2,0,L|388:365,1,55.2499974708558
442,232,2154,2,0,P|384:201|329:215,1,110.499994941712,2|2,0:2|0:2,0:0:0:0:
280,265,2633,2,0,P|248:280|216:278,1,55.2499974708558,2|0,0:2|0:0,0:0:0:0:
151,240,2952,2,0,L|137:168,1,55.2499974708558,2|0,0:2|0:0,0:0:0:0:
207,131,3271,2,0,L|221:59,1,55.2499974708558,2|0,0:2|0:0,0:0:0:0:
154,24,3590,2,0,P|212:-7|267:7,1,110.499994941712,2|2,0:2|0:2,0:0:0:0:
305,67,4069,1,2,0:2:0:0:
200,185,4229,6,0,L|219:64,1,110.499994941712,2|0,0:2|0:0,0:0:0:0:
305,67,4707,2,0,L|295:140,1,55.2499974708558,2|0,0:2|0:0,0:0:0:0:
284,207,5027,1,2,0:2:0:0:
371,171,5186,2,0,L|436:180,1,55.2499974708558,2|0,0:2|0:0,0:0:0:0:
414,262,5505,2,0,L|359:254,1,55.2499974708558,2|0,0:2|0:0,0:0:0:0:
348,341,5824,2,0,L|402:348,1,55.2499974708558,2|0,0:2|0:0,0:0:0:0:
281,281,6144,2,0,B|255:329|255:329|272:391,1,110.499994941712,2|2,0:2|0:2,0:0:0:0:
348,341,6622,1,2,0:2:0:0:
281,281,6782,1,2,0:2:0:0:
256,192,6862,12,0,9016,0:0:0:0:
24,199,9176,6,0,L|71:190,1,38.2499988327027,4|0,0:3|0:0,0:0:0:0:
95,201,9495,6,0,L|-18:226,1,97.7500018644333,6|2,1:2|0:2,0:0:0:0:
138,115,9814,1,10,0:2:0:0:
83,294,9973,1,0,1:0:0:0:
83,294,10053,1,0,1:2:0:0:
83,294,10133,1,2,1:2:0:0:
146,92,10293,1,2,1:2:0:0:
198,248,10452,1,10,0:2:0:0:
54,92,10612,6,0,P|84:21|204:23,1,195.500003728867,2|2,1:2|1:2,0:0:0:0:
353,123,11090,1,10,0:2:0:0:
219,160,11250,1,0,1:0:0:0:
219,160,11330,1,0,1:0:0:0:
219,160,11410,1,2,1:2:0:0:
307,34,11569,1,2,1:2:0:0:
381,212,11729,1,10,0:2:0:0:
318,9,11888,1,0,0:0:0:0:
282,257,12048,5,14,0:2:0:0:
427,76,12207,1,0,1:2:0:0:
436,68,12367,1,0,1:2:0:0:
471,303,12527,5,14,0:2:0:0:
333,140,12686,1,0,1:2:0:0:
325,130,12846,1,2,1:2:0:0:
364,367,13005,5,14,0:2:0:0:
489,178,13165,1,6,1:2:0:0:
489,178,13484,5,10,0:2:0:0:
282,274,13644,1,10,0:2:0:0:
509,171,13803,1,10,0:2:0:0:
240,85,13963,1,10,0:2:0:0:
240,85,14441,1,8,0:3:0:0:
247,107,14521,1,8,0:3:0:0:
254,132,14601,6,0,L|397:101,1,136,4|2,1:2|1:2,0:0:0:0:
474,85,15080,2,0,L|460:155,1,68,2|0,0:2|1:2,0:0:0:0:
411,217,15399,2,0,L|425:287,1,68,2|0,0:2|1:2,0:0:0:0:
499,333,15718,2,0,B|429:313|429:313|367:358,1,136,2|0,0:2|0:0,0:0:0:0:
302,384,16197,2,0,P|257:380|235:366,1,68,0|0,1:2|0:0,0:0:0:0:
179,311,16516,2,0,P|134:315|112:329,1,68,0|0,1:2|0:0,0:0:0:0:
48,377,16835,1,2,1:2:0:0:
115,326,16995,1,2,0:2:0:0:
41,273,17154,6,0,P|35:223|16:133,1,136,2|2,1:2|1:2,0:0:0:0:
4,60,17633,2,0,P|40:46|77:39,1,68,2|0,0:2|1:2,0:0:0:0:
136,84,17952,2,0,P|172:98|209:105,1,68,2|0,0:2|1:2,0:0:0:0:
285,68,18271,2,0,P|246:110|264:202,1,136,2|0,0:2|0:0,0:0:0:0:
303,250,18750,2,0,P|324:281|329:317,1,68,0|0,1:2|0:0,0:0:0:0:
282,382,19069,1,0,1:2:0:0:
282,382,19229,1,2,0:2:0:0:
329,310,19388,1,2,1:2:0:0:
405,366,19548,1,2,0:2:0:0:
405,366,19628,1,2,0:0:0:0:
405,366,19707,6,0,B|451:348|451:348|474:243,1,136,2|2,1:2|1:2,0:0:0:0:
423,185,20186,2,0,L|411:113,1,68,2|0,0:2|1:2,0:0:0:0:
494,76,20505,2,0,L|505:143,1,68,2|0,0:2|1:2,0:0:0:0:
423,185,20824,2,0,B|367:194|367:194|338:174|338:174|283:184,1,136,2|0,0:2|0:0,0:0:0:0:
236,246,21303,2,0,L|248:321,1,68,2|0,1:2|0:0,0:0:0:0:
161,329,21622,2,0,L|150:261,1,68,2|0,1:2|0:0,0:0:0:0:
143,177,21941,1,2,1:2:0:0:
143,177,22261,6,0,P|108:160|70:160,1,68,2|0,1:2|0:0,0:0:0:0:
18,254,22580,2,0,P|51:251|81:235,1,68,0|0,1:2|0:0,0:0:0:0:
18,104,22899,2,0,P|2:133|0:167,1,68,0|0,1:2|0:0,0:0:0:0:
22,259,23218,1,0,1:2:0:0:
22,259,23378,1,0,0:0:0:0:
79,158,23537,5,8,1:2:0:0:
119,302,23697,1,0,1:2:0:0:
76,134,23856,1,8,0:2:0:0:
2,342,24016,1,0,1:2:0:0:
171,109,24176,1,8,0:2:0:0:
216,356,24335,1,0,1:2:0:0:
148,205,24495,1,10,0:2:0:0:
148,205,24814,6,0,B|235:172|219:264|322:225,1,170,6|10,1:2|0:2,0:0:0:0:
399,193,25293,2,0,P|406:152|419:104,1,85,2|0,0:2|0:0,0:0:0:0:
442,30,25612,1,2,1:2:0:0:
321,149,25771,2,0,P|314:108|301:60,1,85,8|2,0:2|0:2,0:0:0:0:
136,4,26090,6,0,P|79:-1|28:52,1,127.5,0|0,1:2|0:0,0:0:0:0:
32,72,26410,2,0,B|117:47|104:121|203:95,1,170,8|0,0:2|0:0,0:0:0:0:
193,97,26888,1,0,1:2:0:0:
58,152,27048,2,0,P|68:193|76:234,1,85,10|2,0:2|0:2,0:0:0:0:
13,379,27367,6,0,P|67:331|169:335,1,170,2|10,1:2|0:2,0:0:0:0:
248,368,27846,2,0,P|289:384|336:377,1,85,2|0,0:2|0:0,0:0:0:0:
405,334,28165,1,2,1:2:0:0:
278,211,28324,2,0,P|288:252|296:293,1,85,8|2,0:2|0:2,0:0:0:0:
427,244,28644,6,0,P|434:202|445:161,1,85,0|0,1:2|0:0,0:0:0:0:
494,29,28963,1,8,0:2:0:0:
409,85,29122,1,0,0:0:0:0:
512,115,29282,1,0,0:0:0:0:
385,7,29441,1,0,1:2:0:0:
310,114,29601,2,0,P|269:130|222:123,1,85,10|0,0:2|0:0,0:0:0:0:
38,40,29920,6,0,P|93:10|198:73,1,170,2|10,1:2|0:2,0:0:0:0:
112,255,30399,2,0,B|87:215|87:215|107:86,1,170,2|0,0:2|1:2,0:0:0:0:
191,215,30878,1,8,0:2:0:0:
191,215,31197,6,0,P|209:258|192:307,1,85,2|0,1:2|0:0,0:0:0:0:
95,377,31516,1,8,0:2:0:0:
206,319,31676,2,0,B|286:295|268:377|381:347,1,170,0|0,0:0|1:2,0:0:0:0:
424,219,32154,1,10,0:2:0:0:
339,266,32314,1,2,0:2:0:0:
488,363,32473,6,0,L|498:258,1,85,0|0,1:2|0:0,0:0:0:0:
506,112,32793,1,8,0:2:0:0:
424,219,32952,2,0,L|406:124,1,85
386,43,33271,1,0,1:2:0:0:
336,240,33431,1,8,0:2:0:0:
336,240,33750,5,0,1:2:0:0:
505,204,33910,1,0,0:0:0:0:
386,43,34069,1,8,1:2:0:0:
424,219,34229,1,0,0:0:0:0:
454,107,34388,1,0,1:2:0:0:
348,132,34548,2,0,L|260:150,1,85,0|10,1:2|0:2,0:0:0:0:
168,172,34867,1,4,0:3:0:0:
251,65,35027,6,0,B|303:53|303:53|324:29|324:29|377:20,1,136,6|0,1:2|0:0,0:0:0:0:
247,151,35505,2,0,L|105:124,1,136,8|0,0:2|0:0,0:0:0:0:
33,37,35984,2,0,P|4:99|25:188,1,136,0|0,1:2|0:0,0:0:0:0:
128,216,36463,6,0,B|63:196|72:269|-8:240,1,136,8|0,0:2|0:0,0:0:0:0:
121,294,36941,1,0,1:2:0:0:
19,161,37101,1,0,1:2:0:0:
71,370,37261,1,10,0:2:0:0:
71,370,37580,6,0,B|113:387|113:387|218:366,1,136,2|2,1:2|0:2,0:0:0:0:
281,223,38059,2,0,P|255:272|296:352,1,136,10|2,0:2|0:2,0:0:0:0:
466,311,38537,2,0,B|397:331|415:257|325:287,1,136,2|0,1:2|0:0,0:0:0:0:
470,219,39016,1,8,0:2:0:0:
470,219,39176,2,0,P|477:165|483:137,1,68,2|0,0:2|0:0,0:0:0:0:
498,23,39495,1,0,1:2:0:0:
404,132,39654,1,0,1:2:0:0:
414,11,39814,1,10,0:2:0:0:
414,11,40133,6,0,B|343:1|357:64|269:41,1,136,2|0,1:2|0:0,0:0:0:0:
140,0,40612,2,0,P|121:53|161:129,1,136,8|0,0:2|0:0,0:0:0:0:
330,144,41090,2,0,P|278:131|215:188,1,136,0|0,1:2|0:0,0:0:0:0:
68,268,41569,1,8,0:2:0:0:
68,268,41729,2,0,P|110:254|146:249,1,68,2|0,0:2|0:0,0:0:0:0:
245,302,42048,1,0,1:2:0:0:
217,179,42207,1,0,1:2:0:0:
164,356,42367,1,10,0:2:0:0:
434,138,42686,5,6,1:2:0:0:
434,138,43005,1,0,1:2:0:0:
461,229,43165,1,0,1:2:0:0:
354,105,43324,1,0,1:2:0:0:
319,237,43484,1,0,1:2:0:0:
422,55,43644,1,0,1:2:0:0:
481,312,43803,1,0,1:2:0:0:
289,154,43963,6,0,P|268:148|248:142,1,42.5,0|0,1:2|1:0,0:0:0:0:
136,37,44122,1,0,1:2:0:0:
136,37,44202,1,0,1:2:0:0:
136,37,44282,1,0,1:2:0:0:
136,37,44362,1,0,1:2:0:0:
136,37,44441,1,0,1:2:0:0:
0,302,45239,6,0,P|41:341|108:335,1,106.25,4|0,1:2|0:0,0:0:0:0:
233,257,45559,2,0,P|196:219|144:215,1,106.25,10|0,0:2|0:0,0:0:0:0:
191,353,45878,1,2,1:2:0:0:
82,162,46037,2,0,P|59:209|73:259,1,106.25,2|8,1:2|0:2,0:0:0:0:
191,353,46356,6,0,L|300:324,1,106.25,2|0,1:2|0:0,0:0:0:0:
426,226,46676,2,0,L|323:198,1,106.25,2|8,1:2|0:2,0:0:0:0:
413,316,46995,2,0,P|470:303|496:170,1,212.5,2|2,1:2|1:2,0:0:0:0:
323,198,47473,1,10,0:2:0:0:
460,58,47633,1,2,1:2:0:0:
460,58,47713,1,0,1:0:0:0:
460,58,47793,6,0,B|381:33|393:108|296:73,1,159.375,0|0,1:2|0:0,0:0:0:0:
284,55,48112,2,0,P|237:25|181:33,1,106.25,10|0,0:2|0:0,0:0:0:0:
82,120,48431,1,2,1:2:0:0:
218,108,48590,1,2,1:2:0:0:
41,45,48750,1,8,0:2:0:0:
112,200,48910,2,0,P|163:208|209:184,1,106.25,2|0,1:2|0:0,0:0:0:0:
41,45,49229,2,0,P|4:82|0:134,1,106.25,2|8,1:2|0:2,0:0:0:0:
93,304,49548,6,0,L|112:194,1,106.25,2|0,1:2|0:0,0:0:0:0:
4,334,49867,1,2,1:2:0:0:
189,290,50027,1,10,0:2:0:0:
19,169,50186,1,2,0:2:0:0:
148,364,50346,6,0,B|198:388|198:388|346:338,1,212.5,0|8,1:2|0:2,0:0:0:0:
346,337,50984,1,2,1:2:0:0:
387,178,51144,1,0,1:2:0:0:
426,382,51303,1,10,0:2:0:0:
483,175,51463,6,0,P|456:114|308:121,1,212.5,2|0,1:2|1:2,0:0:0:0:
367,259,51941,1,8,0:2:0:0:
226,32,52101,2,0,L|209:148,1,106.25,0|0,1:2|0:0,0:0:0:0:
189,290,52420,1,2,1:2:0:0:
302,125,52580,1,10,0:2:0:0:
124,214,52739,1,2,1:2:0:0:
124,214,52819,1,0,1:0:0:0:
124,214,52899,6,0,P|68:199|44:50,1,212.5,2|8,1:2|0:2,0:0:0:0:
34,64,53537,1,2,1:2:0:0:
210,137,53697,1,0,1:2:0:0:
10,192,53856,1,8,0:2:0:0:
139,0,54016,6,0,L|122:116,1,106.25,2|0,1:2|0:0,0:0:0:0:
225,242,54335,2,0,L|209:136,1,106.25,2|8,1:2|0:2,0:0:0:0:
88,336,54654,2,0,P|140:345|188:315,1,106.25,2|0,1:2|1:0,0:0:0:0:
303,179,54973,1,2,1:2:0:0:
303,179,55053,1,0,1:2:0:0:
303,179,55133,2,0,L|313:236,1,53.125,8|8,0:2|0:0,0:0:0:0:
369,355,55293,2,0,L|378:302,1,53.125,10|8,0:2|0:2,0:0:0:0:
474,158,55452,6,0,P|428:132|377:141,1,106.25,4|0,1:2|0:0,0:0:0:0:
281,319,55771,2,0,P|332:328|377:302,1,106.25,10|0,0:2|0:0,0:0:0:0:
474,158,56090,1,2,1:2:0:0:
498,357,56250,2,0,L|482:242,1,106.25,2|8,1:2|0:2,0:0:0:0:
457,35,56569,6,0,P|394:11|269:92,1,212.5,2|2,1:2|1:2,0:0:0:0:
411,220,57048,1,8,0:2:0:0:
201,133,57207,2,0,P|245:172|307:164,1,106.25,2|0,1:2|0:0,0:0:0:0:
181,49,57527,1,2,1:2:0:0:
126,214,57686,1,8,0:2:0:0:
25,16,57846,1,0,1:0:0:0:
25,16,57926,1,0,1:0:0:0:
25,16,58005,6,0,B|66:57|66:57|31:230,1,212.5,2|10,1:2|0:2,0:0:0:0:
35,208,58644,1,2,1:2:0:0:
0,371,58803,1,2,1:2:0:0:
177,329,58963,1,10,0:2:0:0:
22,294,59122,5,6,1:2:0:0:
143,128,59441,5,6,1:2:0:0:
102,307,59761,5,6,1:2:0:0:
41,118,60080,5,6,1:2:0:0:
41,118,60239,1,0,1:0:0:0:
137,100,60399,2,0,L|247:73,1,106.25,6|0,1:2|0:0,0:0:0:0:
454,32,60718,1,0,1:2:0:0:
276,167,60878,5,8,0:2:0:0:
507,118,61037,1,0,1:2:0:0:
255,80,61197,5,8,0:2:0:0:
471,205,61356,1,0,1:2:0:0:
321,17,61516,5,8,0:2:0:0:
408,273,61676,1,0,1:2:0:0:
432,0,61835,6,0,L|415:107,1,106.25,8|0,0:2|1:2,0:0:0:0:
292,271,62154,2,0,L|275:166,1,106.25,8|0,0:2|1:2,0:0:0:0:
512,323,62473,6,0,P|466:362|409:357,1,106.25,8|0,0:2|1:2,0:0:0:0:
275,166,62793,1,8,0:2:0:0:
440,272,62952,1,0,1:2:0:0:
150,324,63112,5,8,0:2:0:0:
361,216,63271,1,0,1:2:0:0:
111,162,63431,5,8,0:2:0:0:
300,299,63590,1,0,1:2:0:0:
24,343,63750,5,8,0:2:0:0:
251,179,63910,1,0,1:2:0:0:
4,34,64069,6,0,L|28:143,1,106.25,10|0,0:2|1:2,0:0:0:0:
169,0,64388,5,2,1:2:0:0:
65,243,64548,1,12,0:2:0:0:
59,261,64707,1,12,0:2:0:0:
261,77,64867,1,0,1:2:0:0:
261,77,64947,1,0,1:2:0:0:
261,77,65027,1,2,1:2:0:0:
33,144,65186,1,0,1:2:0:0:
277,189,65346,1,2,1:2:0:0:
277,189,65426,1,0,1:2:0:0:
277,189,65505,2,0,L|331:202,2,53.125,2|0|0,1:2|1:2|1:2,0:0:0:0:
277,189,65824,5,10,0:2:0:0:
418,65,65984,1,10,0:2:0:0:
433,53,66144,1,0,0:0:0:0:
413,272,66303,5,10,0:2:0:0:
322,94,66463,1,10,0:2:0:0:
315,80,66622,1,0,0:0:0:0:
498,196,66782,6,0,P|453:169|395:170,1,106.25,14|0,0:0|1:2,0:0:0:0:
215,217,67101,5,10,0:2:0:0:
210,238,67420,5,10,0:2:0:0:
206,261,67739,5,10,0:2:0:0:
253,55,68059,5,14,0:2:0:0:
256,192,68138,12,2,72606,0:0:0:0:
