osu file format v14

[General]
AudioFilename: audio.mp3
AudioLeadIn: 0
PreviewTime: 44681
Countdown: 0
SampleSet: Soft
StackLeniency: 0.7
Mode: 0
LetterboxInBreaks: 0
WidescreenStoryboard: 1

[Editor]
DistanceSpacing: 1.5
BeatDivisor: 4
GridSize: 8
TimelineZoom: 1.7

[Metadata]
Title:Absolute Secret (ED Ver.)
TitleUnicode:Absolute Secret (ED Ver.)
Artist:Kyaru (CV: Tachibana Rika)
ArtistUnicode:キャル (CV: 立花理香)
Creator:PikAqours
Version:Sea's Insane
Source:プリンセスコネクト!Re:Dive
Tags:Princess Connect! Re Dive プリコネR Priconne Karyl Japanese Video Game Ending Short Version Cygames TheSea NoFC Suyuko Log Off Now Lon Wanpachi Cycopton Elinor [_Eli_] StarCastler anime pop rock j-pop j-rock redive ed gacha purikone ORIGINAL SOUNDTRACK VOL.2 Lost ~ようこそ美食殿へ!~ ~yōkoso bishoku dono e!~ youkoso mobile
BeatmapID:2485737
BeatmapSetID:1187485

[Difficulty]
HPDrainRate:5
CircleSize:4
OverallDifficulty:8
ApproachRate:9
SliderMultiplier:1.58
SliderTickRate:1

[Events]
//Background and Video events
0,0,"bgsea.jpg",0,0
//Break Periods
//Storyboard Layer 0 (Background)
//Storyboard Layer 1 (Fail)
//Storyboard Layer 2 (Pass)
//Storyboard Layer 3 (Foreground)
//Storyboard Layer 4 (Overlay)
//Storyboard Sound Samples

[TimingPoints]
559,319.148936170213,4,2,1,55,1,0
559,-142.857142857143,4,2,1,55,0,0
9176,-142.857142857143,4,2,1,80,0,0
9495,-100,4,2,1,80,0,0
14282,-100,4,2,1,65,0,0
14601,-117.647058823529,4,2,1,60,0,0
24814,-100,4,2,1,70,0,0
35027,-117.647058823529,4,2,1,70,0,0
42686,-100,4,2,1,70,0,0
44761,-142.857142857143,4,2,1,60,0,0
45239,-90.9090909090909,4,2,1,85,0,1
55372,-90.9090909090909,4,2,1,85,0,0
55452,-90.9090909090909,4,2,1,85,0,1
58324,-90.9090909090909,4,2,1,85,0,1
59122,-90.9090909090909,4,2,1,85,0,0
59362,-90.9090909090909,4,2,1,5,0,0
59441,-90.9090909090909,4,2,1,85,0,0
59681,-90.9090909090909,4,2,1,5,0,0
59761,-90.9090909090909,4,2,1,85,0,0
60000,-90.9090909090909,4,2,1,5,0,0
60080,-90.9090909090909,4,2,1,85,0,0
60319,-90.9090909090909,4,2,1,5,0,0
60399,-90.9090909090909,4,2,1,85,0,1
65984,-90.9090909090909,4,2,1,85,0,0
68138,-90.9090909090909,4,2,1,50,0,0

[Colours]
Combo1 : 117,44,190
Combo2 : 20,222,121

[HitObjects]
305,307,1356,6,0,L|368:318,1,55.299998312378,2|2,0:2|0:2,0:0:0:0:
237,365,1676,6,0,L|119:385,1,110.599996624756,2|0,0:2|0:0,0:0:0:0:
61,325,2154,2,0,P|56:297|60:270,1,55.299998312378,2|0,0:2|0:0,0:0:0:0:
129,211,2473,1,2,0:2:0:0:
129,211,2633,2,0,P|133:184|130:157,1,55.299998312378,2|0,0:2|0:0,0:0:0:0:
62,98,2952,2,0,P|56:43|87:0,2,110.599996624756,2|2|2,0:2|0:2|0:2,0:0:0:0:
200,77,3910,2,0,L|137:66,1,55.299998312378,2|2,0:2|0:2,0:0:0:0:
268,19,4230,6,0,L|386:-1,1,110.599996624756,2|0,0:2|0:0,0:0:0:0:
444,58,4708,2,0,P|449:86|445:113,1,55.299998312378,2|0,0:2|0:0,0:0:0:0:
376,172,5027,1,2,0:2:0:0:
376,172,5187,2,0,P|372:199|375:226,1,55.299998312378,2|0,0:2|0:0,0:0:0:0:
441,286,5506,2,0,P|446:341|414:384,2,110.599996624756,2|2|2,0:2|0:2|0:2,0:0:0:0:
303,307,6463,2,0,L|366:318,1,55.299998312378,2|2,0:2|0:2,0:0:0:0:
237,365,6782,1,2,0:2:0:0:
256,192,6862,12,4,9176,0:3:0:0:
144,44,9495,6,0,L|238:60,1,79,6|2,1:2|0:2,0:0:0:0:
85,112,9814,2,0,P|61:80|54:42,1,79,10|0,0:2|0:0,0:0:0:0:
174,129,10133,1,2,1:2:0:0:
27,180,10293,1,2,1:2:0:0:
144,44,10452,1,10,0:2:0:0:
116,197,10612,6,0,B|106:252|106:252|124:287|124:287|111:358,1,158,2|2,1:2|1:2,0:0:0:0:
270,217,11090,2,0,P|230:217|195:235,1,79,10|0,0:2|0:0,0:0:0:0:
338,276,11410,1,2,1:2:0:0:
287,128,11569,1,2,1:2:0:0:
253,306,11729,2,0,L|237:400,1,79,10|0,0:2|0:0,0:0:0:0:
355,186,12048,6,0,P|390:203|416:232,1,79,14|0,0:2|1:2,0:0:0:0:
185,247,12367,1,0,1:2:0:0:
287,127,12527,6,0,P|318:104|356:96,1,79,14|0,0:2|1:2,0:0:0:0:
253,306,12846,1,2,1:2:0:0:
202,157,13005,5,14,0:2:0:0:
338,276,13165,2,0,L|354:370,1,79,6|0,1:2|0:0,0:0:0:0:
440,157,13484,5,10,0:2:0:0:
270,216,13644,1,10,0:2:0:0:
508,216,13803,1,10,0:2:0:0:
287,127,13963,1,10,0:2:0:0:
287,127,14441,1,8,0:3:0:0:
270,124,14520,1,8,0:3:0:0:
253,121,14601,6,0,L|111:95,1,134.300002561569,4|2,1:2|1:2,0:0:0:0:
35,127,15080,2,0,P|17:155|13:188,1,67.1500012807846,2|0,0:2|1:2,0:0:0:0:
145,235,15399,2,0,P|128:205|102:185,1,67.1500012807846,2|0,0:2|1:2,0:0:0:0:
128,324,15718,2,0,P|192:314|232:258,1,134.300002561569,2|0,0:2|0:0,0:0:0:0:
315,175,16197,2,0,L|328:253,1,67.1500012807846,0|0,1:2|0:0,0:0:0:0:
382,366,16516,2,0,L|395:287,1,67.1500012807846,0|0,1:2|0:0,0:0:0:0:
443,151,16835,1,2,1:2:0:0:
460,240,16995,1,2,0:2:0:0:
511,92,17154,6,0,P|453:60|390:78,1,134.300002561569,2|2,1:2|1:2,0:0:0:0:
322,137,17633,2,0,P|288:138|258:125,1,67.1500012807846,2|0,0:2|1:2,0:0:0:0:
168,4,17952,2,0,P|186:31|190:65,1,67.1500012807846,2|0,0:2|1:2,0:0:0:0:
43,153,18271,2,0,B|134:138|134:138|172:154,1,134.300002561569,2|0,0:2|0:0,0:0:0:0:
113,224,18750,2,0,L|35:237,1,67.1500012807846,0|0,1:2|0:0,0:0:0:0:
172,292,19069,2,0,L|250:305,1,67.1500012807846,0|2,1:2|0:2,0:0:0:0:
386,354,19388,1,2,1:2:0:0:
297,371,19548,1,2,0:2:0:0:
416,269,19707,6,0,B|432:231|432:231|417:140,1,134.300002561569,2|2,1:2|1:2,0:0:0:0:
358,71,20186,2,0,P|324:64|292:72,1,67.1500012807846,2|0,0:2|1:2,0:0:0:0:
294,212,20505,2,0,P|317:186|326:154,1,67.1500012807846,2|0,0:2|1:2,0:0:0:0:
210,19,20824,6,0,B|163:27|163:27|133:12|133:12|73:23,1,134.300002561569,2|0,0:2|0:0,0:0:0:0:
23,89,21303,2,0,L|36:167,1,67.1500012807846,2|0,1:2|0:0,0:0:0:0:
80,289,21622,2,0,L|93:211,1,67.1500012807846,2|0,1:2|0:0,0:0:0:0:
137,87,21941,2,0,L|150:165,1,67.1500012807846,2|0,1:2|0:0,0:0:0:0:
194,289,22261,6,0,P|260:288|306:242,3,134.300002561569,2|0|0|0,1:2|1:2|1:2|1:2,0:0:0:0:
345,101,23537,5,8,1:2:0:0:
225,204,23696,1,0,1:2:0:0:
287,33,23856,2,0,P|315:15|348:11,1,67.1500012807846,8|0,0:2|1:2,0:0:0:0:
314,186,24176,1,8,0:2:0:0:
167,135,24335,1,0,1:2:0:0:
345,101,24495,2,0,P|374:117|393:144,1,67.1500012807846,10|2,0:2|0:0,0:0:0:0:
430,322,24814,6,0,L|443:244,1,79,6|0,1:2|0:0,0:0:0:0:
493,97,25133,1,10,0:2:0:0:
357,212,25293,2,0,P|317:213|284:194,1,79,2|0,0:2|0:0,0:0:0:0:
319,51,25612,2,0,P|339:85|339:123,1,79,2|8,1:2|0:2,0:0:0:0:
99,112,25931,2,0,B|154:102|154:102|189:120|189:120|260:107,1,158,2|0,0:2|0:0,0:0:0:0:
40,43,26410,2,0,P|9:112|42:184,1,158,8|0,0:2|0:0,0:0:0:0:
201,232,26888,1,0,1:2:0:0:
99,112,27048,1,10,0:2:0:0:
133,290,27207,1,2,0:2:0:0:
262,156,27367,6,0,L|184:143,1,79,2|0,1:2|0:0,0:0:0:0:
31,170,27686,1,10,0:2:0:0:
201,232,27846,2,0,P|221:266|221:305,1,79,2|0,0:2|0:0,0:0:0:0:
80,343,28165,2,0,P|99:308|133:289,1,79,2|8,1:2|0:2,0:0:0:0:
302,351,28484,6,0,B|407:370|407:370|454:351,1,158,2|0,0:2|0:0,0:0:0:0:
402,129,28963,2,0,B|392:184|392:184|410:219|410:219|397:290,1,158,8|0,0:2|0:0,0:0:0:0:
481,166,29441,1,0,1:2:0:0:
321,233,29601,2,0,P|282:241|246:227,1,79,10|0,0:2|0:0,0:0:0:0:
302,70,29920,6,0,L|289:148,1,79,2|0,1:2|0:0,0:0:0:0:
173,283,30239,1,10,0:2:0:0:
198,128,30399,2,0,P|165:106|127:108,1,79,2|0,0:2|0:0,0:0:0:0:
11,244,30718,1,0,1:2:0:0:
38,91,30878,2,0,L|51:13,1,79,8|0,0:2|0:0,0:0:0:0:
141,197,31197,6,0,L|154:275,1,79,2|0,1:2|0:0,0:0:0:0:
49,362,31516,2,0,B|104:352|104:352|139:370|139:370|210:357,1,158,8|0,0:2|0:0,0:0:0:0:
316,221,31995,1,0,1:2:0:0:
153,274,32154,1,10,0:2:0:0:
289,375,32314,1,2,0:2:0:0:
211,206,32473,6,0,P|178:184|139:185,1,79,0|0,1:2|0:0,0:0:0:0:
346,307,32793,2,0,P|400:253|394:175,1,158,8|0,0:2|0:0,0:0:0:0:
343,68,33271,1,0,1:2:0:0:
315,222,33431,2,0,L|237:209,1,79,8|0,0:2|0:0,0:0:0:0:
432,85,33750,6,0,L|510:72,1,79,0|0,1:2|0:0,0:0:0:0:
374,153,34069,2,0,L|296:140,1,79,8|0,1:2|0:0,0:0:0:0:
176,38,34388,1,0,1:2:0:0:
343,68,34548,1,0,1:2:0:0:
206,123,34707,2,0,P|169:131|132:117,1,79,10|4,0:2|0:3,0:0:0:0:
24,1,35027,6,0,B|40:39|40:39|25:130,1,134.300002561569,6|0,1:2|0:0,0:0:0:0:
88,244,35505,2,0,L|115:86,1,134.300002561569,8|0,0:2|0:0,0:0:0:0:
19,301,35984,2,0,P|78:332|141:315,1,134.300002561569,0|0,1:2|0:0,0:0:0:0:
208,257,36463,2,0,P|267:226|330:243,1,134.300002561569,8|0,0:2|0:0,0:0:0:0:
397,300,36941,1,0,1:2:0:0:
312,331,37101,1,0,1:2:0:0:
414,211,37261,2,0,L|428:132,1,67.1500012807846,10|0,0:2|0:0,0:0:0:0:
345,19,37580,6,0,L|359:98,1,67.1500012807846,2|0,1:2|0:0,0:0:0:0:
288,143,37899,1,2,0:2:0:0:
288,143,38059,2,0,P|254:144|224:131,1,67.1500012807846,10|0,0:2|0:0,0:0:0:0:
166,63,38378,1,2,0:2:0:0:
166,63,38537,6,0,B|75:48|75:48|37:64,1,134.300002561569,2|0,1:2|0:0,0:0:0:0:
7,151,39016,1,8,0:2:0:0:
96,134,39176,2,0,L|109:212,1,67.1500012807846,2|0,0:2|0:0,0:0:0:0:
56,347,39495,1,0,1:2:0:0:
39,258,39654,1,0,1:2:0:0:
141,378,39814,2,0,L|219:365,1,67.1500012807846,10|0,0:2|0:0,0:0:0:0:
366,282,40133,6,0,B|319:274|319:274|289:289|289:289|229:278,1,134.300002561569,2|0,1:2|0:0,0:0:0:0:
423,351,40612,2,0,P|454:292|437:229,1,134.300002561569,8|0,0:2|0:0,0:0:0:0:
379,161,41090,2,0,L|221:134,1,134.300002561569,0|0,1:2|0:0,0:0:0:0:
130,2,41569,1,8,0:2:0:0:
277,53,41729,6,0,L|435:26,1,134.300002561569,2|0,0:2|1:2,0:0:0:0:
498,47,42207,1,0,1:2:0:0:
440,115,42367,2,0,P|426:145|428:178,1,67.1500012807846,10|0,0:2|0:0,0:0:0:0:
478,334,42686,5,6,1:2:0:0:
478,334,43005,2,0,L|400:321,1,79,0|0,1:2|1:2,0:0:0:0:
264,265,43324,2,0,L|342:252,1,79,0|0,1:2|1:2,0:0:0:0:
206,333,43644,2,0,P|181:302|176:263,1,79,0|0,1:2|1:2,0:0:0:0:
233,180,43963,5,0,1:2:0:0:
236,163,44043,1,0,1:0:0:0:
239,146,44122,2,0,L|250:82,1,39.5,0|0,1:2|1:2,0:0:0:0:
150,51,44282,2,0,L|161:115,1,39.5,0|0,1:2|1:2,0:0:0:0:
124,173,44441,1,0,1:2:0:0:
124,173,44761,6,0,L|111:243,2,55.299998312378,2|2|2,0:2|0:2|0:2,0:0:0:0:
300,40,45239,6,0,P|343:34|383:51,1,86.9000026519776,4|0,1:2|0:0,0:0:0:0:
365,201,45559,2,0,P|338:167|332:124,1,86.9000026519776,10|0,0:2|0:0,0:0:0:0:
453,216,45878,1,2,1:2:0:0:
309,270,46037,2,0,L|214:253,1,86.9000026519776,2|8,1:2|0:2,0:0:0:0:
71,320,46356,6,0,P|113:326|153:309,1,86.9000026519776,2|0,1:2|0:0,0:0:0:0:
87,150,46676,2,0,L|104:245,1,86.9000026519776,2|8,1:2|0:2,0:0:0:0:
143,81,46995,2,0,P|104:61|61:64,1,86.9000026519776,2|0,1:2|0:0,0:0:0:0:
175,165,47314,1,2,1:2:0:0:
199,12,47473,1,10,0:2:0:0:
272,179,47633,6,0,B|261:236|261:236|280:273|280:273|267:346,1,173.800005303955,2|0,0:2|0:0,0:0:0:0:
433,200,48112,2,0,P|390:198|351:216,1,86.9000026519776,10|0,0:2|0:0,0:0:0:0:
489,269,48431,1,2,1:2:0:0:
465,116,48590,2,0,L|370:99,1,86.9000026519776,2|8,1:2|0:2,0:0:0:0:
237,46,48910,6,0,L|332:29,1,86.9000026519776,2|0,1:2|0:0,0:0:0:0:
181,115,49229,2,0,P|154:82|149:39,1,86.9000026519776,2|8,1:2|0:2,0:0:0:0:
269,130,49548,2,0,P|253:169|219:195,1,86.9000026519776,2|0,1:2|0:0,0:0:0:0:
37,169,49867,1,2,1:2:0:0:
181,115,50027,1,10,0:2:0:0:
69,252,50186,6,0,P|88:332|170:356,1,173.800005303955,2|0,0:2|0:0,0:0:0:0:
330,298,50665,2,0,L|235:281,1,86.9000026519776,8|0,0:2|0:0,0:0:0:0:
386,229,50984,2,0,L|481:212,1,86.9000026519776,2|0,1:2|1:2,0:0:0:0:
362,382,51303,1,10,0:2:0:0:
329,159,51463,6,0,P|285:90|199:95,1,173.800005303955,2|0,1:2|1:2,0:0:0:0:
122,274,51941,1,8,0:2:0:0:
241,174,52101,2,0,L|224:269,1,86.9000026519776,0|0,1:2|0:0,0:0:0:0:
90,358,52420,1,2,1:2:0:0:
153,189,52580,1,10,0:2:0:0:
178,343,52739,1,2,0:2:0:0:
65,204,52899,6,0,P|66:162|90:126,1,86.9000026519776,2|0,1:2|0:0,0:0:0:0:
226,38,53218,2,0,P|189:58|145:55,1,86.9000026519776,8|0,0:2|0:0,0:0:0:0:
282,107,53537,2,0,B|403:88|403:88|450:107,1,173.800005303955,2|8,1:2|0:2,0:0:0:0:
378,261,54016,6,0,L|395:166,1,86.9000026519776,2|0,1:2|0:0,0:0:0:0:
434,330,54335,2,0,P|397:350|353:347,1,86.9000026519776,2|8,1:2|0:2,0:0:0:0:
234,214,54654,2,0,P|269:236|289:275,1,86.9000026519776,2|0,1:2|1:0,0:0:0:0:
115,305,54973,2,0,L|210:288,1,86.9000026519776,2|8,1:2|0:2,0:0:0:0:
59,236,55293,1,10,0:2:0:0:
42,233,55372,1,8,0:2:0:0:
24,229,55452,6,0,P|4:190|8:148,1,86.9000026519776,4|0,1:2|0:0,0:0:0:0:
92,0,55771,2,0,L|75:95,1,86.9000026519776,10|0,0:2|0:0,0:0:0:0:
188,223,56090,1,2,1:2:0:0:
252,53,56250,2,0,P|208:46|170:62,1,86.9000026519776,2|8,1:2|0:2,0:0:0:0:
276,207,56569,6,0,P|319:213|358:195,1,86.9000026519776,2|0,1:2|0:0,0:0:0:0:
421,34,56888,2,0,P|394:68|388:110,1,86.9000026519776,2|8,1:2|0:2,0:0:0:0:
498,246,57207,2,0,P|481:205|448:180,1,86.9000026519776,2|0,1:2|0:0,0:0:0:0:
260,296,57527,2,0,B|213:315|213:315|92:296,1,173.800005303955,2|0,1:2|0:0,0:0:0:0:
75,129,58005,6,0,P|78:171|58:210,1,86.9000026519776,2|0,1:2|0:0,0:0:0:0:
7,73,58324,2,0,P|40:46|83:41,1,86.9000026519776,10|0,0:2|0:0,0:0:0:0:
227,154,58644,1,2,1:2:0:0:
75,129,58803,1,2,1:2:0:0:
175,8,58963,1,10,0:2:0:0:
159,211,59122,6,0,L|142:306,1,86.9000026519776,6|0,1:2|0:0,0:0:0:0:
295,97,59442,2,0,L|278:2,1,86.9000026519776,6|0,1:2|0:0,0:0:0:0:
227,154,59761,2,0,P|261:180|303:183,1,86.9000026519776,6|0,1:2|0:0,0:0:0:0:
455,160,60080,2,0,P|420:133|379:128,1,86.9000026519776,6|0,1:2|1:0,0:0:0:0:
381,384,60399,6,0,B|392:327|392:327|373:290|373:290|386:217,1,173.800005303955,6|0,1:2|1:2,0:0:0:0:
362,39,60878,5,8,0:2:0:0:
303,184,61037,1,0,1:2:0:0:
278,7,61197,5,8,0:2:0:0:
378,128,61356,1,0,1:2:0:0:
204,67,61516,6,0,L|109:84,1,86.9000026519776,8|0,0:2|1:2,0:0:0:0:
16,155,61835,2,0,L|111:172,1,86.9000026519776,8|0,0:2|1:2,0:0:0:0:
237,284,62154,5,8,0:2:0:0:
85,259,62314,1,0,1:2:0:0:
253,195,62473,5,8,0:2:0:0:
68,346,62633,1,0,1:2:0:0:
185,138,62793,6,0,P|220:111|261:106,1,86.9000026519776,8|0,0:2|1:2,0:0:0:0:
402,213,63112,2,0,P|361:196|336:163,1,86.9000026519776,8|0,0:2|1:2,0:0:0:0:
486,181,63431,5,8,0:2:0:0:
386,302,63590,1,0,1:2:0:0:
418,124,63750,5,8,0:2:0:0:
455,358,63910,1,0,1:2:0:0:
502,92,64069,2,0,P|478:54|441:35,1,86.9000026519776,10|0,0:2|1:2,0:0:0:0:
266,99,64388,5,2,1:2:0:0:
418,124,64548,1,12,0:2:0:0:
250,10,64707,1,12,0:2:0:0:
334,156,64867,1,0,1:2:0:0:
331,173,64946,1,0,1:2:0:0:
328,190,65027,2,0,L|311:284,1,86.9000026519776,2|0,1:2|1:2,0:0:0:0:
191,375,65346,1,2,1:2:0:0:
80,238,65505,2,0,L|166:223,1,86.9000026519776,2|0,1:2|1:2,0:0:0:0:
280,359,65824,5,10,0:2:0:0:
255,207,65984,2,0,P|238:167|204:141,1,86.9000026519776,10|0,0:2|0:0,0:0:0:0:
134,307,66303,1,10,0:2:0:0:
311,275,66463,2,0,P|337:240|342:198,1,86.9000026519776,10|0,0:2|0:0,0:0:0:0:
219,55,66782,6,0,L|202:149,1,86.9000026519776,14|0,0:2|1:2,0:0:0:0:
161,293,67101,2,0,L|144:199,1,86.9000026519776,10|0,0:2|0:0,0:0:0:0:
103,55,67420,2,0,L|86:149,1,86.9000026519776,10|0,0:2|0:0,0:0:0:0:
45,293,67739,2,0,L|28:199,1,86.9000026519776,10|0,0:2|0:0,0:0:0:0:
191,375,68059,5,14,0:2:0:0:
256,192,68138,12,2,72606,0:0:0:0:
