osu file format v14

[General]
AudioFilename: audio.mp3
AudioLeadIn: 0
PreviewTime: 44681
Countdown: 0
SampleSet: Soft
StackLeniency: 0.5
Mode: 0
LetterboxInBreaks: 0
WidescreenStoryboard: 1

[Editor]
DistanceSpacing: 1.5
BeatDivisor: 4
GridSize: 4
TimelineZoom: 1.7

[Metadata]
Title:Absolute Secret (ED Ver.)
TitleUnicode:Absolute Secret (ED Ver.)
Artist:Kyaru (CV: Tachibana Rika)
ArtistUnicode:キャル (CV: 立花理香)
Creator:PikAqours
Version:Log Off Now's Extra
Source:プリンセスコネクト!Re:Dive
Tags:Princess Connect! Re Dive プリコネR Priconne Karyl Japanese Video Game Ending Short Version Cygames TheSea NoFC Suyuko Log Off Now Lon Wanpachi Cycopton Elinor [_Eli_] StarCastler anime pop rock j-pop j-rock redive ed gacha purikone ORIGINAL SOUNDTRACK VOL.2 Lost ~ようこそ美食殿へ!~ ~yōkoso bishoku dono e!~ youkoso mobile
BeatmapID:2520908
BeatmapSetID:1187485

[Difficulty]
HPDrainRate:5.5
CircleSize:3.8
OverallDifficulty:9
ApproachRate:9.2
SliderMultiplier:1.4
SliderTickRate:1

[Events]
//Background and Video events
0,0,"bglon.jpg",0,0
//Break Periods
//Storyboard Layer 0 (Background)
//Storyboard Layer 1 (Fail)
//Storyboard Layer 2 (Pass)
//Storyboard Layer 3 (Foreground)
//Storyboard Layer 4 (Overlay)
//Storyboard Sound Samples

[TimingPoints]
559,319.148936170213,4,2,1,55,1,0
559,-100,4,2,1,55,0,0
9096,-100,4,2,1,55,0,0
9176,-100,4,2,1,80,0,0
9495,-100,4,2,1,80,0,0
9574,-100,4,2,1,80,0,0
9734,-100,4,2,1,80,0,0
9814,-83.3333333333333,4,2,1,80,0,0
13404,-83.3333333333333,4,2,1,80,0,0
13484,-83.3333333333333,4,2,1,80,0,0
14282,-133.333333333333,4,2,1,65,0,0
14601,-125,4,2,1,60,0,0
24495,-100,4,2,1,60,0,0
24734,-125,4,2,1,60,0,0
24814,-100,4,2,1,70,0,0
25053,-100,4,2,1,70,0,0
25133,-100,4,2,1,70,0,0
29840,-100,4,2,1,70,0,0
29920,-100,4,2,1,70,0,0
32713,-100,4,2,1,70,0,0
32793,-100,4,2,1,70,0,0
35027,-125,4,2,1,70,0,0
38777,-125,4,2,1,70,0,0
38856,-125,4,2,1,70,0,0
42686,-90.9090909090909,4,2,1,70,0,0
42926,-90.9090909090909,4,2,1,70,0,0
43005,-90.9090909090909,4,2,1,70,0,0
43963,-90.9090909090909,4,2,1,70,0,0
44761,-142.857142857143,4,2,1,60,0,0
45239,-83.3333333333333,4,2,1,85,0,1
45479,-83.3333333333333,4,2,1,85,0,1
45559,-83.3333333333333,4,2,1,85,0,1
47234,-83.3333333333333,4,2,1,85,0,1
47314,-83.3333333333333,4,2,1,85,0,1
48032,-83.3333333333333,4,2,1,85,0,1
48112,-83.3333333333333,4,2,1,85,0,1
49149,-83.3333333333333,4,2,1,85,0,1
49229,-83.3333333333333,4,2,1,85,0,1
49787,-83.3333333333333,4,2,1,85,0,1
49867,-83.3333333333333,4,2,1,85,0,1
51702,-83.3333333333333,4,2,1,85,0,1
51782,-83.3333333333333,4,2,1,85,0,1
53138,-83.3333333333333,4,2,1,85,0,1
53218,-83.3333333333333,4,2,1,85,0,1
55372,-83.3333333333333,4,2,1,85,0,0
55452,-83.3333333333333,4,2,1,85,0,1
55691,-83.3333333333333,4,2,1,85,0,1
55771,-83.3333333333333,4,2,1,85,0,1
56809,-83.3333333333333,4,2,1,85,0,1
56888,-83.3333333333333,4,2,1,85,0,1
58245,-83.3333333333333,4,2,1,85,0,1
58324,-83.3333333333333,4,2,1,85,0,1
59122,-83.3333333333333,4,2,1,85,0,0
59362,-83.3333333333333,4,2,1,5,0,0
59441,-83.3333333333333,4,2,1,85,0,0
59681,-83.3333333333333,4,2,1,5,0,0
59761,-83.3333333333333,4,2,1,85,0,0
60000,-83.3333333333333,4,2,1,5,0,0
60080,-83.3333333333333,4,2,1,85,0,0
60319,-83.3333333333333,4,2,1,5,0,0
60399,-83.3333333333333,4,2,1,85,0,1
60638,-83.3333333333333,4,2,1,85,0,1
60718,-83.3333333333333,4,2,1,85,0,1
65665,-83.3333333333333,4,2,1,85,0,0
65904,-83.3333333333333,4,2,1,85,0,0
65984,-83.3333333333333,4,2,1,85,0,0
66223,-83.3333333333333,4,2,1,85,0,0
66303,-83.3333333333333,4,2,1,85,0,0
68138,-83.3333333333333,4,2,1,50,0,0

[Colours]
Combo1 : 159,32,77
Combo2 : 128,128,255

[HitObjects]
45,357,1356,6,0,L|35:281,1,70,2|2,0:2|0:2,0:0:0:0:
102,225,1676,1,2,0:2:0:0:
165,296,1835,2,0,P|202:275|261:273,1,70
288,194,2154,2,0,P|268:235|311:329,1,140,2|2,0:2|0:2,0:0:0:0:
417,239,2633,2,0,L|325:253,1,70,2|0,0:2|0:0,0:0:0:0:
213,152,2952,6,0,L|282:162,1,70,2|0,0:2|0:0,0:0:0:0:
403,267,3271,2,0,L|311:281,1,70,2|0,0:2|0:0,0:0:0:0:
197,174,3590,2,0,L|266:184,1,70,2|0,0:2|0:0,0:0:0:0:
340,136,3910,1,2,0:2:0:0:
291,67,4069,1,2,0:2:0:0:
439,1,4229,2,0,L|425:146,1,140,2|0,0:2|0:0,0:0:0:0:
280,280,4707,6,0,L|272:210,1,70,2|0,0:2|0:0,0:0:0:0:
340,136,5027,1,2,0:2:0:0:
249,266,5186,2,0,L|241:196,1,70,2|0,0:2|0:0,0:0:0:0:
278,57,5505,2,0,P|242:90|202:98,1,70,2|0,0:2|0:0,0:0:0:0:
86,2,5824,2,0,P|130:21|154:54,1,70,2|0,0:2|0:0,0:0:0:0:
94,208,6144,2,0,B|57:170|57:170|72:77,1,140,2|2,0:2|0:2,0:0:0:0:
152,142,6622,1,2,0:2:0:0:
35,273,6782,1,2,0:2:0:0:
256,192,6941,12,4,9176,0:3:0:0:
171,78,9495,6,0,P|188:129|188:157,1,70,6|2,1:2|0:2,0:0:0:0:
54,329,9814,2,0,P|93:296|184:298,1,125.999996154785,10|0,0:2|0:2,0:0:0:0:
199,307,10133,2,0,P|205:259|220:213,1,83.9999974365235,2|2,1:2|1:2,0:0:0:0:
104,132,10452,1,10,0:2:0:0:
320,22,10612,6,0,B|283:67|283:67|297:191,1,167.999994873047,2|2,1:2|1:2,0:0:0:0:
470,77,11090,2,0,L|366:93,1,83.9999974365235,10|0,0:2|0:0,0:0:0:0:
364,122,11330,1,0,1:0:0:0:
364,122,11410,2,0,L|260:106,1,83.9999974365235,2|2,1:2|1:2,0:0:0:0:
163,9,11729,2,0,P|190:54|186:97,1,83.9999974365235,10|0,0:2|0:0,0:0:0:0:
139,298,12048,5,14,0:2:0:0:
90,79,12207,1,0,1:2:0:0:
239,235,12367,1,0,1:2:0:0:
291,19,12527,5,14,0:2:0:0:
358,224,12686,1,0,1:2:0:0:
208,122,12846,1,2,1:2:0:0:
431,48,13005,5,14,0:2:0:0:
378,324,13165,1,6,1:2:0:0:
394,345,13484,5,10,0:2:0:0:
450,34,13644,1,10,0:2:0:0:
330,245,13803,1,10,0:2:0:0:
283,6,13963,1,10,0:2:0:0:
241,104,14441,1,8,0:3:0:0:
241,104,14521,1,8,0:3:0:0:
241,104,14601,6,0,P|193:75|135:84,1,112,4|2,1:2|1:2,0:0:0:0:
163,218,15080,2,0,L|175:151,1,56,2|0,0:2|1:2,0:0:0:0:
56,67,15399,2,0,L|68:134,1,56,2|0,0:2|1:2,0:0:0:0:
14,200,15718,1,2,0:2:0:0:
78,269,15878,6,0,L|58:379,3,112,0|0|0|2,1:2|1:2|1:2|1:2,0:0:0:0:
153,323,16995,1,2,0:2:0:0:
224,373,17154,2,0,P|253:345|326:341,1,112,2|2,1:2|1:2,0:0:0:0:
412,271,17633,2,0,L|401:344,1,56,2|0,0:2|1:2,0:0:0:0:
330,247,17952,2,0,L|319:174,1,56,2|0,0:2|1:2,0:0:0:0:
387,114,18271,1,2,0:2:0:0:
467,160,18431,6,0,L|452:273,2,112,0|0|0,1:2|1:2|1:2,0:0:0:0:
387,114,19229,1,2,0:2:0:0:
498,9,19388,1,2,1:2:0:0:
480,127,19548,1,2,0:2:0:0:
383,28,19707,6,0,B|342:37|325:57|325:57|297:43|260:53,1,112,2|2,1:2|1:2,0:0:0:0:
254,175,20186,2,0,P|279:139|279:109,1,56,2|0,0:2|1:2,0:0:0:0:
192,52,20505,2,0,L|201:127,1,56,2|0,0:2|1:2,0:0:0:0:
69,191,20824,2,0,P|110:173|180:203,1,112,2|0,0:2|0:0,0:0:0:0:
109,315,21303,2,0,L|118:240,1,56,2|0,1:2|0:0,0:0:0:0:
189,347,21622,2,0,L|198:272,1,56,2|0,1:2|0:0,0:0:0:0:
271,373,21941,2,0,L|280:298,1,56,2|0,1:2|0:0,0:0:0:0:
373,240,22261,6,0,L|359:351,3,112,2|0|0|0,1:2|1:2|1:2|1:2,0:0:0:0:
280,296,23378,1,0,0:0:0:0:
458,195,23537,5,8,1:2:0:0:
441,362,23697,1,0,1:2:0:0:
337,164,23856,5,8,0:2:0:0:
364,327,24016,1,0,1:2:0:0:
451,104,24176,5,8,0:2:0:0:
283,249,24335,1,0,1:2:0:0:
460,341,24495,2,0,L|451:268,1,70,10|2,0:2|0:0,0:0:0:0:
359,83,24814,6,0,B|266:76|304:120|203:108,1,140,6|10,1:2|0:2,0:0:0:0:
35,31,25293,2,0,L|43:100,1,70,2|0,0:2|0:0,0:0:0:0:
63,191,25612,1,2,1:2:0:0:
137,99,25771,1,8,0:2:0:0:
208,218,25931,6,0,P|171:195|130:188,1,70,2|0,0:2|1:2,0:0:0:0:
310,84,26250,1,0,0:0:0:0:
310,84,26410,2,0,L|292:230,1,140,8|0,0:2|0:0,0:0:0:0:
222,117,26888,1,0,1:2:0:0:
391,49,27048,1,10,0:2:0:0:
377,176,27207,1,2,0:2:0:0:
391,24,27367,6,0,P|344:48|307:52,1,70,2|0,1:2|0:0,0:0:0:0:
178,11,27686,1,10,0:2:0:0:
272,122,27846,2,0,P|225:98|188:94,1,70,2|0,0:2|0:0,0:0:0:0:
65,135,28165,1,2,1:2:0:0:
178,11,28324,1,8,0:2:0:0:
208,186,28484,6,0,L|126:177,1,70,2|0,0:2|1:2,0:0:0:0:
54,110,28803,1,0,0:0:0:0:
13,268,28963,2,0,P|53:257|146:306,1,140,8|0,0:2|0:0,0:0:0:0:
54,366,29441,1,0,1:2:0:0:
88,223,29601,2,0,P|92:172|82:145,1,70,10|0,0:2|0:0,0:0:0:0:
172,296,29920,6,0,B|244:295|216:335|312:327,1,140,2|10,1:2|0:2,0:0:0:0:
309,182,30399,2,0,P|283:224|283:254,1,70,2|0,0:2|0:0,0:0:0:0:
379,367,30718,1,0,1:2:0:0:
443,208,30878,1,8,0:2:0:0:
366,243,31037,1,0,0:0:0:0:
465,363,31197,6,0,L|455:287,1,70,2|0,1:2|0:0,0:0:0:0:
442,127,31516,2,0,P|406:169|302:148,1,140,8|0,0:2|0:0,0:0:0:0:
278,100,31995,1,0,1:2:0:0:
381,18,32154,1,10,0:2:0:0:
364,98,32314,1,2,0:2:0:0:
186,16,32473,6,0,L|199:96,1,70,0|0,1:2|0:0,0:0:0:0:
260,222,32793,2,0,P|224:180|120:201,1,140,8|0,0:2|0:0,0:0:0:0:
67,241,33271,1,0,1:2:0:0:
171,329,33431,2,0,L|184:249,1,70,8|0,0:2|0:0,0:0:0:0:
47,148,33750,5,0,1:2:0:0:
80,326,33910,1,0,0:0:0:0:
169,157,34069,1,8,1:2:0:0:
7,251,34229,1,0,0:0:0:0:
185,353,34388,1,0,1:2:0:0:
102,243,34548,2,0,L|181:254,1,70,0|10,1:2|0:2,0:0:0:0:
356,267,34867,1,4,0:3:0:0:
213,345,35027,6,0,P|259:331|333:360,1,112,6|0,1:2|0:0,0:0:0:0:
416,216,35505,2,0,L|402:335,1,112,8|0,0:2|0:0,0:0:0:0:
326,245,35984,1,0,1:2:0:0:
510,152,36303,5,0,0:0:0:0:
510,152,36463,2,0,L|496:271,1,112,8|0,0:2|0:0,0:0:0:0:
344,165,36941,1,0,1:2:0:0:
430,126,37101,1,0,1:2:0:0:
410,270,37261,2,0,L|418:198,1,56,10|0,0:2|0:0,0:0:0:0:
391,40,37580,6,0,P|365:70|288:70,1,112,2|2,1:2|0:2,0:0:0:0:
217,156,38059,2,0,L|203:37,1,112,10|2,0:2|0:2,0:0:0:0:
306,162,38537,1,2,1:2:0:0:
110,236,38856,5,0,0:0:0:0:
110,236,39016,2,0,L|124:117,1,112,8|0,0:2|0:0,0:0:0:0:
196,258,39495,1,0,1:2:0:0:
29,166,39654,1,0,1:2:0:0:
213,114,39814,2,0,L|206:169,1,56,10|0,0:2|0:0,0:0:0:0:
127,319,40133,6,0,P|96:286|17:285,1,112,2|0,1:2|0:0,0:0:0:0:
249,246,40612,2,0,L|235:357,1,112,8|0,0:2|0:0,0:0:0:0:
80,148,41090,2,0,P|111:181|190:182,1,112,0|0,1:2|0:0,0:0:0:0:
352,83,41569,2,0,L|338:194,1,112,8|0,0:2|0:0,0:0:0:0:
326,321,42048,1,0,1:2:0:0:
250,134,42207,1,0,1:2:0:0:
496,233,42367,1,10,0:2:0:0:
477,256,42686,6,0,L|388:244,1,77.0000023498536,6|0,1:2|0:0,0:0:0:0:
206,230,43005,1,0,1:2:0:0:
359,166,43165,1,0,1:2:0:0:
285,332,43324,1,0,1:2:0:0:
198,108,43484,1,0,1:2:0:0:
395,268,43644,1,0,1:2:0:0:
131,375,43803,1,0,1:2:0:0:
332,169,43963,6,0,L|323:235,1,38.5000011749268,0|0,1:2|1:0,0:0:0:0:
208,351,44122,2,0,L|199:285,1,38.5000011749268,0|0,1:2|1:2,0:0:0:0:
432,131,44282,1,0,1:2:0:0:
432,131,44362,1,0,1:2:0:0:
432,131,44441,2,0,L|423:197,1,38.5000011749268,0|0,1:2|0:0,0:0:0:0:
365,234,45239,6,0,P|316:204|274:203,1,83.9999974365235,4|0,1:2|0:0,0:0:0:0:
284,383,45559,2,0,L|297:290,1,83.9999974365235,10|0,0:2|0:0,0:0:0:0:
256,109,45878,1,2,1:2:0:0:
206,271,46037,1,2,1:2:0:0:
159,64,46197,1,8,0:2:0:0:
341,200,46356,6,0,P|390:170|432:169,1,83.9999974365235,2|0,1:2|0:0,0:0:0:0:
424,345,46676,2,0,L|411:252,1,83.9999974365235,2|8,1:2|0:2,0:0:0:0:
256,109,46995,2,0,L|243:202,1,83.9999974365235,2|0,1:2|0:0,0:0:0:0:
301,365,47314,1,2,1:2:0:0:
394,144,47473,1,10,0:2:0:0:
203,293,47633,6,0,P|149:222|49:252,1,167.999994873047,2|0,0:2|0:0,0:0:0:0:
113,384,48112,2,0,B|126:342|126:342|120:295,1,83.9999974365235,10|0,0:2|0:0,0:0:0:0:
0,188,48431,1,2,1:2:0:0:
39,340,48590,1,2,1:2:0:0:
200,239,48750,1,8,0:2:0:0:
91,115,48910,6,0,L|104:208,1,83.9999974365235,2|0,1:2|0:0,0:0:0:0:
205,355,49229,2,0,L|218:262,1,83.9999974365235,2|8,1:2|0:2,0:0:0:0:
174,59,49548,2,0,L|187:152,1,83.9999974365235,2|0,1:2|0:0,0:0:0:0:
318,290,49867,1,2,1:2:0:0:
132,216,50027,1,10,0:2:0:0:
381,128,50186,1,2,1:2:0:0:
381,128,50266,1,0,1:0:0:0:
381,128,50346,6,0,L|368:221,1,83.9999974365235,0|0,1:2|0:0,0:0:0:0:
226,340,50665,2,0,P|266:313|322:316,1,83.9999974365235,8|0,0:2|0:0,0:0:0:0:
499,366,50984,1,2,1:2:0:0:
461,205,51144,1,0,1:2:0:0:
395,342,51303,1,10,0:2:0:0:
347,176,51463,6,0,B|253:164|277:232|174:217,1,167.999994873047,2|0,1:2|1:2,0:0:0:0:
74,124,51941,1,8,0:2:0:0:
215,31,52101,2,0,L|202:124,1,83.9999974365235,0|0,1:2|0:0,0:0:0:0:
178,309,52420,1,2,1:2:0:0:
58,221,52580,1,10,0:2:0:0:
289,152,52739,1,2,0:2:0:0:
280,365,52899,6,0,L|267:272,1,83.9999974365235,2|0,1:2|0:0,0:0:0:0:
136,168,53218,2,0,P|185:198|227:199,1,83.9999974365235,8|0,0:2|0:0,0:0:0:0:
374,57,53537,1,2,1:2:0:0:
346,232,53697,1,0,1:2:0:0:
203,114,53856,1,8,0:2:0:0:
472,24,54016,6,0,L|459:117,1,83.9999974365235,2|0,1:2|0:0,0:0:0:0:
381,325,54335,2,0,L|368:232,1,83.9999974365235,2|8,1:2|0:2,0:0:0:0:
343,44,54654,1,2,1:2:0:0:
464,224,54814,1,0,1:0:0:0:
494,18,54973,1,2,1:2:0:0:
367,275,55133,1,8,0:0:0:0:
367,283,55212,1,8,0:0:0:0:
368,292,55292,1,10,0:0:0:0:
370,301,55372,1,8,0:0:0:0:
370,310,55452,6,0,P|322:283|270:289,1,83.9999974365235,4|0,1:2|0:0,0:0:0:0:
193,89,55771,2,0,L|180:182,1,83.9999974365235,10|0,0:2|0:0,0:0:0:0:
158,357,56090,1,2,1:2:0:0:
284,190,56250,1,2,1:2:0:0:
67,260,56410,1,8,0:2:0:0:
275,374,56569,6,0,L|262:281,1,83.9999974365235,2|0,1:2|0:0,0:0:0:0:
111,83,56888,1,2,1:2:0:0:
172,277,57048,1,8,0:2:0:0:
270,104,57207,2,0,P|213:129|178:126,1,83.9999974365235,2|0,1:2|0:0,0:0:0:0:
3,85,57527,1,2,1:2:0:0:
203,9,57686,1,8,0:2:0:0:
118,207,57846,1,0,1:0:0:0:
118,207,57926,1,0,1:0:0:0:
118,207,58005,6,0,P|61:182|26:185,1,83.9999974365235,2|0,1:2|0:0,0:0:0:0:
62,360,58324,2,0,L|49:267,1,83.9999974365235,10|0,0:2|0:0,0:0:0:0:
205,137,58644,1,2,1:2:0:0:
157,310,58803,1,2,1:2:0:0:
69,70,58963,1,10,0:2:0:0:
258,238,59122,6,0,P|321:195|385:206,1,125.999996154785,6|0,1:2|0:0,0:0:0:0:
438,250,59441,2,0,B|405:199|405:199|426:125,1,125.999996154785,6|0,1:2|0:0,0:0:0:0:
443,52,59761,2,0,B|359:45|391:90|298:81,1,125.999996154785,6|0,1:2|0:0,0:0:0:0:
259,33,60080,2,0,B|292:84|292:84|271:158,1,125.999996154785,6|0,1:2|0:0,0:0:0:0:
117,94,60399,2,0,L|216:103,1,83.9999974365235,6|0,1:2|0:0,0:0:0:0:
387,28,60718,5,0,1:2:0:0:
351,249,60878,1,8,0:2:0:0:
217,68,61037,5,0,1:2:0:0:
283,331,61197,1,8,0:2:0:0:
308,92,61356,5,0,1:2:0:0:
198,274,61516,1,8,0:2:0:0:
134,39,61676,1,0,1:2:0:0:
372,226,61835,6,0,P|443:199|475:198,1,83.9999974365235,8|0,0:2|1:2,0:0:0:0:
205,374,62154,2,0,P|134:347|102:346,1,83.9999974365235,8|0,0:2|1:2,0:0:0:0:
325,135,62473,5,8,0:2:0:0:
367,349,62633,1,0,1:2:0:0:
440,105,62793,5,8,0:2:0:0:
280,288,62952,1,0,1:2:0:0:
164,74,63112,6,0,L|278:88,1,83.9999974365235,8|0,0:2|1:2,0:0:0:0:
381,329,63431,1,8,0:2:0:0:
413,37,63590,1,0,1:2:0:0:
263,317,63750,5,8,0:2:0:0:
160,40,63910,1,0,1:2:0:0:
405,190,64069,5,10,0:2:0:0:
99,268,64229,1,0,1:2:0:0:
250,89,64388,5,2,1:2:0:0:
205,373,64548,1,12,0:2:0:0:
132,19,64707,1,12,0:2:0:0:
348,280,64867,5,0,1:2:0:0:
348,280,64947,1,0,1:2:0:0:
348,280,65027,2,0,L|360:165,1,83.9999974365235,2|0,1:2|1:2,0:0:0:0:
172,92,65346,6,0,L|184:159,1,41.9999987182618,2|0,1:2|1:2,0:0:0:0:
241,224,65505,2,0,L|253:157,1,41.9999987182618,2|0,1:2|1:2,0:0:0:0:
265,96,65665,1,0,1:2:0:0:
151,293,65824,5,10,0:2:0:0:
12,122,65984,2,0,L|107:135,1,83.9999974365235,10|0,0:2|0:0,0:0:0:0:
334,164,66303,5,10,0:2:0:0:
160,8,66463,2,0,L|173:103,1,83.9999974365235,10|0,0:2|0:0,0:0:0:0:
206,367,66782,5,14,0:2:0:0:
260,92,66941,1,0,1:2:0:0:
353,341,67101,1,10,0:2:0:0:
405,268,67420,5,10,0:2:0:0:
208,164,67739,1,10,0:2:0:0:
450,38,68059,1,14,0:2:0:0:
256,192,68138,12,2,72606,0:0:0:0:
