osu file format v14

[General]
AudioFilename: audio.mp3
AudioLeadIn: 0
PreviewTime: 44761
Countdown: 0
SampleSet: Normal
StackLeniency: 0.2
Mode: 1
LetterboxInBreaks: 0
WidescreenStoryboard: 1

[Editor]
DistanceSpacing: 1
BeatDivisor: 2
GridSize: 32
TimelineZoom: 1.1

[Metadata]
Title:Absolute Secret (ED Ver.)
TitleUnicode:Absolute Secret (ED Ver.)
Artist:Kyaru (CV: Tachibana Rika)
ArtistUnicode:キャル (CV: 立花理香)
Creator:Apis035
Version:Oni
Source:プリンセスコネクト!Re:Dive
Tags:princess connect! redive プリコネR priconne purikone purinsesu konekuto karyl video game ending short version japanese pop jpop j-pop rock jrock j-rock cygames
BeatmapID:2672447
BeatmapSetID:1287191

[Difficulty]
HPDrainRate:5
CircleSize:2
OverallDifficulty:5.5
ApproachRate:10
SliderMultiplier:1.4
SliderTickRate:1

[Events]
//Background and Video events
0,0,"kyaru.jpg",0,100
//Break Periods
//Storyboard Layer 0 (Background)
//Storyboard Layer 1 (Fail)
//Storyboard Layer 2 (Pass)
//Storyboard Layer 3 (Foreground)
//Storyboard Layer 4 (Overlay)
//Storyboard Sound Samples

[TimingPoints]
559,319.148936170213,4,1,0,75,1,0
9495,-100,4,1,0,90,0,0
14601,-100,4,1,0,80,0,0
24814,-100,4,1,0,85,0,0
45239,-95.2380952380952,4,1,0,90,0,1
68059,-95.2380952380952,4,1,0,80,0,0
68856,-95.2380952380952,4,1,0,70,0,0
69495,-95.2380952380952,4,1,0,60,0,0
70133,-95.2380952380952,4,1,0,50,0,0
70771,-95.2380952380952,4,1,0,40,0,0
71410,-95.2380952380952,4,1,0,30,0,0
72048,-95.2380952380952,4,1,0,20,0,0

[HitObjects]
256,192,1356,5,0,0:0:0:0:
256,192,1516,1,0,0:0:0:0:
256,192,1676,1,8,0:0:0:0:
256,192,2154,1,8,0:0:0:0:
256,192,2473,1,0,0:0:0:0:
256,192,2633,1,8,0:0:0:0:
256,192,2952,1,0,0:0:0:0:
256,192,3271,1,0,0:0:0:0:
256,192,3590,1,8,0:0:0:0:
256,192,3910,1,8,0:0:0:0:
256,192,4069,1,0,0:0:0:0:
256,192,4229,1,8,0:0:0:0:
256,192,4707,1,8,0:0:0:0:
256,192,5027,1,8,0:0:0:0:
256,192,5186,1,0,0:0:0:0:
256,192,5505,1,8,0:0:0:0:
256,192,5824,1,0,0:0:0:0:
256,192,6144,1,8,0:0:0:0:
256,192,6463,1,0,0:0:0:0:
256,192,6622,1,8,0:0:0:0:
256,192,6782,1,0,0:0:0:0:
256,192,6941,12,0,9176,0:0:0:0:
256,192,9495,5,4,0:0:0:0:
256,192,9814,1,8,0:0:0:0:
256,192,9973,1,0,0:0:0:0:
256,192,10053,1,0,0:0:0:0:
256,192,10133,1,0,0:0:0:0:
256,192,10293,1,0,0:0:0:0:
256,192,10452,1,8,0:0:0:0:
256,192,10612,1,8,0:0:0:0:
256,192,10691,1,8,0:0:0:0:
256,192,10771,1,0,0:0:0:0:
256,192,10931,1,0,0:0:0:0:
256,192,11090,1,8,0:0:0:0:
256,192,11410,1,0,0:0:0:0:
256,192,11569,1,0,0:0:0:0:
256,192,11729,1,8,0:0:0:0:
256,192,12048,1,12,0:0:0:0:
256,192,12207,1,0,0:0:0:0:
256,192,12367,1,0,0:0:0:0:
256,192,12527,1,12,0:0:0:0:
256,192,12686,1,0,0:0:0:0:
256,192,12846,1,0,0:0:0:0:
256,192,13005,1,12,0:0:0:0:
256,192,13165,1,0,0:0:0:0:
256,192,13484,1,12,0:0:0:0:
256,192,13644,1,12,0:0:0:0:
256,192,13803,1,12,0:0:0:0:
256,192,13963,1,12,0:0:0:0:
256,192,14282,1,0,0:0:0:0:
256,192,14441,1,8,0:0:0:0:
256,192,14521,1,8,0:0:0:0:
256,192,14601,1,4,0:0:0:0:
256,192,14920,1,8,0:0:0:0:
256,192,15080,1,0,0:0:0:0:
256,192,15399,1,8,0:0:0:0:
256,192,15718,1,8,0:0:0:0:
256,192,15878,1,0,0:0:0:0:
256,192,16197,1,0,0:0:0:0:
256,192,16516,1,0,0:0:0:0:
256,192,16835,1,0,0:0:0:0:
256,192,16995,1,8,0:0:0:0:
256,192,17154,1,0,0:0:0:0:
256,192,17473,1,8,0:0:0:0:
256,192,17633,1,0,0:0:0:0:
256,192,17952,1,8,0:0:0:0:
256,192,18271,1,0,0:0:0:0:
256,192,18431,1,0,0:0:0:0:
256,192,18750,1,0,0:0:0:0:
256,192,19069,1,0,0:0:0:0:
256,192,19229,1,8,0:0:0:0:
256,192,19388,1,0,0:0:0:0:
256,192,19548,1,8,0:0:0:0:
256,192,19707,1,8,0:0:0:0:
256,192,20027,1,8,0:0:0:0:
256,192,20186,1,0,0:0:0:0:
256,192,20505,1,0,0:0:0:0:
256,192,20665,1,8,0:0:0:0:
256,192,20824,1,0,0:0:0:0:
256,192,20984,1,8,0:0:0:0:
256,192,21303,1,8,0:0:0:0:
256,192,21622,1,8,0:0:0:0:
256,192,21782,1,0,0:0:0:0:
256,192,21941,1,8,0:0:0:0:
256,192,22261,1,0,0:0:0:0:
256,192,22580,1,8,0:0:0:0:
256,192,22899,1,0,0:0:0:0:
256,192,23059,1,0,0:0:0:0:
256,192,23218,1,8,0:0:0:0:
256,192,23537,1,8,0:0:0:0:
256,192,23697,1,0,0:0:0:0:
256,192,23856,1,8,0:0:0:0:
256,192,24016,1,0,0:0:0:0:
256,192,24176,1,8,0:0:0:0:
256,192,24335,1,0,0:0:0:0:
256,192,24495,1,8,0:0:0:0:
256,192,24654,1,8,0:0:0:0:
256,192,24734,1,8,0:0:0:0:
256,192,24814,1,4,0:0:0:0:
256,192,25133,1,8,0:0:0:0:
256,192,25293,1,0,0:0:0:0:
256,192,25372,1,0,0:0:0:0:
256,192,25452,1,0,0:0:0:0:
256,192,25612,1,0,0:0:0:0:
256,192,25771,1,8,0:0:0:0:
256,192,25931,1,0,0:0:0:0:
256,192,26250,1,0,0:0:0:0:
256,192,26410,1,8,0:0:0:0:
256,192,26729,1,0,0:0:0:0:
256,192,26888,1,0,0:0:0:0:
256,192,27048,1,8,0:0:0:0:
256,192,27207,1,0,0:0:0:0:
256,192,27287,1,0,0:0:0:0:
256,192,27367,1,0,0:0:0:0:
256,192,27686,1,8,0:0:0:0:
256,192,27846,1,0,0:0:0:0:
256,192,27926,1,0,0:0:0:0:
256,192,28005,1,0,0:0:0:0:
256,192,28165,1,0,0:0:0:0:
256,192,28324,1,8,0:0:0:0:
256,192,28484,1,8,0:0:0:0:
256,192,28803,1,0,0:0:0:0:
256,192,28963,1,8,0:0:0:0:
256,192,29282,1,0,0:0:0:0:
256,192,29441,1,0,0:0:0:0:
256,192,29601,1,8,0:0:0:0:
256,192,29761,1,8,0:0:0:0:
256,192,29840,1,8,0:0:0:0:
256,192,29920,1,0,0:0:0:0:
256,192,30080,1,0,0:0:0:0:
256,192,30239,1,8,0:0:0:0:
256,192,30399,1,0,0:0:0:0:
256,192,30479,1,0,0:0:0:0:
256,192,30559,1,0,0:0:0:0:
256,192,30718,1,0,0:0:0:0:
256,192,30878,1,8,0:0:0:0:
256,192,31197,1,0,0:0:0:0:
256,192,31356,1,0,0:0:0:0:
256,192,31516,1,8,0:0:0:0:
256,192,31676,1,8,0:0:0:0:
256,192,31755,1,8,0:0:0:0:
256,192,31835,1,0,0:0:0:0:
256,192,31995,1,0,0:0:0:0:
256,192,32154,1,8,0:0:0:0:
256,192,32314,1,0,0:0:0:0:
256,192,32394,1,0,0:0:0:0:
256,192,32473,1,0,0:0:0:0:
256,192,32633,1,0,0:0:0:0:
256,192,32793,1,8,0:0:0:0:
256,192,32952,1,0,0:0:0:0:
256,192,33271,1,0,0:0:0:0:
256,192,33431,1,8,0:0:0:0:
256,192,33590,1,0,0:0:0:0:
256,192,33670,1,0,0:0:0:0:
256,192,33750,1,8,0:0:0:0:
256,192,33910,1,0,0:0:0:0:
256,192,34069,1,8,0:0:0:0:
256,192,34229,1,0,0:0:0:0:
256,192,34388,1,8,0:0:0:0:
256,192,34548,1,8,0:0:0:0:
256,192,34707,1,0,0:0:0:0:
256,192,34867,1,0,0:0:0:0:
256,192,35027,1,4,0:0:0:0:
256,192,35346,1,0,0:0:0:0:
256,192,35505,1,8,0:0:0:0:
256,192,35824,1,0,0:0:0:0:
256,192,35984,1,0,0:0:0:0:
256,192,36303,1,0,0:0:0:0:
256,192,36463,1,8,0:0:0:0:
256,192,36782,1,0,0:0:0:0:
256,192,36941,1,0,0:0:0:0:
256,192,37101,1,0,0:0:0:0:
256,192,37261,1,8,0:0:0:0:
256,192,37580,1,0,0:0:0:0:
256,192,37899,1,0,0:0:0:0:
256,192,38059,1,8,0:0:0:0:
256,192,38378,1,8,0:0:0:0:
256,192,38537,1,0,0:0:0:0:
256,192,38856,1,0,0:0:0:0:
256,192,39016,1,8,0:0:0:0:
256,192,39176,1,0,0:0:0:0:
256,192,39335,1,0,0:0:0:0:
256,192,39495,1,8,0:0:0:0:
256,192,39654,1,0,0:0:0:0:
256,192,39814,1,8,0:0:0:0:
256,192,40133,1,0,0:0:0:0:
256,192,40452,1,0,0:0:0:0:
256,192,40612,1,8,0:0:0:0:
256,192,40931,1,0,0:0:0:0:
256,192,41090,1,0,0:0:0:0:
256,192,41410,1,0,0:0:0:0:
256,192,41569,1,8,0:0:0:0:
256,192,41729,1,0,0:0:0:0:
256,192,41888,1,0,0:0:0:0:
256,192,42048,1,0,0:0:0:0:
256,192,42207,1,0,0:0:0:0:
256,192,42367,1,8,0:0:0:0:
256,192,42686,1,4,0:0:0:0:
256,192,43005,1,0,0:0:0:0:
256,192,43165,1,0,0:0:0:0:
256,192,43324,1,0,0:0:0:0:
256,192,43484,1,0,0:0:0:0:
256,192,43644,1,0,0:0:0:0:
256,192,43803,1,0,0:0:0:0:
256,192,43963,1,8,0:0:0:0:
256,192,44043,1,8,0:0:0:0:
256,192,44122,1,0,0:0:0:0:
256,192,44202,1,0,0:0:0:0:
256,192,44282,1,8,0:0:0:0:
256,192,44362,1,0,0:0:0:0:
256,192,44441,1,8,0:0:0:0:
256,192,44761,1,0,0:0:0:0:
256,192,44920,1,8,0:0:0:0:
256,192,45080,1,8,0:0:0:0:
256,192,45239,1,4,0:0:0:0:
256,192,45559,1,8,0:0:0:0:
256,192,45718,1,0,0:0:0:0:
256,192,45798,1,0,0:0:0:0:
256,192,45878,1,0,0:0:0:0:
256,192,46037,1,0,0:0:0:0:
256,192,46197,1,8,0:0:0:0:
256,192,46356,1,8,0:0:0:0:
256,192,46436,1,8,0:0:0:0:
256,192,46515,1,0,0:0:0:0:
256,192,46676,1,0,0:0:0:0:
256,192,46835,1,8,0:0:0:0:
256,192,46995,1,0,0:0:0:0:
256,192,47314,1,0,0:0:0:0:
256,192,47473,1,8,0:0:0:0:
256,192,47633,1,0,0:0:0:0:
256,192,47713,1,0,0:0:0:0:
256,192,47793,1,8,0:0:0:0:
256,192,47952,1,0,0:0:0:0:
256,192,48112,1,8,0:0:0:0:
256,192,48271,1,8,0:0:0:0:
256,192,48351,1,8,0:0:0:0:
256,192,48431,1,8,0:0:0:0:
256,192,48590,1,0,0:0:0:0:
256,192,48750,1,8,0:0:0:0:
256,192,48910,1,0,0:0:0:0:
256,192,49229,1,0,0:0:0:0:
256,192,49388,1,8,0:0:0:0:
256,192,49548,1,8,0:0:0:0:
256,192,49628,1,8,0:0:0:0:
256,192,49707,1,0,0:0:0:0:
256,192,49867,1,0,0:0:0:0:
256,192,50027,1,8,0:0:0:0:
256,192,50186,1,0,0:0:0:0:
256,192,50266,1,0,0:0:0:0:
256,192,50346,1,0,0:0:0:0:
256,192,50665,1,8,0:0:0:0:
256,192,50984,1,0,0:0:0:0:
256,192,51064,1,0,0:0:0:0:
256,192,51144,1,0,0:0:0:0:
256,192,51303,1,8,0:0:0:0:
256,192,51463,1,0,0:0:0:0:
256,192,51782,1,0,0:0:0:0:
256,192,51941,1,8,0:0:0:0:
256,192,52101,1,0,0:0:0:0:
256,192,52181,1,0,0:0:0:0:
256,192,52261,1,0,0:0:0:0:
256,192,52420,1,0,0:0:0:0:
256,192,52580,1,8,0:0:0:0:
256,192,52739,1,8,0:0:0:0:
256,192,52819,1,8,0:0:0:0:
256,192,52899,1,0,0:0:0:0:
256,192,53218,1,8,0:0:0:0:
256,192,53537,1,0,0:0:0:0:
256,192,53617,1,0,0:0:0:0:
256,192,53697,1,0,0:0:0:0:
256,192,53856,1,8,0:0:0:0:
256,192,54016,1,0,0:0:0:0:
256,192,54335,1,0,0:0:0:0:
256,192,54495,1,8,0:0:0:0:
256,192,54654,1,8,0:0:0:0:
256,192,54734,1,8,0:0:0:0:
256,192,54814,1,0,0:0:0:0:
256,192,54973,1,0,0:0:0:0:
256,192,55053,1,0,0:0:0:0:
256,192,55133,1,8,0:0:0:0:
256,192,55213,1,0,0:0:0:0:
256,192,55293,1,8,0:0:0:0:
256,192,55372,1,8,0:0:0:0:
256,192,55452,1,4,0:0:0:0:
256,192,55771,1,8,0:0:0:0:
256,192,55931,1,8,0:0:0:0:
256,192,56011,1,8,0:0:0:0:
256,192,56090,1,8,0:0:0:0:
256,192,56250,1,0,0:0:0:0:
256,192,56410,1,8,0:0:0:0:
256,192,56569,1,8,0:0:0:0:
256,192,56649,1,8,0:0:0:0:
256,192,56729,1,0,0:0:0:0:
256,192,56888,1,0,0:0:0:0:
256,192,57048,1,8,0:0:0:0:
256,192,57207,1,0,0:0:0:0:
256,192,57287,1,0,0:0:0:0:
256,192,57367,1,8,0:0:0:0:
256,192,57447,1,0,0:0:0:0:
256,192,57527,1,0,0:0:0:0:
256,192,57686,1,8,0:0:0:0:
256,192,58005,1,8,0:0:0:0:
256,192,58324,1,8,0:0:0:0:
256,192,58484,1,8,0:0:0:0:
256,192,58564,1,8,0:0:0:0:
256,192,58644,1,0,0:0:0:0:
256,192,58723,1,0,0:0:0:0:
256,192,58803,1,0,0:0:0:0:
256,192,58963,1,0,0:0:0:0:
256,192,59122,1,12,0:0:0:0:
256,192,59441,1,4,0:0:0:0:
256,192,59761,1,12,0:0:0:0:
256,192,60080,1,4,0:0:0:0:
256,192,60399,1,4,0:0:0:0:
256,192,60718,1,0,0:0:0:0:
256,192,60878,1,8,0:0:0:0:
256,192,61037,1,0,0:0:0:0:
256,192,61117,1,0,0:0:0:0:
256,192,61197,1,8,0:0:0:0:
256,192,61356,1,0,0:0:0:0:
256,192,61516,1,8,0:0:0:0:
256,192,61835,1,0,0:0:0:0:
256,192,61995,1,0,0:0:0:0:
256,192,62154,1,8,0:0:0:0:
256,192,62314,1,0,0:0:0:0:
256,192,62394,1,0,0:0:0:0:
256,192,62473,1,8,0:0:0:0:
256,192,62553,1,8,0:0:0:0:
256,192,62633,1,0,0:0:0:0:
256,192,62793,1,8,0:0:0:0:
256,192,62952,1,8,0:0:0:0:
256,192,63032,1,8,0:0:0:0:
256,192,63112,1,0,0:0:0:0:
256,192,63271,1,0,0:0:0:0:
256,192,63431,1,8,0:0:0:0:
256,192,63590,1,0,0:0:0:0:
256,192,63670,1,0,0:0:0:0:
256,192,63750,1,8,0:0:0:0:
256,192,63910,1,0,0:0:0:0:
256,192,64069,1,8,0:0:0:0:
256,192,64388,1,0,0:0:0:0:
256,192,64548,1,8,0:0:0:0:
256,192,64707,1,8,0:0:0:0:
256,192,65027,1,0,0:0:0:0:
256,192,65186,1,8,0:0:0:0:
256,192,65266,1,8,0:0:0:0:
256,192,65346,1,8,0:0:0:0:
256,192,65426,1,8,0:0:0:0:
256,192,65505,1,0,0:0:0:0:
256,192,65824,1,8,0:0:0:0:
256,192,65984,1,8,0:0:0:0:
256,192,66303,1,8,0:0:0:0:
256,192,66463,1,8,0:0:0:0:
256,192,66782,1,4,0:0:0:0:
256,192,67101,1,4,0:0:0:0:
256,192,67420,1,4,0:0:0:0:
256,192,67739,1,4,0:0:0:0:
256,192,68059,1,12,0:0:0:0:
256,192,68218,12,0,72606,0:0:0:0:
