osu file format v14

[General]
AudioFilename: audio.mp3
AudioLeadIn: 0
PreviewTime: 44681
Countdown: 0
SampleSet: Soft
StackLeniency: 0.7
Mode: 0
LetterboxInBreaks: 0
WidescreenStoryboard: 1

[Editor]
DistanceSpacing: 1.5
BeatDivisor: 4
GridSize: 32
TimelineZoom: 1.9

[Metadata]
Title:Absolute Secret (ED Ver.)
TitleUnicode:Absolute Secret (ED Ver.)
Artist:Kyaru (CV: Tachibana Rika)
ArtistUnicode:キャル (CV: 立花理香)
Creator:-Aqua
Version:Easy
Source:プリンセスコネクト!Re:Dive
Tags:Princess Cami Connect! Re Dive プリコネR Priconne Karyl Japanese Video Game Ending Short Version Cygames
BeatmapID:2442004
BeatmapSetID:1169535

[Difficulty]
HPDrainRate:2.5
CircleSize:3.2
OverallDifficulty:2.5
ApproachRate:4
SliderMultiplier:1
SliderTickRate:1

[Events]
//Background and Video events
0,0,"mordred.jpg",0,0
//Break Periods
//Storyboard Layer 0 (Background)
//Storyboard Layer 1 (Fail)
//Storyboard Layer 2 (Pass)
//Storyboard Layer 3 (Foreground)
//Storyboard Layer 4 (Overlay)
//Storyboard Sound Samples

[TimingPoints]
559,319.148936170213,4,2,1,55,1,0
9096,-100,4,2,1,5,0,0
9176,-100,4,2,1,55,0,0
9495,-100,4,2,1,70,0,1
9574,-100,4,2,1,70,0,0
9734,-100,4,2,1,5,0,0
9814,-100,4,2,1,70,0,0
13404,-100,4,2,1,5,0,0
13484,-100,4,2,1,70,0,0
14282,-100,4,2,1,40,0,0
14601,-100,4,2,1,50,0,0
24734,-100,4,2,1,5,0,0
24814,-100,4,2,1,60,0,0
25053,-100,4,2,1,5,0,0
25133,-100,4,2,1,60,0,0
29840,-100,4,2,1,5,0,0
29920,-100,4,2,1,60,0,0
32713,-100,4,2,1,5,0,0
32793,-100,4,2,1,60,0,0
35027,-100,4,2,1,50,0,0
38777,-100,4,2,1,5,0,0
38856,-100,4,2,1,50,0,0
42686,-100,4,2,1,70,0,0
42926,-100,4,2,1,5,0,0
43005,-100,4,2,1,50,0,0
43963,-100,4,2,1,75,0,0
45239,-100,4,2,1,85,0,1
45479,-100,4,2,1,5,0,1
45559,-100,4,2,1,85,0,1
47234,-100,4,2,1,5,0,1
47314,-100,4,2,1,85,0,1
48032,-100,4,2,1,5,0,1
48112,-100,4,2,1,85,0,1
49149,-100,4,2,1,5,0,1
49229,-100,4,2,1,85,0,1
49787,-100,4,2,1,5,0,1
49867,-100,4,2,1,85,0,1
51702,-100,4,2,1,5,0,1
51782,-100,4,2,1,85,0,1
53138,-100,4,2,1,5,0,1
53218,-100,4,2,1,85,0,1
55372,-100,4,2,1,85,0,0
55452,-100,4,2,1,85,0,1
55691,-100,4,2,1,5,0,1
55771,-100,4,2,1,85,0,1
56809,-100,4,2,1,5,0,1
56888,-100,4,2,1,85,0,1
58245,-100,4,2,1,5,0,1
58324,-100,4,2,1,85,0,1
59122,-100,4,2,1,85,0,0
59362,-100,4,2,1,5,0,0
59441,-100,4,2,1,85,0,0
59681,-100,4,2,1,5,0,0
59761,-100,4,2,1,85,0,0
60000,-100,4,2,1,5,0,0
60080,-100,4,2,1,85,0,0
60399,-100,4,2,1,85,0,1
60638,-100,4,2,1,5,0,1
60718,-100,4,2,1,85,0,1
65665,-100,4,2,1,80,0,0
65904,-100,4,2,1,5,0,0
65984,-100,4,2,1,80,0,0
66223,-100,4,2,1,5,0,0
66303,-100,4,2,1,80,0,0
68138,-100,4,2,1,60,0,0

[Colours]
Combo1 : 168,255,168
Combo2 : 255,168,255
Combo3 : 211,168,255

[HitObjects]
32,192,1835,6,0,P|72:156|135:166,1,100,2|0,0:0|0:0,0:0:0:0:
180,218,2473,1,2,0:0:0:0:
257,107,2952,2,0,P|244:65|227:-12,2,100,2|0|0,0:0|0:0|0:0,0:0:0:0:
321,169,3910,1,0,0:0:0:0:
368,92,4229,6,0,B|457:107|420:156|500:174,1,150,2|2,0:0|0:0,0:0:0:0:
505,260,5027,1,0,0:0:0:0:
412,358,5505,2,0,P|346:333|305:321,1,100,2|0,0:0|0:0,0:0:0:0:
293,237,6144,2,0,P|227:262|186:274,1,100,2|0,0:0|0:0,0:0:0:0:
169,355,6782,5,2,0:0:0:0:
169,355,9176,1,0,1:0:0:0:
83,325,9495,6,0,P|58:298|69:229,1,100,6|10,1:2|0:0,0:0:0:0:
127,176,10133,2,0,L|185:189,1,50,0|4,1:0|3:0,0:0:0:0:
228,259,10612,2,0,B|314:261|271:308|375:309,1,150,2|8,1:2|0:0,0:0:0:0:
398,225,11410,1,0,1:0:0:0:
462,287,11729,1,8,0:0:0:0:
509,210,12048,6,0,B|525:158|525:158|480:51,1,150,6|6,1:2|1:2,0:0:0:0:
407,29,12846,1,0,1:0:0:0:
348,97,13165,2,0,B|300:84|300:84|258:102|258:102|199:84,1,150,6|2,1:2|1:2,0:0:0:0:
142,150,13963,1,2,1:2:0:0:
89,77,14282,1,0,0:0:0:0:
31,146,14601,6,0,P|-6:177|33:266,1,150,6|0,1:2|0:2,0:0:0:0:
113,256,15399,1,0,0:0:0:0:
161,331,15718,2,0,B|222:336|249:374|249:374|334:362|308:248,1,250,0|2,0:0|1:2,0:0:0:0:
255,189,16835,1,0,1:0:0:0:
319,126,17154,6,0,B|374:104|374:104|460:139,1,150,2|0,1:2|0:0,0:0:0:0:
511,210,17952,1,0,0:0:0:0:
483,295,18271,2,0,B|407:280|372:336|372:336|342:389|261:371,1,250,0|2,0:0|1:2,0:0:0:0:
217,294,19388,1,0,1:0:0:0:
146,350,19707,6,0,P|77:335|-8:320,1,150,2|0,1:2|0:0,0:0:0:0:
0,230,20505,1,0,0:0:0:0:
70,173,20824,2,0,B|82:118|82:118|66:86|66:86|78:22,1,150,0|2,0:0|1:2,0:0:0:0:
162,0,21622,2,0,P|207:9|266:21,1,100,2|0,1:2|1:0,0:0:0:0:
292,104,22261,6,0,P|321:144|227:248,1,200,2|0,1:2|1:0,0:0:0:0:
174,196,23218,1,0,1:0:0:0:
101,249,23537,2,0,P|112:292|118:360,1,100,10|8,0:0|0:0,0:0:0:0:
200,383,24176,2,0,P|243:372|311:366,1,100,8|8,0:0|3:0,0:0:0:0:
314,277,24814,6,0,P|357:288|465:304,1,150,6|0,1:2|0:0,0:0:0:0:
506,225,25612,2,0,P|507:193|511:172,1,50,0|8,1:0|0:0,0:0:0:0:
457,102,26090,2,0,B|396:97|425:133|347:136,1,100,0|8,0:0|0:0,0:0:0:0:
313,208,26729,1,2,0:0:0:0:
242,152,27048,1,8,0:0:0:0:
198,230,27367,6,0,P|164:262|87:217,1,150,2|0,1:2|0:0,0:0:0:0:
128,136,28165,1,2,1:2:0:0:
50,90,28484,2,0,P|137:74|218:45,1,150,2|8,0:0|0:0,0:0:0:0:
262,115,29282,1,2,0:0:0:0:
327,53,29601,1,8,0:0:0:0:
392,114,29920,6,0,B|425:170|425:170|396:271,1,150,2|0,1:2|0:0,0:0:0:0:
451,326,30718,2,0,P|440:362|434:381,1,50,0|10,1:0|0:0,0:0:0:0:
346,381,31197,2,0,P|294:374|265:318,1,100,2|8,1:2|0:0,0:0:0:0:
193,286,31835,1,2,0:2:0:0:
134,353,32154,1,8,0:0:0:0:
54,310,32473,6,0,P|66:238|66:199,1,100,2|8,1:2|0:0,0:0:0:0:
116,136,33112,2,0,P|188:148|227:148,1,100,2|8,0:0|0:0,0:0:0:0:
273,216,33750,1,2,1:2:0:0:
342,158,34069,1,10,0:0:0:0:
395,230,34388,2,0,P|387:269|379:298,1,50,8|8,3:0|3:0,0:0:0:0:
482,372,35027,6,0,P|492:315|513:211,1,150,6|8,1:2|3:0,0:0:0:0:
404,140,35984,1,0,1:0:0:0:
509,55,36463,2,0,P|429:56|398:-11,1,150,8|0,3:0|1:0,0:0:0:0:
328,59,37261,1,8,3:0:0:0:
246,21,37580,6,0,B|189:49|189:49|183:76|183:76|120:105,1,150,2|2,1:2|1:2,0:0:0:0:
54,213,38537,1,8,3:0:0:0:
117,277,38856,2,0,B|171:286|151:316|212:325,1,100,2|2,0:0|0:0,0:0:0:0:
265,258,39495,1,4,3:0:0:0:
325,324,39814,1,8,3:0:0:0:
390,262,40133,6,0,P|408:198|329:146,1,150,2|2,1:2|1:2,0:0:0:0:
233,81,41090,2,0,P|238:24|270:-2,1,100,2|2,1:2|0:2,0:0:0:0:
347,43,41729,2,0,B|465:53|389:120|517:138,1,200,0|8,0:0|0:0,0:0:0:0:
495,225,42686,5,6,1:2:0:0:
458,307,43005,2,0,P|411:290|355:277,1,100,0|0,1:0|1:0,0:0:0:0:
324,196,43644,1,0,1:0:0:0:
285,114,43963,2,0,P|217:137|135:154,1,150,10|10,0:0|0:0,0:0:0:0:
52,360,45239,6,0,P|101:367|149:382,1,100,6|8,1:2|0:0,0:0:0:0:
190,302,45878,2,0,P|218:294|240:284,1,50,2|2,1:2|1:2,0:0:0:0:
304,344,46356,1,2,1:2:0:0:
345,263,46676,1,0,1:2:0:0:
408,327,46995,2,0,P|463:339|479:281,1,100,2|0,1:2|1:2,0:0:0:0:
509,222,47633,6,0,P|482:160|455:74,1,150,2|10,0:0|0:0,0:0:0:0:
374,44,48431,2,0,P|368:87|357:118,1,50,2|2,1:2|1:2,0:0:0:0:
300,155,48910,1,2,1:2:0:0:
232,95,49229,1,2,1:2:0:0:
174,164,49548,2,0,B|73:177|136:230|25:244,1,150,2|10,1:2|0:0,0:0:0:0:
6,317,50346,5,0,1:2:0:0:
78,369,50665,1,10,0:0:0:0:
144,308,50984,2,0,B|245:321|182:374|293:388,1,150,2|2,1:2|1:2,0:0:0:0:
312,305,51782,1,0,1:0:0:0:
379,364,52101,1,2,1:2:0:0:
445,303,52420,2,0,P|444:273|448:231,1,50,0|10,1:2|0:2,0:0:0:0:
500,181,52899,6,0,P|430:176|413:131,1,100,2|10,1:2|0:0,0:0:0:0:
367,80,53537,1,2,1:2:0:0:
280,183,54016,2,0,P|218:170|162:159,1,100,2|2,1:2|1:2,0:0:0:0:
156,248,54654,2,0,P|106:257|58:268,1,100,2|2,0:2|0:0,0:0:0:0:
16,188,55293,2,0,P|3:152|-3:134,1,50,10|6,0:0|1:2,0:0:0:0:
36,58,55771,5,8,0:0:0:0:
112,105,56090,2,0,P|144:117|179:122,1,50,2|2,1:2|1:2,0:0:0:0:
193,36,56569,2,0,P|243:19|333:6,1,100,2|0,1:2|1:0,0:0:0:0:
346,78,57207,1,2,0:0:0:0:
403,8,57527,1,2,1:2:0:0:
490,110,58005,6,0,P|517:156|489:233,1,100,0|10,1:2|0:0,0:0:0:0:
429,236,58644,1,2,1:2:0:0:
512,332,59122,2,0,B|462:347|480:373|397:395,1,100,2|2,1:2|1:2,0:0:0:0:
364,321,59761,2,0,P|304:295|260:283,1,100,2|2,1:2|1:2,0:0:0:0:
191,327,60399,1,6,1:2:0:0:
64,373,60878,6,0,P|-2:340|11:310,1,100,10|10,0:0|0:0,0:0:0:0:
16,243,61516,1,8,0:0:0:0:
94,199,61835,2,0,P|104:141|110:95,1,100,8|8,0:0|0:0,0:0:0:0:
172,35,62473,1,10,0:0:0:0:
221,110,62793,1,10,0:0:0:0:
291,53,63112,6,0,B|338:76|316:109|381:124,1,100,2|10,1:2|0:0,0:0:0:0:
407,197,63750,1,10,0:0:0:0:
467,130,64069,1,10,0:0:0:0:
511,208,64388,2,0,P|499:262|488:333,1,100,0|10,1:2|3:2,0:0:0:0:
411,348,65027,2,0,B|325:326|348:386|265:378,1,150,0|8,1:0|0:0,0:0:0:0:
214,307,65824,6,0,P|223:274|227:254,1,50,10|10,0:0|0:2,0:0:0:0:
312,232,66303,1,10,0:0:0:0:
382,116,66782,2,0,P|324:74|276:88,1,100,6|2,1:2|1:2,0:0:0:0:
222,29,67420,2,0,P|164:71|116:57,1,100,2|2,1:2|1:2,0:0:0:0:
122,157,68059,5,6,1:2:0:0:
256,192,68138,12,2,72606,0:0:0:0:
