osu file format v14

[General]
AudioFilename: audio.mp3
AudioLeadIn: 0
PreviewTime: 93553
Countdown: 0
SampleSet: Normal
StackLeniency: 0.7
Mode: 1
LetterboxInBreaks: 0
WidescreenStoryboard: 1

[Editor]
Bookmarks: 4000,12197,20339,44745,61017,77288,85419,93555,126097,130169
DistanceSpacing: 1.5
BeatDivisor: 8
GridSize: 32
TimelineZoom: 3.999999

[Metadata]
Title:ensolarado
TitleUnicode:ensolarado
Artist:Kyaai
ArtistUnicode:キャアイ
Creator:vrnl
Version:kalm
Source:
Tags:instrumental jazz ninomae ina'nis inanis ina hololive english holoen en please wait a moment loading screen piano holo vtuber holomyth ホロライブ 一伊那尓栖
BeatmapID:2699512
BeatmapSetID:1287105

[Difficulty]
HPDrainRate:7
CircleSize:5
OverallDifficulty:3.5
ApproachRate:6
SliderMultiplier:1.4
SliderTickRate:1

[Events]
//Background and Video events
0,0,"bg.jpg",0,-90
//Break Periods
//Storyboard Layer 0 (Background)
//Storyboard Layer 1 (Fail)
//Storyboard Layer 2 (Pass)
//Storyboard Layer 3 (Foreground)
//Storyboard Layer 4 (Overlay)
//Storyboard Sound Samples

[TimingPoints]
4062,508.474576271186,4,1,0,60,1,0

[HitObjects]
196,132,7367,5,2,0:0:0:0:
196,132,7621,1,2,0:0:0:0:
196,132,7875,1,0,0:0:0:0:
223,170,8129,1,2,0:0:0:0:
223,170,10417,1,2,0:0:0:0:
223,170,10672,1,2,0:0:0:0:
196,132,10926,1,0,0:0:0:0:
196,132,11180,1,2,0:0:0:0:
196,132,11434,1,2,0:0:0:0:
196,132,11689,1,0,0:0:0:0:
196,132,11943,1,2,0:0:0:0:
223,170,12197,1,0,0:0:0:0:
165,152,13468,1,0,0:0:0:0:
165,152,13913,1,0,0:0:0:0:
165,152,14231,1,2,0:0:0:0:
165,152,15502,1,0,0:0:0:0:
272,203,15947,1,2,0:0:0:0:
165,152,16265,1,0,0:0:0:0:
165,152,17536,1,2,0:0:0:0:
165,152,17981,1,0,0:0:0:0:
287,112,18299,1,0,0:0:0:0:
287,112,18807,1,0,0:0:0:0:
213,150,19061,1,2,0:0:0:0:
223,170,20333,1,0,0:0:0:0:
165,152,21604,1,0,0:0:0:0:
165,152,22070,1,0,0:0:0:0:
165,152,22367,1,2,0:0:0:0:
165,152,23638,1,0,0:0:0:0:
227,79,23892,1,2,0:0:0:0:
171,250,24146,1,2,0:0:0:0:
165,152,24909,1,2,0:0:0:0:
165,152,25164,1,0,0:0:0:0:
165,152,25672,1,2,0:0:0:0:
165,152,26181,1,0,0:0:0:0:
227,79,26689,1,0,0:0:0:0:
227,79,26943,1,0,0:0:0:0:
213,150,27197,1,2,0:0:0:0:
223,170,28468,1,2,0:0:0:0:
165,152,28977,1,2,0:0:0:0:
165,152,29231,1,0,0:0:0:0:
165,152,29739,1,2,0:0:0:0:
165,152,30248,1,0,0:0:0:0:
165,152,30502,1,2,0:0:0:0:
208,93,31011,1,2,0:0:0:0:
165,152,31265,1,0,0:0:0:0:
165,152,31773,1,0,0:0:0:0:
204,101,32282,1,0,0:0:0:0:
165,152,32536,1,2,0:0:0:0:
165,152,33044,1,0,0:0:0:0:
136,68,33299,1,2,0:0:0:0:
165,152,33807,1,2,0:0:0:0:
262,70,34316,1,2,0:0:0:0:
165,152,34570,1,0,0:0:0:0:
213,150,35332,1,2,0:0:0:0:
270,112,35841,1,2,0:0:0:0:
270,112,36350,1,0,0:0:0:0:
223,170,36604,1,2,0:0:0:0:
165,152,37875,1,2,0:0:0:0:
165,152,38384,1,0,0:0:0:0:
165,152,38638,1,0,0:0:0:0:
359,107,39019,1,2,0:0:0:0:
165,152,39401,1,2,0:0:0:0:
214,128,39655,1,0,0:0:0:0:
214,128,40036,1,2,0:0:0:0:
214,128,40417,1,2,0:0:0:0:
165,152,40672,1,0,0:0:0:0:
214,68,41180,1,2,0:0:0:0:
165,152,41435,1,0,0:0:0:0:
165,152,41943,1,2,0:0:0:0:
165,152,42451,1,0,0:0:0:0:
213,150,42960,1,0,0:0:0:0:
124,142,43214,1,2,0:0:0:0:
92,155,43977,1,0,0:0:0:0:
92,155,44231,1,2,0:0:0:0:
92,155,44485,1,0,0:0:0:0:
92,155,44739,1,2,0:0:0:0:
202,141,45248,1,2,0:0:0:0:
202,141,45502,1,2,0:0:0:0:
202,141,46011,1,0,0:0:0:0:
202,141,46265,1,2,0:0:0:0:
202,141,46519,1,0,0:0:0:0:
202,141,46773,1,2,0:0:0:0:
202,141,47282,1,2,0:0:0:0:
202,141,47536,1,0,0:0:0:0:
202,141,48045,1,0,0:0:0:0:
202,141,48553,1,0,0:0:0:0:
202,141,48807,1,2,0:0:0:0:
202,141,49570,1,2,0:0:0:0:
202,141,50078,1,0,0:0:0:0:
202,141,50587,1,0,0:0:0:0:
111,141,53129,1,0,0:0:0:0:
111,141,53384,1,0,0:0:0:0:
111,141,53638,1,2,0:0:0:0:
111,141,54146,1,0,0:0:0:0:
111,141,54655,1,0,0:0:0:0:
111,141,54909,1,2,0:0:0:0:
111,141,55290,1,2,0:0:0:0:
111,141,55672,1,0,0:0:0:0:
111,141,55926,1,0,0:0:0:0:
111,141,56307,1,2,0:0:0:0:
111,141,56689,1,0,0:0:0:0:
111,141,56943,1,2,0:0:0:0:
111,141,57706,1,0,0:0:0:0:
111,141,58214,1,0,0:0:0:0:
111,141,58468,1,2,0:0:0:0:
175,163,61265,1,0,0:0:0:0:
175,163,61519,1,2,0:0:0:0:
175,163,61773,1,2,0:0:0:0:
175,163,62282,1,0,0:0:0:0:
175,163,62790,1,2,0:0:0:0:
175,163,63045,1,2,0:0:0:0:
175,163,63553,1,0,0:0:0:0:
175,163,63807,1,0,0:0:0:0:
175,163,64316,1,2,0:0:0:0:
175,163,64824,1,0,0:0:0:0:
175,163,65078,1,0,0:0:0:0:
175,163,68384,1,0,0:0:0:0:
175,163,68638,1,0,0:0:0:0:
175,163,68892,1,2,0:0:0:0:
204,122,69400,1,0,0:0:0:0:
204,122,69655,1,2,0:0:0:0:
204,122,69909,1,2,0:0:0:0:
204,122,70417,1,0,0:0:0:0:
204,122,70672,1,0,0:0:0:0:
204,122,70926,1,2,0:0:0:0:
204,122,71180,1,2,0:0:0:0:
181,151,71689,1,0,0:0:0:0:
181,151,71943,1,2,0:0:0:0:
181,151,72451,1,0,0:0:0:0:
181,151,72960,1,0,0:0:0:0:
181,151,73214,1,2,0:0:0:0:
181,151,74485,1,0,0:0:0:0:
181,151,74739,1,2,0:0:0:0:
181,151,74994,1,2,0:0:0:0:
212,118,76519,1,0,0:0:0:0:
212,118,77028,1,0,0:0:0:0:
212,118,77282,1,2,0:0:0:0:
212,118,78045,1,2,0:0:0:0:
212,118,78553,1,2,0:0:0:0:
212,118,79316,1,0,0:0:0:0:
73,149,79570,1,2,0:0:0:0:
73,149,79824,1,0,0:0:0:0:
212,118,80078,1,2,0:0:0:0:
212,118,80587,1,0,0:0:0:0:
212,118,81350,1,2,0:0:0:0:
212,118,81858,1,2,0:0:0:0:
212,118,82112,1,0,0:0:0:0:
212,118,82621,1,0,0:0:0:0:
212,118,83129,1,2,0:0:0:0:
214,118,84400,1,0,0:0:0:0:
214,118,84909,1,0,0:0:0:0:
214,118,85417,1,2,0:0:0:0:
214,118,86689,1,0,0:0:0:0:
214,118,86943,1,0,0:0:0:0:
214,118,87197,1,2,0:0:0:0:
92,139,87706,1,2,0:0:0:0:
92,139,88214,1,0,0:0:0:0:
92,139,88723,1,0,0:0:0:0:
214,118,89231,1,2,0:0:0:0:
214,118,89485,1,2,0:0:0:0:
214,118,90248,1,2,0:0:0:0:
173,35,90756,1,0,0:0:0:0:
173,35,91265,1,0,0:0:0:0:
214,118,91519,1,2,0:0:0:0:
214,118,91900,1,2,0:0:0:0:
214,118,92282,1,2,0:0:0:0:
214,118,92536,1,0,0:0:0:0:
214,118,92917,1,0,0:0:0:0:
214,118,93299,1,2,0:0:0:0:
214,118,93553,1,0,0:0:0:0:
146,180,95078,1,2,0:0:0:0:
146,180,95333,1,0,0:0:0:0:
146,180,96858,1,0,0:0:0:0:
146,180,97367,1,2,0:0:0:0:
146,180,97621,1,0,0:0:0:0:
136,107,98129,1,0,0:0:0:0:
146,180,98384,1,2,0:0:0:0:
146,180,100926,1,2,0:0:0:0:
146,180,101434,1,2,0:0:0:0:
146,180,101689,1,0,0:0:0:0:
146,180,103214,1,2,0:0:0:0:
146,180,103468,1,0,0:0:0:0:
276,136,103977,1,0,0:0:0:0:
146,180,104400,1,2,0:0:0:0:
146,180,104739,1,0,0:0:0:0:
146,180,105163,1,2,0:0:0:0:
146,180,105502,1,0,0:0:0:0:
146,180,105756,1,2,0:0:0:0:
198,159,106265,1,2,0:0:0:0:
198,159,106519,1,2,0:0:0:0:
146,180,107028,1,0,0:0:0:0:
146,180,107536,1,0,0:0:0:0:
191,141,109061,1,0,0:0:0:0:
191,141,109570,1,2,0:0:0:0:
191,141,109824,1,2,0:0:0:0:
162,141,110333,1,0,0:0:0:0:
162,141,110587,1,2,0:0:0:0:
162,141,111095,1,2,0:0:0:0:
162,141,111604,1,2,0:0:0:0:
162,141,111858,1,0,0:0:0:0:
162,141,112239,1,2,0:0:0:0:
162,141,112621,1,0,0:0:0:0:
162,141,112875,1,0,0:0:0:0:
162,141,113256,1,2,0:0:0:0:
162,141,113638,1,2,0:0:0:0:
162,141,113892,1,0,0:0:0:0:
162,141,114400,1,2,0:0:0:0:
162,141,114655,1,2,0:0:0:0:
162,141,115163,1,0,0:0:0:0:
162,141,115672,1,0,0:0:0:0:
162,141,115926,1,2,0:0:0:0:
162,141,116180,1,2,0:0:0:0:
162,141,116434,1,0,0:0:0:0:
162,141,116689,1,0,0:0:0:0:
241,149,117197,1,0,0:0:0:0:
241,149,117706,1,0,0:0:0:0:
241,149,117960,1,2,0:0:0:0:
241,149,119231,1,0,0:0:0:0:
241,149,119739,1,2,0:0:0:0:
241,149,119994,1,2,0:0:0:0:
241,149,120756,1,0,0:0:0:0:
144,134,121265,1,0,0:0:0:0:
144,134,121773,1,2,0:0:0:0:
144,134,122028,1,2,0:0:0:0:
144,134,122409,1,0,0:0:0:0:
144,134,122790,1,0,0:0:0:0:
144,134,123045,1,2,0:0:0:0:
144,134,123426,1,0,0:0:0:0:
144,134,123807,1,2,0:0:0:0:
144,134,124061,1,2,0:0:0:0:
144,134,124824,1,0,0:0:0:0:
144,134,125333,1,2,0:0:0:0:
144,134,125841,1,2,0:0:0:0:
144,134,126095,1,0,0:0:0:0:
144,134,126350,1,0,0:0:0:0:
144,134,126604,1,0,0:0:0:0:
144,134,126858,1,2,0:0:0:0:
144,134,127367,1,0,0:0:0:0:
144,134,127811,1,0,0:0:0:0:
187,153,128066,1,2,0:0:0:0:
144,134,128129,1,2,0:0:0:0:
144,134,128511,1,0,0:0:0:0:
144,134,128892,1,2,0:0:0:0:
144,134,129146,1,2,0:0:0:0:
322,134,129210,1,2,0:0:0:0:
144,134,129591,1,2,0:0:0:0:
144,134,129909,1,0,0:0:0:0:
144,134,130163,1,2,0:0:0:0:
262,130,130227,1,2,0:0:0:0:
262,130,130290,1,2,0:0:0:0:
