osu file format v14

[General]
AudioFilename: audio.mp3
AudioLeadIn: 0
PreviewTime: 93553
Countdown: 0
SampleSet: Normal
StackLeniency: 0.7
Mode: 1
LetterboxInBreaks: 0
WidescreenStoryboard: 1

[Editor]
Bookmarks: 4000,12197,20339,28468,44745,61017,77288,85419,93555,126097,130169
DistanceSpacing: 1.6
BeatDivisor: 8
GridSize: 32
TimelineZoom: 2.7

[Metadata]
Title:ensolarado
TitleUnicode:ensolarado
Artist:Kyaai
ArtistUnicode:キャアイ
Creator:vrnl
Version:kantan
Source:
Tags:instrumental jazz ninomae ina'nis inanis ina hololive english holoen en please wait a moment loading screen piano holo vtuber holomyth ホロライブ 一伊那尓栖
BeatmapID:2672226
BeatmapSetID:1287105

[Difficulty]
HPDrainRate:8
CircleSize:5
OverallDifficulty:2
ApproachRate:5
SliderMultiplier:1.4
SliderTickRate:1

[Events]
//Background and Video events
0,0,"bg.jpg",0,-90
//Break Periods
//Storyboard Layer 0 (Background)
//Storyboard Layer 1 (Fail)
//Storyboard Layer 2 (Pass)
//Storyboard Layer 3 (Foreground)
//Storyboard Layer 4 (Overlay)
//Storyboard Sound Samples

[TimingPoints]
4062,508.474576271186,4,1,0,60,1,0

[HitObjects]
223,170,4062,5,2,0:0:0:0:
223,170,5078,1,0,0:0:0:0:
223,170,5841,1,2,0:0:0:0:
223,170,6604,1,0,0:0:0:0:
223,170,8129,1,2,0:0:0:0:
223,170,9146,1,0,0:0:0:0:
223,170,9909,1,2,0:0:0:0:
223,170,10672,1,2,0:0:0:0:
223,170,12197,1,0,0:0:0:0:
165,152,12706,1,2,0:0:0:0:
165,152,13468,1,2,0:0:0:0:
165,152,14231,1,0,0:0:0:0:
165,152,14739,1,2,0:0:0:0:
165,152,15502,1,0,0:0:0:0:
165,152,16265,1,0,0:0:0:0:
165,152,16773,1,2,0:0:0:0:
165,152,17536,1,2,0:0:0:0:
165,152,18045,1,0,0:0:0:0:
213,150,19061,1,2,0:0:0:0:
223,170,20333,1,0,0:0:0:0:
165,152,20842,1,2,0:0:0:0:
165,152,21604,1,2,0:0:0:0:
165,152,22367,1,0,0:0:0:0:
165,152,22875,1,2,0:0:0:0:
165,152,23638,1,0,0:0:0:0:
165,152,24401,1,0,0:0:0:0:
165,152,24909,1,2,0:0:0:0:
165,152,25672,1,2,0:0:0:0:
165,152,26181,1,0,0:0:0:0:
213,150,27197,1,2,0:0:0:0:
223,170,28468,1,0,0:0:0:0:
165,152,28977,1,2,0:0:0:0:
141,148,29739,1,2,0:0:0:0:
165,152,30502,1,0,0:0:0:0:
165,152,31265,1,2,0:0:0:0:
165,152,32536,1,0,0:0:0:0:
165,152,33044,1,2,0:0:0:0:
165,152,33807,1,2,0:0:0:0:
165,152,34570,1,0,0:0:0:0:
213,150,35332,1,2,0:0:0:0:
223,170,36604,1,0,0:0:0:0:
176,159,37112,1,2,0:0:0:0:
165,152,37875,1,2,0:0:0:0:
253,84,38384,1,2,0:0:0:0:
165,152,38638,1,2,0:0:0:0:
165,152,40672,1,0,0:0:0:0:
280,181,41434,1,0,0:0:0:0:
165,152,41943,1,2,0:0:0:0:
165,152,42451,1,2,0:0:0:0:
213,150,42960,1,2,0:0:0:0:
124,142,43214,1,2,0:0:0:0:
223,170,44739,1,0,0:0:0:0:
165,152,45248,1,2,0:0:0:0:
165,152,46010,1,2,0:0:0:0:
180,128,46773,1,0,0:0:0:0:
165,152,47536,1,2,0:0:0:0:
165,152,48807,1,0,0:0:0:0:
161,121,49570,1,2,0:0:0:0:
165,152,50078,1,0,0:0:0:0:
165,152,50841,1,0,0:0:0:0:
213,150,51603,1,2,0:0:0:0:
161,121,52875,1,0,0:0:0:0:
157,165,53638,1,2,0:0:0:0:
157,165,54146,1,2,0:0:0:0:
157,165,54909,1,0,0:0:0:0:
157,165,55672,1,2,0:0:0:0:
157,165,56434,1,2,0:0:0:0:
157,165,56943,1,0,0:0:0:0:
144,169,57706,1,2,0:0:0:0:
144,169,58214,1,2,0:0:0:0:
144,169,58723,1,0,0:0:0:0:
169,185,61011,1,2,0:0:0:0:
138,196,61773,1,2,0:0:0:0:
138,196,62282,1,0,0:0:0:0:
138,196,62790,1,2,0:0:0:0:
167,58,63807,1,2,0:0:0:0:
220,141,64316,1,0,0:0:0:0:
213,163,65587,1,2,0:0:0:0:
213,163,66350,1,2,0:0:0:0:
213,163,67112,1,0,0:0:0:0:
111,167,67875,1,0,0:0:0:0:
215,117,69146,1,2,0:0:0:0:
215,117,69909,1,2,0:0:0:0:
215,117,70417,1,0,0:0:0:0:
215,117,70926,1,2,0:0:0:0:
227,167,71943,1,2,0:0:0:0:
227,167,72451,1,2,0:0:0:0:
227,167,72960,1,0,0:0:0:0:
184,74,73723,1,2,0:0:0:0:
184,74,74485,1,2,0:0:0:0:
184,74,75248,1,0,0:0:0:0:
184,74,76011,1,0,0:0:0:0:
184,148,77282,1,0,0:0:0:0:
184,148,77790,1,2,0:0:0:0:
184,148,78553,1,2,0:0:0:0:
113,130,79316,1,0,0:0:0:0:
113,130,79824,1,2,0:0:0:0:
113,130,80587,1,2,0:0:0:0:
113,130,81350,1,2,0:0:0:0:
188,146,82112,1,0,0:0:0:0:
188,146,82621,1,0,0:0:0:0:
147,161,83129,1,2,0:0:0:0:
190,146,85417,1,2,0:0:0:0:
132,175,86180,1,2,0:0:0:0:
132,175,86689,1,0,0:0:0:0:
132,175,87451,1,0,0:0:0:0:
132,175,87960,1,2,0:0:0:0:
236,113,88468,1,0,0:0:0:0:
132,175,88977,1,2,0:0:0:0:
132,175,89485,1,0,0:0:0:0:
132,175,90248,1,2,0:0:0:0:
256,192,90502,12,0,92536,0:0:0:0:
223,170,93553,5,0,0:0:0:0:
165,152,94062,1,2,0:0:0:0:
223,170,94570,1,0,0:0:0:0:
165,152,95587,1,0,0:0:0:0:
165,152,96095,1,2,0:0:0:0:
225,173,96604,1,0,0:0:0:0:
165,152,97621,1,2,0:0:0:0:
165,152,98129,1,2,0:0:0:0:
225,173,98638,1,0,0:0:0:0:
165,152,99401,1,0,0:0:0:0:
213,150,100417,1,2,0:0:0:0:
223,170,101688,1,0,0:0:0:0:
165,152,102197,1,2,0:0:0:0:
223,170,102706,1,0,0:0:0:0:
165,152,103722,1,0,0:0:0:0:
225,173,104231,1,2,0:0:0:0:
225,173,104739,1,0,0:0:0:0:
165,152,105756,1,0,0:0:0:0:
165,152,106264,1,2,0:0:0:0:
165,152,106773,1,2,0:0:0:0:
262,70,107536,1,0,0:0:0:0:
213,150,108552,1,2,0:0:0:0:
223,170,109824,1,0,0:0:0:0:
165,152,110333,1,2,0:0:0:0:
165,152,111095,1,2,0:0:0:0:
165,152,111858,1,0,0:0:0:0:
165,152,112621,1,0,0:0:0:0:
165,152,113129,1,2,0:0:0:0:
165,152,113892,1,0,0:0:0:0:
165,152,114400,1,2,0:0:0:0:
223,130,114909,1,0,0:0:0:0:
217,177,115926,1,0,0:0:0:0:
213,150,116688,1,2,0:0:0:0:
223,170,117959,1,0,0:0:0:0:
165,152,118468,1,2,0:0:0:0:
213,148,118977,1,0,0:0:0:0:
165,152,119993,1,2,0:0:0:0:
165,152,120756,1,0,0:0:0:0:
165,152,122028,1,0,0:0:0:0:
165,152,122791,1,0,0:0:0:0:
165,152,123299,1,2,0:0:0:0:
165,152,123807,1,0,0:0:0:0:
213,150,124316,1,2,0:0:0:0:
124,142,124570,1,2,0:0:0:0:
256,192,126095,12,0,130163,0:0:0:0:
