osu file format v14

[General]
AudioFilename: audio.mp3
AudioLeadIn: 0
PreviewTime: 14672
Countdown: 0
SampleSet: Soft
StackLeniency: 0.7
Mode: 0
LetterboxInBreaks: 0
WidescreenStoryboard: 0

[Editor]
Bookmarks: 60127,160127,174672,176490,189217
DistanceSpacing: 1
BeatDivisor: 4
GridSize: 4
TimelineZoom: 1

[Metadata]
Title:TOMBI
TitleUnicode:TOMBI
Artist:Kvi Baba
ArtistUnicode:Kvi Baba
Creator:AirinCat
Version:Insane
Source:TRIGUN STAMPEDE
Tags:anime japanese pop jpop opening vash the Humanoid Typhoon Nicholas D. Wolfwood トライガン jesus loves you
BeatmapID:4068438
BeatmapSetID:1962959

[Difficulty]
HPDrainRate:5
CircleSize:4
OverallDifficulty:8
ApproachRate:8
SliderMultiplier:1.6
SliderTickRate:1

[Events]
//Background and Video events
0,0,"Trigun.Stampede.full.3912259.jpg",0,0
Video,-76,"trigun.mp4"
//Break Periods
2,43962,50286
2,102144,108467
2,132827,144377
//Storyboard Layer 0 (Background)
//Storyboard Layer 1 (Fail)
//Storyboard Layer 2 (Pass)
//Storyboard Layer 3 (Foreground)
//Storyboard Layer 4 (Overlay)
//Storyboard Sound Samples

[TimingPoints]
127,454.545454545455,4,2,2,60,1,0
14672,-100,4,2,2,60,0,0
28990,-90.9090909090909,4,2,1,60,0,0
41945,-166.666666666667,4,2,1,50,0,0
43308,-90.909090909091,4,2,1,50,0,0
51036,-111.111111111111,4,2,2,50,0,0
58308,-111.111111111111,4,2,1,50,0,0
58763,-90.9090909090909,4,2,1,60,0,0
60127,-76.9230769230769,4,2,1,70,0,0
71945,-90.9090909090909,4,2,1,70,0,0
72854,-125,4,2,2,50,0,0
80127,-100,4,2,2,60,0,0
87172,-90.9090909090909,4,2,1,60,0,0
100127,-166.666666666667,4,2,1,40,0,0
101490,-90.909090909091,4,2,1,50,0,0
109217,-111.111111111111,4,2,2,50,0,0
116490,-111.111111111111,4,2,1,60,0,0
118308,-76.9230769230769,4,2,1,70,0,0
132627,-76.9230769230769,4,2,1,30,0,0
145127,-100,4,2,1,50,0,0
145581,-125,4,2,2,50,0,0
174672,-200,4,2,1,70,0,0
175127,-76.9230769230769,4,2,1,70,0,0
176490,-76.9230769230769,4,2,3,70,0,0
189217,-76.9230769230769,4,2,2,50,0,0

[Colours]
Combo1 : 249,155,155
Combo2 : 235,201,150

[HitObjects]
18,43,14672,6,0,P|42:131|60:215,1,160,0|8,1:2|0:2,0:2:0:0:
15,369,15354,1,0,1:2:0:0:
84,304,15582,1,0,3:2:0:0:
156,366,15809,1,0,3:2:0:0:
297,298,16036,2,0,P|354:274|425:263,1,120,8|0,3:2|0:2,0:2:0:0:
410,263,16490,6,0,P|420:301|425:341,1,80,2|0,1:2|0:2,0:2:0:0:
226,188,16945,1,8,0:2:0:0:
287,111,17172,2,0,P|364:102|449:69,1,160,0|0,1:2|0:2,0:2:0:0:
333,244,17854,1,8,0:2:0:0:
433,320,18081,5,8,3:2:0:0:
433,320,18195,1,8,3:2:0:0:
433,320,18308,2,0,P|475:308|510:300,1,80,2|0,1:2|0:2,0:2:0:0:
502,168,18763,1,8,0:2:0:0:
417,184,18990,1,0,1:2:0:0:
336,136,19217,1,0,3:2:0:0:
253,185,19445,1,0,3:2:0:0:
157,128,19672,1,8,3:2:0:0:
226,84,19899,1,8,3:2:0:0:
71,178,20127,6,0,P|63:218|51:283,1,80,2|0,1:2|0:2,0:2:0:0:
185,363,20581,1,8,0:2:0:0:
268,323,20808,1,0,1:2:0:0:
155,279,21036,1,0,3:2:0:0:
88,340,21263,1,0,3:2:0:0:
55,256,21490,1,8,3:2:0:0:
244,209,21717,5,8,3:2:0:0:
244,209,21831,1,8,3:2:0:0:
244,209,21945,2,0,P|250:164|260:125,1,80,2|0,1:2|0:2,0:2:0:0:
64,14,22399,1,8,0:2:0:0:
13,116,22627,2,0,P|93:122|158:77,1,160,0|0,1:2|0:2,0:2:0:0:
370,23,23308,2,0,P|323:11|289:0,1,80,8|8,0:2|0:2,0:2:0:0:
249,185,23763,5,2,1:2:0:0:
333,224,23990,1,0,3:2:0:0:
399,147,24217,1,8,0:2:0:0:
502,163,24445,1,0,1:2:0:0:
413,269,24672,1,0,3:2:0:0:
490,347,24899,1,0,3:2:0:0:
512,263,25127,1,8,3:2:0:0:
318,343,25354,5,8,3:2:0:0:
318,343,25467,1,8,3:2:0:0:
318,343,25581,2,0,P|280:350|230:367,1,80,2|0,1:2|0:2,0:2:0:0:
96,225,26036,1,8,0:2:0:0:
169,92,26263,2,0,P|239:150|243:232,1,160,0|0,1:2|0:2,0:2:0:0:
127,336,26945,1,8,0:2:0:0:
46,302,27172,1,8,0:2:0:0:
10,190,27399,6,0,P|18:151|24:111,1,80,2|0,1:2|0:2,0:2:0:0:
229,310,27854,1,8,0:2:0:0:
305,283,28081,1,0,1:2:0:0:
311,176,28308,2,0,P|238:151|156:142,1,160,0|8,3:2|0:2,0:2:0:0:
8,366,28990,5,8,0:2:0:0:
8,366,29104,1,8,0:2:0:0:
8,366,29217,2,0,P|26:314|30:273,1,88.000002685547,0|0,1:2|0:2,0:2:0:0:
7,76,29672,1,10,0:2:0:0:
156,142,29899,1,2,1:2:0:0:
255,74,30127,1,2,0:2:0:0:
127,36,30354,1,2,0:2:0:0:
8,181,30581,2,0,P|53:190|107:214,1,88.000002685547,8|0,0:2|0:2,0:2:0:0:
316,214,31036,5,2,1:2:0:0:
338,114,31263,1,2,0:2:0:0:
219,196,31490,1,10,0:2:0:0:
346,352,31717,2,0,P|404:290|493:288,1,176.000005371094,2|0,1:2|0:2,0:2:0:0:
463,363,32399,1,10,0:2:0:0:
363,223,32627,5,2,3:2:0:0:
363,223,32740,1,0,3:2:0:0:
363,223,32854,2,0,P|378:182|384:133,1,88.000002685547,0|0,1:2|0:2,0:2:0:0:
229,6,33308,1,10,0:2:0:0:
131,116,33536,1,2,1:2:0:0:
208,180,33763,1,2,0:2:0:0:
294,118,33990,1,2,0:2:0:0:
217,82,34217,1,10,0:2:0:0:
112,194,34445,1,2,0:2:0:0:
0,105,34672,6,0,P|12:60|20:14,1,88.000002685547,2|0,1:2|0:2,0:2:0:0:
279,209,35127,1,10,0:2:0:0:
194,300,35354,2,0,P|91:308|41:253,1,176.000005371094,2|0,1:2|0:2,0:2:0:0:
112,106,36036,2,0,P|164:118|198:131,1,88.000002685547,10|0,0:2|0:2,0:2:0:0:
361,281,36490,6,0,P|467:269|512:191,1,176.000005371094,2|8,1:2|0:2,0:2:0:0:
461,61,37172,1,2,1:2:0:0:
374,116,37399,1,2,0:2:0:0:
417,193,37627,1,2,0:2:0:0:
308,326,37854,1,10,0:2:0:0:
233,246,38081,1,2,0:2:0:0:
226,97,38308,5,2,1:2:0:0:
304,160,38536,1,2,0:2:0:0:
129,211,38763,1,10,0:2:0:0:
7,78,38990,1,2,1:2:0:0:
153,11,39217,2,0,P|135:58|124:113,1,88.000002685547,2|0,0:2|0:2,0:2:0:0:
44,358,39672,2,0,P|55:310|68:264,1,88.000002685547,10|0,0:2|3:2,0:2:0:0:
0,222,40013,5,0,3:2:0:0:
6,226,40127,2,0,B|87:238|77:272|166:301,1,176.000005371094,2|8,1:2|0:2,0:2:0:0:
248,273,40808,1,0,1:2:0:0:
189,177,41036,5,2,3:3:0:0:
369,69,41339,5,2,3:3:0:0:
165,33,41642,5,2,3:3:0:0:
145,35,41793,1,2,3:3:0:0:
153,20,41945,2,0,P|211:9|255:-1,1,95.9999970703126,0|0,3:3|0:2,0:2:0:0:
393,183,42627,2,0,P|348:165|302:152,1,95.9999970703126,0|0,3:3|0:2,0:2:0:0:
93,345,43308,2,0,P|134:270|162:184,1,176.000005371094,4|4,0:3|0:2,0:2:0:0:
290,336,51036,6,0,P|218:338|159:384,1,143.999995605469,0|0,1:2|0:2,0:2:0:0:
9,228,51717,2,0,P|60:270|149:273,1,143.999995605469,0|0,1:2|0:2,0:2:0:0:
205,232,52399,2,0,P|214:192|224:155,1,71.9999978027344,2|0,0:2|0:2,0:2:0:0:
142,0,52854,2,0,P|117:70|105:142,1,143.999995605469,0|0,1:2|0:2,0:2:0:0:
319,234,53536,2,0,P|343:163|356:92,1,143.999995605469,0|0,1:2|0:2,0:2:0:0:
305,27,54217,2,0,P|268:18|236:7,1,71.9999978027344,2|0,0:2|0:2,0:2:0:0:
105,138,54672,5,0,1:2:0:0:
40,78,54899,1,0,3:2:0:0:
36,71,55013,1,0,3:2:0:0:
34,63,55127,2,0,P|70:53|109:42,1,71.9999978027344,0|0,3:2|1:2,0:2:0:0:
218,126,55581,2,0,B|292:137|283:163|351:176,1,143.999995605469,2|2,0:2|0:2,0:2:0:0:
512,73,56263,1,2,0:2:0:0:
499,0,56490,6,0,P|471:78|468:160,1,143.999995605469,0|0,1:2|0:2,0:2:0:0:
486,330,57172,2,0,P|473:287|458:251,1,71.9999978027344,0|0,1:2|0:2,0:2:0:0:
345,218,57627,1,0,1:2:0:0:
233,341,57854,1,0,1:2:0:0:
115,272,58081,1,0,1:2:0:0:
224,182,58308,1,0,1:3:0:0:
224,182,58422,1,4,3:3:0:0:
224,182,58536,2,0,L|209:268,1,71.9999978027344,4|8,3:3|0:2,0:2:0:0:
328,336,58990,2,8,L|337:292,3,29.3333342285157,8|8|8|8,0:3|0:3|0:3|0:3,0:3:0:0:
244,93,59445,5,0,3:3:0:0:
226,85,59558,1,8,0:3:0:0:
188,110,59672,1,8,0:3:0:0:
149,107,59786,1,4,0:3:0:0:
149,107,59899,2,0,L|90:119,1,44.0000013427735,4|0,0:3|0:2,0:2:0:0:
21,135,60127,6,0,P|135:156|243:188,1,207.999990478516,2|2,1:2|0:2,0:2:0:0:
381,123,60808,1,2,1:2:0:0:
296,75,61036,1,10,0:2:0:0:
317,301,61263,1,2,0:2:0:0:
470,215,61490,1,2,0:2:0:0:
201,84,61717,6,0,P|120:98|48:121,1,155.999992858887,2|0,0:2|0:2,0:2:0:0:
49,120,62172,1,2,0:2:0:0:
112,335,62399,2,0,P|165:319|225:313,1,103.999995239258,2|0,0:2|1:2,0:2:0:0:
359,145,62854,1,10,0:2:0:0:
479,219,63081,1,2,0:2:0:0:
438,315,63308,1,2,3:2:0:0:
438,315,63422,1,0,3:2:0:0:
438,315,63536,1,2,3:2:0:0:
267,232,63763,5,2,1:2:0:0:
466,110,63990,1,2,0:2:0:0:
303,28,64217,1,2,0:2:0:0:
162,139,64445,1,2,1:2:0:0:
64,75,64672,1,10,0:2:0:0:
199,12,64899,1,2,0:2:0:0:
311,160,65127,1,2,0:2:0:0:
166,271,65354,6,0,P|65:268|0:192,1,207.999990478516,2|2,0:2|0:2,0:2:0:0:
317,383,66036,2,0,P|365:363|417:355,1,103.999995239258,2|2,0:2|1:2,0:2:0:0:
429,90,66490,1,10,0:2:0:0:
284,163,66717,1,2,0:2:0:0:
345,274,66945,1,2,3:2:0:0:
345,274,67058,1,0,3:2:0:0:
345,274,67172,1,2,3:2:0:0:
265,70,67399,5,2,1:2:0:0:
145,308,67627,1,2,0:2:0:0:
56,221,67854,1,2,0:2:0:0:
161,121,68081,1,2,1:2:0:0:
350,252,68308,1,10,0:2:0:0:
492,142,68536,1,2,0:2:0:0:
300,0,68763,6,0,P|274:110|255:213,1,207.999990478516,2|0,0:2|1:2,0:2:0:0:
481,380,69445,1,2,3:2:0:0:
481,380,69558,1,2,3:2:0:0:
481,380,69672,2,0,P|495:328|505:275,1,103.999995239258,2|2,3:2|1:2,0:2:0:0:
168,186,70127,1,10,0:2:0:0:
224,338,70354,1,2,0:2:0:0:
346,326,70581,1,2,3:2:0:0:
346,326,70695,1,0,3:2:0:0:
345,326,70808,1,2,3:2:0:0:
321,119,71036,5,2,1:2:0:0:
138,321,71263,1,2,0:2:0:0:
62,187,71490,1,2,0:2:0:0:
0,283,71717,1,2,0:2:0:0:
263,214,71945,5,10,3:2:0:0:
334,249,72172,1,0,3:2:0:0:
401,210,72399,1,0,3:2:0:0:
475,250,72627,1,0,3:2:0:0:
475,250,72854,5,2,0:2:0:0:
153,384,73308,1,8,0:2:0:0:
153,384,73536,2,0,P|140:316|128:254,1,128,8|0,0:2|0:2,0:2:0:0:
184,194,74217,1,8,0:2:0:0:
184,194,74445,1,8,0:2:0:0:
269,226,74672,2,0,P|287:288|301:368,1,128,0|8,3:2|0:2,0:2:0:0:
389,371,75354,2,0,P|429:356|527:341,1,128,8|0,0:2|0:2,0:2:0:0:
494,218,76036,2,0,P|436:235|358:246,1,128,8|2,0:2|0:2,0:2:0:0:
50,121,76945,5,8,0:2:0:0:
50,121,77172,2,0,P|111:110|183:89,1,128,8|0,0:2|0:2,0:2:0:0:
235,151,77854,1,8,0:2:0:0:
235,151,78081,1,8,0:2:0:0:
186,219,78308,2,0,P|197:282|211:344,1,128,0|8,3:2|0:2,0:2:0:0:
300,360,78990,1,8,0:2:0:0:
371,308,79217,2,0,P|350:247|338:184,1,128,0|8,3:2|0:2,0:2:0:0:
338,184,79899,1,0,0:2:0:0:
224,286,80127,6,0,P|146:307|71:334,1,160,2|8,1:2|0:2,0:2:0:0:
0,252,80808,1,8,1:2:0:0:
71,179,81036,1,0,0:2:0:0:
0,108,81263,1,0,3:2:0:0:
81,43,81490,1,8,3:2:0:0:
157,93,81717,1,8,3:2:0:0:
142,246,81945,6,0,P|151:283|158:329,1,80,2|0,1:2|0:2,0:2:0:0:
335,359,82399,1,8,0:2:0:0:
388,296,82627,1,8,1:2:0:0:
286,207,82854,2,0,P|293:127|320:52,1,160,0|8,3:2|0:2,0:2:0:0:
421,24,83536,5,0,3:2:0:0:
421,24,83649,1,0,3:2:0:0:
421,24,83763,1,2,1:2:0:0:
320,52,83990,1,0,3:2:0:0:
484,104,84217,1,8,0:2:0:0:
462,189,84445,1,8,1:2:0:0:
359,217,84672,1,0,3:2:0:0:
275,182,84899,2,0,P|269:142|256:92,1,80,0|8,3:2|0:2,0:2:0:0:
374,134,85354,1,8,3:2:0:0:
289,269,85581,5,2,1:2:0:0:
199,271,85808,1,0,3:2:0:0:
130,344,86036,1,8,0:2:0:0:
48,266,86263,1,8,1:2:0:0:
161,163,86490,1,0,3:2:0:0:
89,116,86717,2,0,P|53:130|6:141,1,80,0|8,3:2|0:2,0:2:0:0:
266,0,87172,5,8,0:2:0:0:
266,0,87286,1,8,0:2:0:0:
266,0,87399,2,0,P|276:47|288:89,1,88.000002685547,2|0,1:2|0:2,0:2:0:0:
219,335,87854,1,10,0:2:0:0:
107,247,88081,1,2,1:2:0:0:
207,157,88308,1,2,0:2:0:0:
329,252,88536,1,2,0:2:0:0:
468,214,88763,1,10,0:2:0:0:
512,45,88990,6,0,P|427:72|339:105,1,176.000005371094,2|0,0:2|0:2,0:2:0:0:
101,0,89672,2,0,P|140:12|197:23,1,88.000002685547,10|0,0:2|1:2,0:2:0:0:
237,246,90127,1,2,3:2:0:0:
237,246,90240,1,0,3:2:0:0:
237,246,90354,1,0,3:2:0:0:
5,253,90581,6,0,P|29:193|132:163,1,176.000005371094,10|0,0:2|1:2,0:2:0:0:
119,251,91263,1,2,0:2:0:0:
244,111,91490,1,10,0:2:0:0:
182,22,91717,1,2,1:2:0:0:
62,62,91945,1,2,0:2:0:0:
128,162,92172,1,2,0:2:0:0:
277,24,92399,1,10,0:2:0:0:
377,83,92627,1,2,0:2:0:0:
497,44,92854,5,2,1:2:0:0:
357,172,93081,1,2,0:2:0:0:
512,263,93308,1,10,0:2:0:0:
435,291,93536,1,2,1:2:0:0:
442,198,93763,2,0,P|447:148|463:98,1,88.000002685547,2|0,0:2|0:2,0:2:0:0:
223,283,94217,6,0,P|136:278|79:211,1,176.000005371094,10|0,0:2|1:2,0:2:0:0:
137,153,94899,1,2,0:2:0:0:
128,361,95127,1,10,0:2:0:0:
18,350,95354,1,2,1:2:0:0:
0,217,95581,1,2,0:2:0:0:
218,171,95808,1,2,0:2:0:0:
118,7,96036,1,10,0:2:0:0:
30,97,96263,1,2,0:2:0:0:
222,46,96490,6,0,P|265:59|307:69,1,88.000002685547,2|0,1:2|0:2,0:2:0:0:
408,189,96945,1,10,0:2:0:0:
285,255,97172,1,2,1:2:0:0:
445,366,97399,2,0,P|456:322|469:270,1,88.000002685547,2|0,0:2|0:2,0:2:0:0:
139,176,97854,2,0,P|113:235|105:338,1,132.00000402832,10|0,0:2|0:2,0:2:0:0:
103,301,98308,2,0,P|151:312|199:335,1,88.000002685547,2|0,1:2|0:2,0:2:0:0:
381,255,98763,1,10,0:2:0:0:
326,196,98990,1,2,1:2:0:0:
246,250,99217,5,2,3:3:0:0:
437,99,99520,5,2,3:3:0:0:
163,40,99823,5,2,3:3:0:0:
170,24,99975,1,2,3:3:0:0:
184,32,100127,2,0,L|197:95,2,47.9999985351563,0|0|0,3:2|3:2|3:2,0:2:0:0:
184,32,101036,2,0,P|158:41|128:48,1,47.9999985351563,0|0,3:2|3:2,0:2:0:0:
0,180,101490,2,0,P|83:192|188:221,1,176.000005371094,4|4,0:3|0:2,0:2:0:0:
68,367,109217,6,0,P|118:332|204:330,1,143.999995605469,0|0,1:2|0:2,0:2:0:0:
342,219,109899,2,0,P|394:261|485:267,1,143.999995605469,0|0,1:2|0:2,0:2:0:0:
512,137,110581,2,0,P|481:145|432:158,1,71.9999978027344,2|0,0:2|0:2,0:2:0:0:
265,277,111036,2,0,P|216:225|211:155,1,143.999995605469,0|0,1:2|0:2,0:2:0:0:
310,0,111717,2,0,P|358:51|363:121,1,143.999995605469,0|0,1:2|0:2,0:2:0:0:
405,221,112399,2,0,P|368:207|335:201,1,71.9999978027344,2|0,0:2|0:2,0:2:0:0:
201,66,112854,5,0,1:2:0:0:
138,153,113081,1,0,3:2:0:0:
138,153,113195,1,0,3:2:0:0:
138,153,113308,2,0,P|110:159|62:177,1,71.9999978027344,0|0,3:2|1:2,0:2:0:0:
0,119,113763,2,0,P|32:188|33:277,1,143.999995605469,2|2,0:2|0:2,0:2:0:0:
256,355,114445,1,2,0:2:0:0:
179,381,114672,6,0,P|189:316|236:242,1,143.999995605469,0|0,1:2|0:2,0:2:0:0:
411,231,115354,2,0,P|450:246|494:258,1,71.9999978027344,0|0,1:2|0:2,0:2:0:0:
386,106,115808,1,0,1:2:0:0:
253,134,116036,1,0,1:2:0:0:
228,249,116263,1,0,1:2:0:0:
313,350,116490,1,0,1:2:0:0:
313,350,116604,1,4,3:3:0:0:
313,350,116717,2,0,P|325:311|337:269,1,71.9999978027344,4|8,3:3|0:2,0:2:0:0:
133,244,117172,2,8,L|123:281,3,23.9999992675781,8|8|8|8,0:3|0:3|0:3|0:3,0:3:0:0:
307,138,117627,5,2,3:3:0:0:
322,129,117740,1,8,0:3:0:0:
359,151,117854,1,8,0:3:0:0:
386,128,117967,1,4,0:3:0:0:
386,128,118081,2,4,L|431:137,1,35.9999989013672,4|0,0:3|0:3,0:3:0:0:
512,141,118308,6,0,P|414:157|357:246,1,207.999990478516,2|2,1:2|0:2,0:2:0:0:
398,351,118990,1,2,1:2:0:0:
504,286,119217,1,10,0:2:0:0:
268,150,119445,1,2,0:2:0:0:
282,355,119672,1,2,0:2:0:0:
501,116,119899,6,0,P|426:92|350:74,1,155.999992858887,2|0,0:2|0:2,0:2:0:0:
350,74,120354,1,2,0:2:0:0:
212,286,120581,2,0,P|261:272|328:263,1,103.999995239258,2|2,0:2|1:2,0:2:0:0:
220,55,121036,1,10,0:2:0:0:
80,197,121263,1,2,0:2:0:0:
0,132,121490,1,2,3:2:0:0:
0,132,121604,1,0,3:2:0:0:
0,132,121717,1,2,3:2:0:0:
258,147,121945,5,2,1:2:0:0:
53,303,122172,1,2,0:2:0:0:
256,359,122399,1,2,0:2:0:0:
324,246,122627,1,2,1:2:0:0:
123,136,122854,1,10,0:2:0:0:
248,14,123081,1,2,0:2:0:0:
442,195,123308,1,2,0:2:0:0:
467,43,123536,6,0,P|367:60|316:147,1,207.999990478516,2|2,0:2|0:2,0:2:0:0:
57,384,124217,2,0,P|43:331|19:283,1,103.999995239258,2|2,0:2|1:2,0:2:0:0:
153,124,124672,1,10,0:2:0:0:
280,278,124899,1,2,0:2:0:0:
406,220,125127,1,2,3:2:0:0:
406,220,125240,1,0,3:2:0:0:
406,220,125354,1,2,3:2:0:0:
322,57,125581,5,2,1:2:0:0:
206,343,125808,1,2,0:2:0:0:
159,178,126036,1,2,0:2:0:0:
41,289,126263,1,2,1:2:0:0:
1,167,126490,1,10,0:2:0:0:
225,252,126717,1,2,0:2:0:0:
348,174,126945,6,0,P|360:77|276:-5,1,207.999990478516,2|0,0:2|1:2,0:2:0:0:
119,160,127627,1,2,3:2:0:0:
119,160,127740,1,2,3:2:0:0:
119,160,127854,2,0,P|164:144|226:132,1,103.999995239258,2|0,3:2|1:2,0:2:0:0:
375,13,128308,1,10,0:2:0:0:
452,165,128536,1,2,0:2:0:0:
512,93,128763,1,2,3:2:0:0:
512,93,128877,1,0,3:2:0:0:
512,93,128990,1,2,3:2:0:0:
284,190,129217,5,2,1:2:0:0:
492,295,129445,1,2,0:2:0:0:
365,384,129672,1,2,0:2:0:0:
250,294,129899,1,2,1:2:0:0:
368,82,130127,1,8,3:2:0:0:
412,140,130354,1,0,3:2:0:0:
363,202,130581,1,0,3:2:0:0:
410,264,130808,1,0,3:2:0:0:
256,192,131036,12,2,132627,0:2:0:0:
155,333,145127,6,0,B|110:321|110:321|25:369,1,120,4|0,0:3|0:2,0:2:0:0:
46,356,145581,6,0,P|30:293|7:230,1,128,2|0,1:2|0:2,0:2:0:0:
77,87,146263,1,0,1:2:0:0:
168,101,146490,2,0,P|181:160|206:233,1,128,8|0,0:2|0:2,0:2:0:0:
202,224,147172,1,0,0:2:0:0:
110,363,147399,2,0,P|140:350|171:343,1,64,2|8,1:2|0:2,0:2:0:0:
354,351,147854,2,0,P|324:361|294:370,1,64,0|0,0:2|1:2,0:2:0:0:
337,211,148308,5,8,0:2:0:0:
419,272,148536,1,0,0:2:0:0:
498,242,148763,1,0,0:2:0:0:
442,112,148990,1,0,0:2:0:0:
290,126,149217,6,0,L|161:165,1,128,2|0,1:2|0:2,0:2:0:0:
24,76,149899,1,0,1:2:0:0:
98,80,150127,1,8,0:2:0:0:
44,147,150354,1,0,0:2:0:0:
110,190,150581,1,0,0:2:0:0:
53,254,150808,1,8,0:2:0:0:
252,211,151036,5,2,1:2:0:0:
159,288,151263,1,0,1:2:0:0:
295,283,151490,2,0,L|364:308,1,64,0|0,1:2|0:2,0:2:0:0:
447,163,151945,2,0,L|378:181,1,64,8|0,0:2|0:2,0:2:0:0:
460,361,152399,1,0,1:2:0:0:
507,256,152627,1,8,1:2:0:0:
294,132,152854,6,0,L|327:-1,1,128,2|0,1:2|0:2,0:2:0:0:
419,42,153536,1,0,1:2:0:0:
190,118,153763,2,0,L|58:91,1,128,8|0,0:2|0:2,0:2:0:0:
16,158,154445,1,0,0:2:0:0:
149,304,154672,1,2,1:2:0:0:
222,225,154899,1,0,1:2:0:0:
130,193,155127,1,0,1:2:0:0:
0,251,155354,2,0,L|72:267,1,64,0|8,0:2|0:2,0:2:0:0:
376,346,156036,5,0,1:2:0:0:
310,303,156263,1,0,1:2:0:0:
241,336,156490,1,2,0:2:0:0:
256,192,158308,12,0,160127,1:2:0:0:
149,253,160354,6,0,P|71:271|5:278,1,128,2|0,0:2|1:2,0:2:0:0:
290,297,161036,2,0,P|376:271|483:269,1,192,2|0,0:2|0:2,0:2:0:0:
226,201,161945,2,0,P|211:141|216:71,1,128,2|0,1:2|0:2,0:2:0:0:
215,75,162627,1,0,1:2:0:0:
301,37,162854,2,0,P|374:32|428:23,1,128,2|0,0:2|0:2,0:2:0:0:
428,22,163536,1,0,0:2:0:0:
324,182,163763,6,0,P|340:235|350:311,1,128,2|0,1:2|0:2,0:2:0:0:
349,306,164445,1,0,1:2:0:0:
502,274,164672,2,0,P|494:210|476:149,1,128,2|0,0:2|0:2,0:2:0:0:
476,149,165354,1,0,0:2:0:0:
352,125,165581,6,0,P|285:139|224:155,1,128,2|0,1:2|0:2,0:2:0:0:
85,31,166263,2,0,P|114:42|149:52,1,64,0|2,1:2|0:2,0:2:0:0:
151,179,166717,1,2,0:2:0:0:
79,202,166945,2,0,P|50:190|15:181,1,64,2|0,0:2|0:2,0:2:0:0:
241,107,167399,6,0,P|298:121|377:150,1,128,2|0,1:2|0:2,0:2:0:0:
397,215,168081,1,2,1:2:0:0:
489,182,168308,2,0,P|498:143|518:99,1,64,2|0,0:2|0:2,0:2:0:0:
291,284,168763,2,0,P|283:243|272:213,1,64,2|0,0:2|0:2,0:2:0:0:
493,378,169217,5,2,1:2:0:0:
512,300,169445,2,0,P|444:313|376:347,1,128,2|0,0:2|1:2,0:2:0:0:
150,321,170127,2,0,P|179:334|209:343,1,64,2|0,0:2|0:2,0:2:0:0:
318,216,170581,2,0,P|327:147|279:81,1,128,2|0,0:2|1:2,0:2:0:0:
231,53,171263,1,2,0:2:0:0:
112,168,171490,2,0,P|83:162|50:151,1,64,2|0,0:2|1:2,0:2:0:0:
164,300,171945,2,0,P|193:289|235:275,1,64,2|0,0:2|0:2,0:2:0:0:
42,287,172399,2,0,P|53:317|60:349,1,64,2|0,0:2|0:2,0:2:0:0:
312,195,172854,5,2,1:2:0:0:
217,168,173081,1,2,3:2:0:0:
330,341,173308,1,2,3:2:0:0:
422,275,173536,1,2,1:2:0:0:
223,250,173763,1,2,3:2:0:0:
385,121,173990,1,2,3:2:0:0:
194,43,174217,1,2,3:2:0:0:
291,0,174445,1,2,3:2:0:0:
92,189,174672,6,0,L|68:184,2,20,0|0|0,1:2|1:2|1:2,0:2:0:0:
174,134,175127,2,0,P|218:146|292:158,1,103.999995239258,8|8,0:2|0:3,0:2:0:0:
292,158,175430,2,8,L|307:192,1,34.6666650797527,8|8,0:3|0:3,0:3:0:0:
297,193,175581,2,8,P|351:205|416:220,1,103.999995239258,8|8,0:3|0:3,0:3:0:0:
476,175,175922,1,8,0:3:0:0:
499,212,176036,1,8,0:3:0:0:
479,253,176149,1,4,0:3:0:0:
489,281,176263,2,0,L|478:331,1,51.999997619629,4|0,0:3|0:2,0:2:0:0:
398,215,176490,6,0,P|369:112|433:34,1,207.999990478516,2|0,1:2|0:2,0:2:0:0:
500,95,177172,1,0,1:2:0:0:
286,239,177399,1,8,0:1:0:0:
137,71,177627,1,2,0:2:0:0:
335,21,177854,1,2,0:2:0:0:
268,141,178081,6,0,P|148:111|50:96,1,207.999990478516,10|8,0:2|0:2,0:2:0:0:
0,180,178763,1,2,0:2:0:0:
141,291,178990,1,0,1:2:0:0:
217,50,179217,1,8,0:1:0:0:
64,97,179445,1,2,0:2:0:0:
129,183,179672,1,2,0:2:0:0:
129,183,179786,1,2,0:2:0:0:
129,183,179899,1,8,0:2:0:0:
287,134,180127,6,0,P|336:146|400:166,1,103.999995239258,2|8,1:2|0:2,0:2:0:0:
512,295,180581,1,2,0:2:0:0:
425,362,180808,1,0,1:2:0:0:
296,253,181036,1,8,0:1:0:0:
473,114,181263,1,2,0:2:0:0:
328,0,181490,1,2,0:2:0:0:
166,142,181717,1,10,0:2:0:0:
286,153,181945,5,2,1:2:0:0:
286,153,182058,1,2,0:2:0:0:
286,153,182172,1,10,0:2:0:0:
190,10,182399,2,0,P|141:25|90:37,1,103.999995239258,2|0,0:2|1:2,0:2:0:0:
183,339,182854,2,0,P|231:320|282:309,1,103.999995239258,8|0,0:1|0:2,0:2:0:0:
142,142,183308,1,2,0:2:0:0:
142,142,183422,1,2,0:2:0:0:
142,142,183536,1,10,0:2:0:0:
66,353,183763,6,0,P|-2:252|31:161,1,207.999990478516,2|0,1:2|0:2,0:2:0:0:
238,52,184445,1,0,1:2:0:0:
216,276,184672,1,8,0:1:0:0:
91,217,184899,1,8,0:2:0:0:
289,142,185127,1,2,0:2:0:0:
289,142,185240,1,2,0:2:0:0:
289,142,185354,1,10,0:2:0:0:
410,208,185581,6,0,P|474:122|448:5,1,207.999990478516,2|0,1:2|0:2,0:2:0:0:
367,51,186263,1,0,1:2:0:0:
512,227,186490,1,8,0:1:0:0:
418,347,186717,1,8,0:2:0:0:
268,266,186945,1,2,0:2:0:0:
268,266,187058,1,2,0:2:0:0:
268,266,187172,1,10,0:2:0:0:
363,200,187399,5,2,1:2:0:0:
279,108,187627,1,8,0:2:0:0:
181,179,187854,1,2,3:2:0:0:
115,130,188081,1,0,1:2:0:0:
0,364,188308,2,0,P|90:318|205:295,2,207.999990478516,8|0|2,0:1|0:2|1:2,0:2:0:0:
