osu file format v14

[General]
AudioFilename: audio.ogg
AudioLeadIn: 0
PreviewTime: 200439
Countdown: 0
SampleSet: Soft
StackLeniency: 0.4
Mode: 0
LetterboxInBreaks: 0
WidescreenStoryboard: 0

[Editor]
DistanceSpacing: 0.2
BeatDivisor: 4
GridSize: 32
TimelineZoom: 2.999999

[Metadata]
Title:Owaranai Marionette
TitleUnicode:終わらないマリオネッテ
Artist:Kusunoki Arisu (CV: Horinaka Yuki)
ArtistUnicode:楠木ありす (CV:堀中優希)
Creator:Vanya
Version:Sorrow
Source:グリモア〜私立グリモワール魔法学園〜
Tags:asukow amats _kotachi_ -brethia kotachi vanya2 leominexd dahkjdas japanese rock jrock grazuko leomine j-rock video game grimoire a reverse record project リバースレコードプロジェクト第4弾 dai 4 dan ~shiritsu mahou gakuen~
BeatmapID:4392030
BeatmapSetID:2056032

[Difficulty]
HPDrainRate:5
CircleSize:4
OverallDifficulty:9.4
ApproachRate:9.8
SliderMultiplier:1.8
SliderTickRate:1

[Events]
//Background and Video events
0,0,"image.jpg",0,0
//Break Periods
2,88814,97735
2,181964,185035
//Storyboard Layer 0 (Background)
//Storyboard Layer 1 (Fail)
//Storyboard Layer 2 (Pass)
//Storyboard Layer 3 (Foreground)
//Storyboard Layer 4 (Overlay)
//Storyboard Sound Samples

[TimingPoints]
114,300,4,2,1,40,1,0
114,-133.333333333333,4,2,1,40,0,0
4914,-111.111111111111,4,2,1,65,0,0
14514,-133.333333333333,4,2,1,70,0,0
24114,-111.111111111111,4,2,1,75,0,0
33714,-111.111111111111,4,2,1,70,0,0
36114,-111.111111111111,4,2,1,78,0,0
38514,-111.111111111111,4,2,1,70,0,0
40914,-111.111111111111,4,2,1,75,0,0
43314,-200,4,2,1,50,0,0
46914,-166.666666666667,4,2,1,50,0,0
47514,-166.666666666667,4,2,1,65,0,0
48114,-100,4,2,1,70,0,0
52314,-100,4,2,1,78,0,0
52914,-100,4,2,1,20,0,0
54714,-100,4,2,1,40,0,0
55014,300,4,2,1,85,1,0
55014,-90.9090909090909,4,2,1,85,0,1
87414,-80,4,2,1,85,0,1
88614,-80,4,2,1,50,0,0
98214,-133.333333333333,4,2,1,65,0,0
105414,-111.111111111111,4,2,1,75,0,0
107664,-111.111111111111,4,2,1,45,0,0
109014,-200,4,2,1,45,0,0
112614,-100,4,2,1,78,0,0
115014,-100,4,2,1,75,0,0
117414,-100,4,2,1,70,0,0
122214,-100,4,2,1,78,0,0
127014,-100,4,2,1,20,0,0
129114,300,4,2,1,85,1,0
129114,-90.9090909090909,4,2,1,85,0,1
159789,-80,4,2,1,85,0,0
161064,-666.666666666667,4,2,1,40,0,0
162114,-80,4,2,1,78,0,0
162714,-80,4,2,1,85,0,0
172314,-80,4,2,1,85,0,1
181764,-80,4,2,1,45,0,0
185514,-133.333333333333,4,2,1,45,0,0
186714,-111.111111111111,4,2,1,70,0,0
191514,-111.111111111111,4,2,1,78,0,0
198264,-500,4,2,1,65,0,0
200514,-100,4,2,1,70,0,0
201114,-90.9090909090909,4,2,1,85,0,1
233514,-80,4,2,1,78,0,0
234714,-100,4,2,1,80,0,0
244164,-500,4,2,1,70,0,0
247914,-500,4,2,1,5,0,0

[Colours]
Combo1 : 37,226,170
Combo2 : 152,250,165
Combo3 : 252,153,148
Combo4 : 168,228,239

[HitObjects]
65,218,114,6,0,P|60:184|54:151,1,67.5000025749207,2|2,2:2|2:2,0:0:0:0:
130,114,414,2,0,P|134:147|140:180,1,67.5000025749207,2|2,2:2|2:2,0:0:0:0:
11,304,714,2,0,B|71:281|77:326|143:304,1,135.000005149841,2|0,2:2|0:0,0:0:0:0:
285,349,1164,1,2,2:2:0:0:
203,240,1314,5,2,2:2:0:0:
327,192,1464,2,0,B|377:200|377:200|404:223|404:223|452:231,1,135.000005149841,2|2,2:2|2:2,0:0:0:0:
338,282,1914,1,2,2:2:0:0:
338,282,2064,1,0,0:0:0:0:
247,166,2214,2,0,P|250:132|255:88,1,67.5000025749207,2|2,2:2|2:2,0:0:0:0:
334,0,2514,6,0,P|321:42|335:85,1,67.5000025749207,2|2,2:2|2:2,0:0:0:0:
404,76,2814,2,0,P|417:34|403:-9,1,67.5000025749207,2|2,2:2|2:2,0:0:0:0:
251,93,3114,2,0,P|201:104|152:114,1,101.250003862381,2|0,2:2|0:0,0:0:0:0:
73,127,3414,6,0,B|45:92|45:92|159:129|159:129|112:256,1,270.000010299683,2|2,2:2|2:2,0:0:0:0:
18,361,4164,2,0,L|4:270,1,67.5000025749207,2|2,2:2|2:2,0:0:0:0:
213,325,4464,2,0,B|294:345|285:286|376:315,1,168.750006437302,2|0,2:2|0:0,0:0:0:0:
441,364,4914,6,0,P|402:315|431:202,1,161.999995056152,4|2,1:2|1:2,0:0:0:0:
279,49,5364,1,10,2:2:0:0:
279,49,5814,6,0,L|382:34,1,80.9999975280762,2|2,1:2|2:2,0:0:0:0:
261,169,6114,1,2,1:2:0:0:
203,0,6264,2,0,P|194:43|188:103,1,80.9999975280762,10|0,2:2|0:0,0:0:0:0:
61,331,6714,5,0,1:1:0:0:
16,209,6864,1,0,1:1:0:0:
129,275,7014,2,0,B|167:292|167:292|218:285,1,80.9999975280762,10|0,2:2|0:0,0:0:0:0:
368,94,7314,6,0,P|309:89|269:195,1,161.999995056152,4|2,1:2|1:2,0:0:0:0:
360,344,7764,1,10,2:2:0:0:
360,344,8214,6,0,L|458:328,1,80.9999975280762,2|2,1:2|2:2,0:0:0:0:
512,234,8514,1,2,1:2:0:0:
378,107,8664,2,0,L|364:221,1,80.9999975280762,10|0,2:2|0:0,0:0:0:0:
192,374,9114,5,0,1:1:0:0:
93,290,9264,1,0,1:1:0:0:
93,290,9339,1,0,1:1:0:0:
93,290,9414,2,0,L|79:188,1,80.9999975280762,10|0,2:2|0:0,0:0:0:0:
25,351,9714,5,4,1:2:0:0:
170,252,9864,1,2,2:2:0:0:
15,160,10014,1,2,1:2:0:0:
93,290,10164,2,0,P|106:336|110:387,1,80.9999975280762,10|0,2:2|0:0,0:0:0:0:
487,351,10614,5,2,1:2:0:0:
342,252,10764,1,2,2:2:0:0:
497,160,10914,1,2,1:2:0:0:
419,290,11064,2,0,P|406:336|402:387,1,80.9999975280762,10|0,2:2|0:0,0:0:0:0:
245,175,11514,6,0,L|233:89,1,80.9999975280762,0|0,1:1|1:1,0:0:0:0:
380,15,11814,1,10,2:2:0:0:
322,133,11964,1,0,0:0:0:0:
175,36,12114,6,0,B|122:44|122:44|77:27|77:27|18:36,1,161.999995056152,4|2,1:2|1:2,0:0:0:0:
89,232,12564,1,10,2:2:0:0:
337,36,13014,6,0,B|390:44|390:44|435:27|435:27|493:36,1,161.999995056152,2|2,1:2|1:2,0:0:0:0:
423,232,13464,1,8,2:2:0:0:
255,380,13764,5,0,3:3:0:0:
255,380,13839,1,0,3:3:0:0:
255,380,13914,1,0,1:1:0:0:
184,251,14064,1,2,1:2:0:0:
312,304,14214,1,10,2:2:0:0:
171,336,14364,1,2,2:2:0:0:
269,227,14514,6,0,P|274:195|280:141,1,67.5000025749207,4|0,1:2|0:0,0:0:0:0:
411,55,14814,1,2,1:2:0:0:
468,120,14964,2,0,P|397:139|335:101,1,135.000005149841,10|2,2:2|2:2,0:0:0:0:
209,34,15414,6,0,P|213:67|219:100,1,67.5000025749207,0|2,1:1|2:2,0:0:0:0:
170,172,15714,1,0,1:1:0:0:
92,130,15864,2,0,P|52:134|17:230,1,135.000005149842,8|0,2:2|3:3,0:0:0:0:
162,374,16314,1,0,1:1:0:0:
204,305,16464,1,2,1:2:0:0:
139,252,16614,2,0,P|104:261|44:272,1,67.5000025749208,10|2,2:2|2:2,0:0:0:0:
289,306,16914,6,0,B|312:313|335:312|335:312|366:334|366:334|388:334|416:341,1,135.000005149842,2|2,1:2|1:2,0:0:0:0:
357,223,17364,2,0,P|330:173|346:99,1,135.000005149842,10|2,2:2|2:2,0:0:0:0:
481,39,17814,6,0,L|470:128,1,67.5000025749208,0|2,1:1|2:2,0:0:0:0:
401,42,18114,1,0,1:1:0:0:
333,92,18264,2,0,B|263:85|278:127|204:123,1,135.000005149842,8|0,2:2|0:0,0:0:0:0:
79,46,18714,1,2,1:2:0:0:
127,159,18864,1,0,1:1:0:0:
165,46,19014,1,10,2:2:0:0:
54,121,19164,1,2,2:2:0:0:
107,237,19314,6,0,L|190:252,1,67.5000025749208,2|0,1:2|0:0,0:0:0:0:
203,363,19614,1,0,1:1:0:0:
251,295,19764,2,0,L|411:274,1,135.000005149842,8|0,2:2|0:0,0:0:0:0:
481,207,20214,6,0,P|491:157|470:135,1,67.5000025749208,2|2,1:2|2:2,0:0:0:0:
428,87,20514,1,8,2:2:0:0:
361,137,20664,2,0,L|378:288,1,135.000005149842,0|0,1:1|0:0,0:0:0:0:
256,354,21114,1,2,1:2:0:0:
180,381,21264,1,0,1:1:0:0:
125,324,21414,2,0,L|140:242,1,67.5000025749208,10|0,2:2|0:0,0:0:0:0:
17,101,21714,6,0,P|15:154|104:189,1,135.000005149842,4|8,1:2|2:2,0:0:0:0:
200,86,22164,1,2,1:2:0:0:
143,27,22314,2,0,P|116:35|57:47,1,67.5000025749208,2|0,2:2|1:1,0:0:0:0:
170,170,22614,6,0,B|218:177|218:177|247:198|247:198|296:205,1,135.000005149842,8|10,2:2|2:2,0:0:0:0:
423,81,23064,1,2,1:2:0:0:
423,81,23364,1,0,1:1:0:0:
391,202,23514,1,2,2:2:0:0:
326,94,23664,1,2,1:2:0:0:
503,177,23814,1,10,2:2:0:0:
314,88,23964,1,2,1:2:0:0:
468,283,24114,6,0,B|388:268|394:322|311:310,1,161.999995056153,4|10,1:2|2:2,0:0:0:0:
139,368,24564,2,0,P|112:309|141:269,1,80.9999975280763,2|0,1:2|0:0,0:0:0:0:
224,172,24864,1,2,1:2:0:0:
304,321,25014,1,8,2:2:0:0:
144,212,25164,6,0,P|87:207|26:310,1,161.999995056153,2|0,2:2|1:1,0:0:0:0:
225,384,25614,2,0,P|219:343|214:303,1,80.9999975280763,8|0,2:2|1:1,0:0:0:0:
345,151,25914,1,0,0:0:0:0:
427,310,26064,1,2,1:2:0:0:
275,243,26214,1,10,2:2:0:0:
447,180,26364,1,2,2:2:0:0:
283,47,26514,6,0,B|259:31|227:30|227:30|210:43|186:48|186:48|154:32|120:32,1,161.999995056153,2|10,1:2|2:2,0:0:0:0:
0,181,26964,2,0,P|41:169|95:160,1,80.9999975280763,2|0,1:2|0:0,0:0:0:0:
263,133,27264,1,2,1:2:0:0:
138,267,27414,1,8,2:2:0:0:
44,67,27564,6,0,P|69:109|202:113,1,161.999995056153,2|0,2:2|1:1,0:0:0:0:
312,221,28014,2,0,L|412:236,1,80.9999975280763,8|0,2:2|1:1,0:0:0:0:
241,384,28314,2,0,L|226:284,1,80.9999975280763,0|2,0:0|1:2,0:0:0:0:
50,234,28614,1,10,2:2:0:0:
123,350,28764,1,2,2:2:0:0:
212,206,28914,6,0,P|221:146|231:28,1,161.999995056153,2|8,1:2|2:2,0:0:0:0:
118,144,29364,1,0,1:1:0:0:
312,221,29514,2,0,B|392:203|389:253|469:239,1,161.999995056153,2|8,2:2|2:2,0:0:0:0:
351,115,29964,1,0,0:0:0:0:
212,206,30114,6,0,P|194:282|236:349,1,161.999995056153,2|8,1:2|2:2,0:0:0:0:
386,269,30564,1,0,1:1:0:0:
266,131,30714,2,0,P|260:94|253:37,1,80.9999975280763,2|0,2:2|1:1,0:0:0:0:
468,11,31014,1,8,2:2:0:0:
400,188,31164,1,0,1:1:0:0:
244,36,31314,6,0,P|206:31|150:18,1,80.9999975280763,14|0,2:2|0:0,0:0:0:0:
17,181,31614,1,2,1:2:0:0:
176,120,31764,1,8,2:2:0:0:
104,304,31914,2,0,P|112:343|118:383,1,80.9999975280763,2|0,2:2|1:1,0:0:0:0:
330,269,32214,6,0,P|263:281|186:205,1,161.999995056153,14|0,2:2|1:1,0:0:0:0:
72,107,32664,1,8,2:2:0:0:
228,44,32814,1,0,0:0:0:0:
107,184,32964,1,0,1:1:0:0:
338,93,33114,5,10,2:2:0:0:
132,4,33264,1,2,2:2:0:0:
212,235,33414,1,0,3:3:0:0:
325,0,33564,1,2,2:2:0:0:
506,143,33714,6,0,P|473:148|398:161,1,80.9999975280763,4|0,1:2|0:0,0:0:0:0:
229,90,34014,2,0,B|152:69|147:121|70:106,1,161.999995056153,8|2,2:2|2:2,0:0:0:0:
212,235,34464,1,0,1:1:0:0:
324,172,34614,2,0,P|328:141|347:58,1,80.9999975280763,8|0,2:2|0:0,0:0:0:0:
113,204,34914,6,0,P|138:294|150:385,1,161.999995056153,2|8,1:2|2:2,0:0:0:0:
299,250,35364,2,0,P|346:249|409:363,1,161.999995056153,0|0,1:1|1:1,0:0:0:0:
212,235,35814,1,8,2:2:0:0:
324,95,35964,1,0,1:1:0:0:
120,192,36114,6,0,P|78:185|18:174,1,80.9999975280763,14|0,2:2|0:0,0:0:0:0:
148,361,36414,1,2,1:2:0:0:
299,250,36564,2,0,P|306:212|314:156,1,80.9999975280763,10|0,2:2|0:0,0:0:0:0:
108,38,36864,1,2,1:2:0:0:
212,235,37014,5,8,2:2:0:0:
324,78,37164,1,2,2:2:0:0:
174,121,37314,1,0,1:1:0:0:
389,236,37464,2,0,P|440:240|483:134,1,161.999995056153,8|0,2:2|1:1,0:0:0:0:
383,21,37914,1,8,2:2:0:0:
274,158,38064,5,2,1:2:0:0:
409,118,38214,1,2,3:2:0:0:
289,0,38364,1,2,2:2:0:0:
202,208,38514,6,0,P|161:214|108:227,1,80.9999975280763,4|0,1:2|0:0,0:0:0:0:
10,87,38814,1,2,1:2:0:0:
150,0,38964,2,0,L|135:105,1,80.9999975280763,10|0,2:2|0:0,0:0:0:0:
35,219,39264,1,0,1:1:0:0:
208,284,39414,2,0,P|213:230|174:186,1,80.9999975280763,10|0,2:2|1:1,0:0:0:0:
335,59,39714,5,14,2:2:0:0:
439,279,39864,1,0,1:1:0:0:
208,199,40014,1,8,2:2:0:0:
432,32,40164,2,0,L|414:134,1,80.9999975280763,4|2,1:1|2:2,0:0:0:0:
363,342,40464,2,0,B|278:332|292:386|208:379,1,161.999995056153,4|0,1:1|0:0,0:0:0:0:
0,246,40914,6,0,P|86:261|181:275,1,161.999995056153,4|8,1:2|2:2,0:0:0:0:
330,200,41364,1,2,2:2:0:0:
203,94,41514,2,0,P|197:62|185:-4,1,80.9999975280763,2|0,2:2|1:1,0:0:0:0:
429,90,41814,2,0,P|421:129|414:169,1,80.9999975280763,8|0,2:2|0:0,0:0:0:0:
261,276,42114,5,2,1:2:0:0:
451,368,42264,2,0,P|412:355|372:350,1,80.9999975280763,2|8,2:2|2:2,0:0:0:0:
504,205,42564,1,0,0:0:0:0:
291,65,42714,5,2,1:2:0:0:
418,265,42864,1,10,2:2:0:0:
483,32,43014,1,2,2:2:0:0:
330,200,43164,1,2,2:2:0:0:
213,17,43314,6,0,B|180:17|154:45|154:45|105:8|47:29,1,180,4|2,1:2|2:2,0:0:0:0:
325,197,44514,6,0,B|357:197|383:225|383:225|432:188|490:209,1,180,2|2,2:2|2:2,0:0:0:0:
166,292,45714,6,0,P|102:283|20:374,1,180,2|2,2:2|2:2,0:0:0:0:
142,186,46614,1,2,2:2:0:0:
350,277,46914,2,0,P|428:279|477:340,1,161.999995056153,2|2,2:2|2:2,0:0:0:0:
272,353,47514,5,8,2:2:0:0:
228,231,47664,1,8,2:2:0:0:
154,332,47814,1,8,2:2:0:0:
333,264,47964,1,8,2:2:0:0:
162,101,48114,6,0,P|119:95|54:81,1,90,4|2,1:2|2:2,0:0:0:0:
3,230,48414,2,0,P|47:221|91:214,1,90,10|2,2:2|1:2,0:0:0:0:
300,344,48714,1,10,2:2:0:0:
246,135,48864,1,2,2:2:0:0:
148,279,49014,1,2,1:2:0:0:
334,174,49164,6,0,B|367:171|403:162|403:162|450:175|450:175|483:165|510:163,1,180,10|8,2:2|2:2,0:0:0:0:
312,335,49614,2,0,P|304:290|289:248,1,90,2|0,2:2|1:1,0:0:0:0:
366,70,49914,2,0,P|422:66|459:126,1,90,10|0,2:2|0:0,0:0:0:0:
220,0,50214,1,2,1:2:0:0:
220,0,50289,1,8,2:2:0:0:
220,0,50364,2,0,P|230:44|235:76,1,45,8|8,2:2|2:2,0:0:0:0:
189,216,50514,6,0,B|121:205|120:246|57:237,1,135,4|0,1:2|0:0,0:0:0:0:
2,180,50814,2,0,P|4:128|63:103,1,90,8|2,2:2|2:2,0:0:0:0:
179,73,51114,2,0,P|222:83|284:94,1,90,0|0,1:1|0:0,0:0:0:0:
381,230,51414,1,8,2:2:0:0:
209,365,51564,1,0,0:0:0:0:
341,143,51714,6,0,P|385:134|429:124,1,90,2|0,1:2|0:0,0:0:0:0:
376,322,52014,2,0,P|332:311|287:303,1,90,8|0,2:2|0:0,0:0:0:0:
118,184,52314,2,0,L|107:113,1,45,0|0,1:1|3:3,0:0:0:0:
223,20,52464,1,0,3:3:0:0:
238,15,52539,1,0,3:3:0:0:
253,16,52614,1,0,3:3:0:0:
268,22,52689,1,8,2:2:0:0:
279,33,52764,2,0,L|268:104,1,45,8|8,2:2|2:2,0:0:0:0:
247,225,55014,6,0,P|187:267|55:231,1,198.000006042481,4|10,1:2|2:2,0:0:0:0:
126,0,55464,2,0,L|143:116,1,99.0000030212403,2|0,1:2|0:0,0:0:0:0:
400,289,55764,1,2,1:2:0:0:
261,88,55914,1,8,2:2:0:0:
156,298,56064,1,2,2:2:0:0:
365,137,56214,6,0,P|368:110|381:20,1,99.0000030212403,0|0,1:1|1:1,0:0:0:0:
252,337,56514,2,0,P|249:310|236:220,1,99.0000030212403,10|0,2:2|1:1,0:0:0:0:
91,77,56814,1,2,2:2:0:0:
0,251,56964,1,0,1:1:0:0:
180,144,57114,2,0,L|288:127,1,99.0000030212403,10|0,2:2|0:0,0:0:0:0:
512,272,57414,6,0,B|487:255|452:258|452:258|423:277|390:278|390:278|358:255|325:256,1,198.000006042481,2|8,1:2|2:2,0:0:0:0:
247,14,57864,2,0,P|332:10|366:140,1,198.000006042481,2|0,1:2|1:1,0:0:0:0:
240,287,58314,2,0,P|230:348|225:397,1,99.0000030212403,8|0,2:2|0:0,0:0:0:0:
111,94,58614,5,0,1:1:0:0:
320,241,58764,1,0,1:1:0:0:
94,311,58914,2,0,L|-9:345,1,99.0000030212403,8|0,2:2|1:1,0:0:0:0:
197,164,59214,1,2,2:2:0:0:
318,346,59364,1,0,1:1:0:0:
92,182,59514,2,0,P|86:132|77:84,1,99.0000030212403,10|0,2:2|0:0,0:0:0:0:
328,11,59814,6,0,B|317:96|317:96|305:116|305:116|294:203,1,198.000006042481,4|8,1:2|2:2,0:0:0:0:
480,384,60264,2,0,L|463:282,1,99.0000030212403,2|0,1:2|0:0,0:0:0:0:
246,294,60564,1,0,1:1:0:0:
396,131,60714,2,0,P|443:145|491:154,1,99.0000030212403,8|0,2:2|0:0,0:0:0:0:
234,305,61014,6,0,P|186:290|138:281,1,99.0000030212403,0|0,1:1|1:1,0:0:0:0:
19,176,61314,2,0,P|11:118|62:73,1,99.0000030212403,10|0,2:2|1:1,0:0:0:0:
232,0,61614,1,2,2:2:0:0:
116,194,61764,1,0,1:1:0:0:
313,62,61914,2,0,L|428:42,1,99.0000030212403,10|0,2:2|0:0,0:0:0:0:
505,312,62214,6,0,B|466:282|411:273|411:273|376:307|325:320,1,198.000006042481,2|8,1:2|2:2,0:0:0:0:
214,142,62664,1,2,1:2:0:0:
433,176,62814,2,0,P|375:188|319:195,1,99.0000030212403,2|0,2:2|1:1,0:0:0:0:
163,302,63114,2,0,P|151:244|144:188,1,99.0000030212403,8|0,2:2|0:0,0:0:0:0:
253,26,63414,5,0,1:1:0:0:
41,150,63564,1,0,1:1:0:0:
252,287,63714,2,0,L|359:308,1,99.0000030212403,8|0,2:2|1:1,0:0:0:0:
185,88,64014,5,2,2:2:0:0:
43,324,64164,1,0,1:1:0:0:
304,178,64314,1,10,2:2:0:0:
68,0,64464,5,0,3:3:0:0:
68,0,64539,1,0,3:3:0:0:
68,0,64614,2,0,B|10:36|10:36|59:163,1,198.000006042481,4|10,1:2|2:2,0:0:0:0:
367,85,65064,2,0,L|251:61,1,99.0000030212403,2|0,1:2|0:0,0:0:0:0:
354,287,65364,1,2,1:2:0:0:
140,179,65514,1,8,2:2:0:0:
377,77,65664,6,0,P|384:125|393:174,1,99.0000030212403,2|0,2:2|1:1,0:0:0:0:
269,357,65964,1,0,1:1:0:0:
463,295,66114,2,0,P|414:285|365:278,1,99.0000030212403,10|0,2:2|1:1,0:0:0:0:
199,119,66414,1,2,2:2:0:0:
111,291,66564,1,0,1:1:0:0:
279,203,66714,2,0,L|294:90,1,99.0000030212403,10|0,2:2|0:0,0:0:0:0:
50,3,67014,6,0,P|15:50|60:179,1,198.000006042481,2|8,1:2|2:2,0:0:0:0:
192,334,67464,2,0,B|93:304|109:382|-9:352,1,198.000006042481,2|0,1:2|1:1,0:0:0:0:
156,143,67914,2,0,L|134:31,1,99.0000030212403,8|0,2:2|0:0,0:0:0:0:
375,138,68214,5,0,1:1:0:0:
194,234,68364,1,0,1:1:0:0:
322,30,68514,2,0,P|375:47|456:58,1,99.0000030212403,8|0,2:2|1:1,0:0:0:0:
498,291,68814,1,2,2:2:0:0:
281,173,68964,1,0,1:1:0:0:
507,46,69114,1,10,2:2:0:0:
341,280,69264,1,0,0:0:0:0:
413,37,69414,6,0,B|413:71|425:105|425:105|400:156|400:156|416:197|416:226,1,198.000006042481,2|8,1:2|2:2,0:0:0:0:
257,371,69864,1,2,1:2:0:0:
119,213,70014,2,0,P|168:228|226:239,1,99.0000030212403,2|0,2:2|1:1,0:0:0:0:
0,377,70314,2,0,P|49:362|107:351,1,99.0000030212403,8|0,2:2|0:0,0:0:0:0:
271,158,70614,5,0,1:1:0:0:
90,75,70764,1,0,1:1:0:0:
213,252,70914,2,0,L|231:366,1,99.0000030212403,10|0,2:2|1:1,0:0:0:0:
411,73,71214,1,2,2:2:0:0:
180,149,71364,1,0,1:1:0:0:
358,282,71514,1,10,2:2:0:0:
206,28,71664,1,0,1:1:0:0:
512,185,71814,6,0,P|468:202|392:210,1,99.0000030212403,14|0,2:2|0:0,0:0:0:0:
242,355,72114,1,0,1:1:0:0:
318,83,72264,2,0,L|344:214,1,99.0000030212403,10|0,2:2|0:0,0:0:0:0:
501,363,72564,1,0,1:1:0:0:
272,240,72714,2,0,P|223:247|176:265,1,99.0000030212403,8|0,2:2|1:1,0:0:0:0:
326,69,73014,5,8,2:2:0:0:
171,281,73164,2,0,P|90:294|10:216,1,198.000006042481,4|2,1:2|1:2,0:0:0:0:
254,19,73614,1,10,2:2:0:0:
356,266,73764,1,2,2:2:0:0:
145,165,73914,1,2,3:2:0:0:
318,83,74064,1,2,2:2:0:0:
153,264,74214,6,0,P|106:271|45:288,1,99.0000030212403,4|0,1:2|0:0,0:0:0:0:
0,67,74514,2,0,P|47:74|108:91,1,99.0000030212403,0|0,1:1|0:0,0:0:0:0:
253,291,74814,5,0,1:1:0:0:
398,131,74964,1,2,2:2:0:0:
204,66,75114,1,10,2:2:0:0:
339,247,75264,1,2,2:2:0:0:
442,25,75414,6,0,L|311:-6,1,99.0000030212403,2|0,1:2|0:0,0:0:0:0:
159,180,75714,2,0,L|290:149,1,99.0000030212403,10|0,2:2|0:0,0:0:0:0:
493,285,76014,1,0,1:1:0:0:
287,369,76164,2,0,L|277:296,1,49.5000015106202,2|0,2:2|0:0,0:0:0:0:
390,182,76314,1,10,2:2:0:0:
474,375,76464,5,2,2:2:0:0:
474,375,76539,1,8,2:2:0:0:
474,375,76614,2,0,L|344:357,1,99.0000030212403,2|0,1:2|0:0,0:0:0:0:
362,287,76839,1,8,2:2:0:0:
362,287,76914,2,0,L|232:305,1,99.0000030212403,2|0,1:2|0:0,0:0:0:0:
177,384,77139,5,8,2:2:0:0:
177,384,77214,2,0,L|186:305,1,49.5000015106202,0|0,1:1|0:0,0:0:0:0:
133,162,77364,1,2,2:2:0:0:
133,162,77439,1,8,2:2:0:0:
133,162,77514,1,2,1:2:0:0:
0,298,77664,6,0,L|94:279,1,49.5000015106202,2|8,3:2|2:2,0:0:0:0:
231,188,77814,1,2,1:2:0:0:
0,123,77964,6,0,L|9:202,1,49.5000015106202,0|8,3:3|2:2,0:0:0:0:
159,294,78114,1,2,1:2:0:0:
71,33,78264,5,0,3:3:0:0:
71,33,78339,1,8,2:2:0:0:
71,33,78414,2,0,L|80:112,1,49.5000015106202,2|8,1:2|2:2,0:0:0:0:
173,302,78564,2,0,L|179:252,1,49.5000015106202,8|8,2:2|2:2,0:0:0:0:
343,154,78714,5,2,1:2:0:0:
390,142,78789,1,8,2:2:0:0:
436,158,78864,1,8,2:2:0:0:
465,197,78939,1,8,2:2:0:0:
467,246,79014,6,0,P|415:252|330:272,1,99.0000030212403,12|0,2:2|0:0,0:0:0:0:
185,160,79314,1,0,1:1:0:0:
363,47,79464,5,10,2:2:0:0:
276,297,79614,1,2,0:0:0:0:
82,127,79764,1,0,1:1:0:0:
362,383,79914,5,14,2:2:0:0:
268,84,80064,1,2,0:0:0:0:
57,295,80214,1,0,1:1:0:0:
373,164,80364,5,10,2:2:0:0:
101,9,80514,1,2,0:0:0:0:
263,284,80664,1,0,1:1:0:0:
499,33,80814,5,10,2:2:0:0:
460,2,80889,1,8,2:2:0:0:
411,0,80964,1,8,2:2:0:0:
369,25,81039,1,8,2:2:0:0:
349,69,81114,2,0,P|367:131|375:174,1,99.0000030212403,2|0,3:2|3:3,0:0:0:0:
5,360,81414,6,0,B|30:343|65:346|65:346|94:365|127:366|127:366|159:343|192:344,1,198.000006042481,4|8,1:2|2:2,0:0:0:0:
342,249,81864,1,2,2:2:0:0:
139,166,82014,2,0,B|121:212|121:212|139:258,1,99.0000030212403,2|0,1:2|0:0,0:0:0:0:
278,106,82314,1,8,2:2:0:0:
96,19,82464,1,2,2:2:0:0:
225,209,82614,6,0,B|259:209|293:197|293:197|344:222|344:222|385:206|414:206,1,198.000006042481,2|8,1:2|2:2,0:0:0:0:
277,340,83064,1,2,2:2:0:0:
144,159,83214,1,2,1:2:0:0:
342,249,83364,1,0,0:0:0:0:
191,384,83514,2,0,P|188:350|175:272,1,99.0000030212403,8|2,2:2|2:2,0:0:0:0:
371,114,83814,6,0,P|437:112|500:224,2,198.000006042481,4|8|2,1:2|2:2|1:2,0:0:0:0:
512,309,84564,2,0,P|464:294|415:286,1,99.0000030212403,2|2,2:2|1:2,0:0:0:0:
232,192,84864,6,0,B|205:87|273:103|249:-2,1,198.000006042481,8|0,2:2|1:1,0:0:0:0:
135,135,85314,2,0,P|87:149|38:157,1,99.0000030212403,10|0,2:2|0:0,0:0:0:0:
184,278,85614,1,0,1:1:0:0:
184,278,85689,1,8,2:2:0:0:
184,278,85764,1,0,3:3:0:0:
0,375,85914,1,8,2:2:0:0:
3,336,85989,1,0,3:3:0:0:
28,306,86064,1,0,3:3:0:0:
66,297,86139,1,0,1:1:0:0:
102,312,86214,6,0,L|261:335,1,148.50000453186,4|8,1:2|2:2,0:0:0:0:
319,290,86514,2,0,P|334:238|288:191,1,99.0000030212403,8|0,2:2|3:3,0:0:0:0:
239,175,86739,1,8,2:2:0:0:
239,175,86814,2,0,L|227:100,1,49.5000015106202,8|0,2:2|3:3,0:0:0:0:
289,73,86964,6,0,P|330:7|293:77,1,247.500007553101,0|0,1:1|0:0,0:0:0:0:
156,99,87414,6,0,P|110:115|8:128,1,112.5,12|0,2:2|3:3,0:0:0:0:
0,189,87639,1,0,3:3:0:0:
0,189,87714,1,0,1:1:0:0:
136,359,87864,2,0,P|202:366|278:257,1,168.75,8|0,2:2|3:3,0:0:0:0:
348,285,88164,2,0,P|345:264|336:189,1,56.25,0|0,1:1|0:0,0:0:0:0:
259,57,88314,5,8,2:2:0:0:
260,42,88389,1,8,2:2:0:0:
261,28,88464,1,8,2:2:0:0:
262,14,88539,1,8,2:2:0:0:
264,0,88614,1,4,1:2:0:0:
264,0,98214,6,0,P|296:57|278:120,1,135.000005149842,4|2,1:2|1:2,0:0:0:0:
83,189,98664,2,0,B|129:193|129:193|169:170|169:170|213:175,1,135.000005149842,10|2,2:2|2:2,0:0:0:0:
194,324,99114,2,0,L|185:245,1,67.5000025749208,0|2,1:1|2:2,0:0:0:0:
109,300,99414,5,0,1:1:0:0:
269,241,99564,2,0,B|338:231|334:270|399:267,1,135.000005149842,8|0,2:2|0:0,0:0:0:0:
494,137,100014,1,0,1:1:0:0:
421,104,100164,1,2,1:2:0:0:
362,157,100314,2,0,P|318:147|266:138,1,67.5000025749208,10|2,2:2|2:2,0:0:0:0:
476,309,100614,6,0,P|409:321|344:337,1,135.000005149842,4|2,1:2|1:2,0:0:0:0:
197,220,101064,2,0,P|242:206|290:284,1,135.000005149842,10|2,2:2|2:2,0:0:0:0:
152,352,101514,2,0,L|139:268,1,67.5000025749208,4|2,1:2|2:2,0:0:0:0:
26,180,101814,5,0,1:1:0:0:
122,101,101964,2,0,P|188:112|255:118,1,135.000005149842,8|0,2:2|0:0,0:0:0:0:
390,212,102414,1,0,1:1:0:0:
468,229,102564,1,2,1:2:0:0:
508,162,102714,2,0,L|493:88,1,67.5000025749208,10|2,2:2|2:2,0:0:0:0:
358,30,103014,6,0,P|325:75|350:172,1,135.000005149842,4|8,1:2|2:2,0:0:0:0:
265,203,103464,1,0,1:1:0:0:
311,334,103614,2,0,L|320:267,1,67.5000025749208,2|0,2:2|0:0,0:0:0:0:
196,152,103914,2,0,P|164:152|129:161,1,67.5000025749208,0|0,1:1|0:0,0:0:0:0:
249,88,104214,5,10,2:2:0:0:
118,172,104364,2,0,P|67:179|30:97,1,135.000005149842,8|0,2:2|3:3,0:0:0:0:
137,264,104814,1,2,2:2:0:0:
204,162,104964,1,0,1:1:0:0:
228,308,105114,2,0,P|220:274|217:220,1,67.5000025749208,8|0,2:2|0:0,0:0:0:0:
0,317,105414,6,0,B|56:327|56:327|90:357|90:357|148:368,1,161.999995056153,4|2,1:2|1:2,0:0:0:0:
322,274,105864,2,0,L|310:370,1,80.9999975280763,10|0,2:2|1:1,0:0:0:0:
228,308,106164,1,0,1:1:0:0:
471,338,106314,2,0,P|431:346|393:360,1,80.9999975280763,14|2,2:2|2:2,0:0:0:0:
306,379,106614,5,0,1:1:0:0:
393,183,106764,2,0,L|404:264,1,80.9999975280763,8|0,2:2|1:1,0:0:0:0:
277,40,107064,5,0,3:3:0:0:
277,40,107139,1,8,2:2:0:0:
277,40,107214,2,0,L|266:100,1,40.4999987640381,10|0,2:2|3:3,0:0:0:0:
146,195,107364,2,0,L|138:155,1,40.4999987640381,2|0,3:2|3:3,0:0:0:0:
55,59,107514,1,10,2:2:0:0:
55,59,107589,1,8,2:2:0:0:
55,59,107664,1,4,1:2:0:0:
55,59,108714,5,0,0:2:0:0:
111,122,109014,2,0,P|177:132|243:148,1,135,2|0,2:2|0:0,0:0:0:0:
243,148,110214,6,0,P|280:135|301:79,1,90,2|2,2:2|2:2,0:0:0:0:
344,69,110664,2,0,P|396:67|435:136,1,135,2|0,2:2|0:0,0:0:0:0:
501,179,111414,2,0,L|482:328,1,135,2|2,2:2|2:2,0:0:0:0:
483,312,112314,2,0,P|454:317|416:327,1,67.5,2|0,2:2|0:0,0:0:0:0:
355,375,112614,5,12,2:2:0:0:
176,234,112764,1,0,0:0:0:0:
382,164,112914,1,2,1:2:0:0:
274,344,113064,2,0,P|270:307|257:234,1,90,14|0,2:2|0:0,0:0:0:0:
131,114,113364,1,0,1:1:0:0:
282,2,113514,2,0,P|278:38|265:111,1,90,10|0,2:2|0:0,0:0:0:0:
161,242,113814,5,2,1:2:0:0:
0,60,113964,2,0,P|83:38|140:102,1,180,8|0,2:2|1:1,0:0:0:0:
33,285,114414,1,14,2:2:0:0:
241,183,114564,1,0,1:1:0:0:
6,151,114714,2,0,P|53:172|122:184,1,90,10|0,2:2|1:1,0:0:0:0:
235,333,115014,6,0,L|440:309,1,180,4|8,1:2|2:2,0:0:0:0:
512,166,115464,1,2,1:2:0:0:
343,226,115614,2,0,B|327:183|327:183|336:139,1,90,0|0,0:0|1:1,0:0:0:0:
453,0,115914,2,0,L|440:119,1,90,8|0,2:2|0:0,0:0:0:0:
294,33,116214,5,0,1:1:0:0:
420,175,116364,1,0,1:1:0:0:
235,104,116514,2,0,B|155:86|147:146|60:132,1,180,8|2,2:2|2:2,0:0:0:0:
157,338,116964,1,2,1:2:0:0:
224,188,117114,1,10,2:2:0:0:
67,276,117264,1,2,2:2:0:0:
135,64,117414,6,0,L|150:187,1,90,4|0,1:2|1:1,0:0:0:0:
271,299,117714,2,0,B|332:315|332:315|363:349|363:349|431:369,1,180,8|2,2:2|2:2,0:0:0:0:
512,282,118164,1,0,1:1:0:0:
398,178,118314,2,0,L|409:284,1,90,8|0,2:2|0:0,0:0:0:0:
473,119,118614,5,2,1:2:0:0:
473,119,118764,1,0,1:1:0:0:
310,215,118914,2,0,B|226:194|225:252|134:230,1,180,8|2,2:2|2:2,0:0:0:0:
25,109,119364,1,0,1:1:0:0:
169,56,119514,2,0,P|185:117|159:174,1,90,8|0,2:2|0:0,0:0:0:0:
38,257,119814,5,2,1:2:0:0:
38,257,119964,1,0,1:1:0:0:
182,366,120114,2,0,P|189:321|199:277,1,90,8|0,2:2|0:0,0:0:0:0:
292,94,120414,2,0,P|302:137|309:182,1,90,2|0,1:2|1:1,0:0:0:0:
492,292,120714,2,0,P|448:281|403:274,1,90,10|0,2:2|0:0,0:0:0:0:
214,134,121014,6,0,P|132:161|123:251,1,180,2|8,1:2|2:2,0:0:0:0:
264,384,121464,1,2,2:2:0:0:
69,342,121614,2,0,L|192:317,1,90,2|0,1:2|1:1,0:0:0:0:
287,177,121914,1,8,2:2:0:0:
353,349,122064,1,0,1:1:0:0:
118,131,122214,5,12,2:2:0:0:
392,29,122364,1,2,2:2:0:0:
258,283,122514,5,10,2:2:0:0:
177,21,122664,1,0,1:1:0:0:
359,109,122814,5,10,2:2:0:0:
106,254,122964,1,2,1:2:0:0:
345,374,123114,5,10,2:2:0:0:
208,155,123264,1,2,1:2:0:0:
208,155,123339,1,0,1:1:0:0:
208,155,123414,2,0,B|122:125|123:191|32:165,1,180,8|10,2:2|2:2,0:0:0:0:
236,285,123864,1,0,1:1:0:0:
305,38,124014,5,10,2:2:0:0:
106,253,124164,1,0,1:1:0:0:
399,183,124314,5,10,2:2:0:0:
108,68,124464,1,0,1:1:0:0:
372,299,124614,6,0,P|421:305|484:320,1,90,14|0,2:2|0:0,0:0:0:0:
275,203,124914,1,0,1:1:0:0:
212,362,125064,1,0,3:3:0:0:
166,146,125214,5,0,1:1:0:0:
292,320,125364,1,0,3:3:0:0:
377,95,125514,1,0,1:1:0:0:
136,278,125664,6,0,P|90:285|20:302,1,90,14|0,2:2|1:1,0:0:0:0:
108,68,125964,1,0,3:3:0:0:
281,158,126114,1,0,1:1:0:0:
281,158,126189,1,0,3:3:0:0:
281,158,126264,2,0,L|270:239,1,45,0|0,3:3|3:3,0:0:0:0:
70,199,126414,6,0,L|63:154,1,45,0|0,1:1|3:3,0:0:0:0:
231,34,126564,1,0,3:3:0:0:
231,34,126639,1,0,3:3:0:0:
231,34,126714,2,0,L|220:115,1,45,0|8,1:1|2:2,0:0:0:0:
355,240,126864,2,0,L|366:159,1,45,8|8,2:2|2:2,0:0:0:0:
355,240,129114,6,0,B|330:246|303:265|303:265|224:274|175:222,1,198.000006042481,4|10,1:2|2:2,0:0:0:0:
394,59,129564,2,0,L|408:185,1,99.0000030212403,2|0,1:2|0:0,0:0:0:0:
182,65,129864,1,2,1:2:0:0:
80,275,130014,1,8,2:2:0:0:
272,170,130164,1,2,2:2:0:0:
71,28,130314,6,0,P|86:86|92:142,1,99.0000030212403,0|0,1:1|1:1,0:0:0:0:
308,338,130614,2,0,P|314:289|328:241,1,99.0000030212403,10|0,2:2|1:1,0:0:0:0:
136,363,130914,1,2,2:2:0:0:
8,182,131064,1,0,1:1:0:0:
211,287,131214,2,0,L|231:411,1,99.0000030212403,10|0,2:2|0:0,0:0:0:0:
460,172,131514,6,0,B|426:172|392:160|392:160|341:185|341:185|307:169|271:169,1,198.000006042481,2|8,1:2|2:2,0:0:0:0:
80,275,131964,2,0,L|95:177,1,99.0000030212403,2|0,1:2|0:0,0:0:0:0:
21,5,132264,1,0,1:1:0:0:
201,61,132414,2,0,P|250:54|298:44,1,99.0000030212403,8|0,2:2|0:0,0:0:0:0:
179,249,132714,5,0,1:1:0:0:
102,72,132864,1,0,1:1:0:0:
318,214,133014,2,0,L|301:344,1,99.0000030212403,8|0,2:2|1:1,0:0:0:0:
72,374,133314,1,2,2:2:0:0:
190,157,133464,1,0,1:1:0:0:
376,357,133614,1,10,2:2:0:0:
114,294,133764,5,2,0:0:0:0:
114,294,133839,1,2,0:0:0:0:
114,294,133914,2,0,L|79:54,1,198.000006042481,0|8,1:1|2:2,0:0:0:0:
296,0,134364,2,0,P|281:64|271:140,1,99.0000030212403,2|0,1:2|0:0,0:0:0:0:
381,239,134664,1,0,1:1:0:0:
501,115,134814,2,0,L|379:136,1,99.0000030212403,8|0,2:2|0:0,0:0:0:0:
256,254,135114,6,0,P|271:318|281:394,1,99.0000030212403,0|0,1:1|1:1,0:0:0:0:
462,384,135414,2,0,P|485:331|459:267,1,99.0000030212403,10|0,2:2|1:1,0:0:0:0:
279,124,135714,1,2,2:2:0:0:
166,277,135864,1,0,1:1:0:0:
339,202,136014,2,0,L|461:223,1,99.0000030212403,10|0,2:2|0:0,0:0:0:0:
236,38,136314,6,0,B|147:8|146:87|45:59,1,198.000006042481,2|8,1:2|2:2,0:0:0:0:
210,181,136764,1,2,1:2:0:0:
379,23,136914,2,0,L|364:120,1,99.0000030212403,2|0,2:2|1:1,0:0:0:0:
512,295,137214,2,0,P|465:277|416:272,1,99.0000030212403,8|0,2:2|0:0,0:0:0:0:
195,366,137514,5,0,1:1:0:0:
339,202,137664,1,0,1:1:0:0:
129,297,137814,2,0,P|79:291|33:274,1,99.0000030212403,8|0,2:2|1:1,0:0:0:0:
237,66,138114,1,2,2:2:0:0:
353,329,138264,1,0,1:1:0:0:
99,209,138414,1,10,2:2:0:0:
342,18,138564,5,8,2:2:0:0:
342,18,138639,1,8,2:2:0:0:
342,18,138714,2,0,P|398:11|471:150,1,198.000006042481,4|10,1:2|2:2,0:0:0:0:
326,243,139164,2,0,L|342:361,1,99.0000030212403,2|0,1:2|0:0,0:0:0:0:
238,156,139464,1,2,1:2:0:0:
439,214,139614,1,8,2:2:0:0:
239,349,139764,6,0,B|139:318|149:387|40:360,1,198.000006042481,2|0,2:2|1:1,0:0:0:0:
154,115,140214,2,0,L|138:233,1,99.0000030212403,10|0,2:2|1:1,0:0:0:0:
0,123,140514,1,2,2:2:0:0:
86,279,140664,1,0,1:1:0:0:
231,185,140814,2,0,P|280:201|344:212,1,99.0000030212403,10|0,2:2|0:0,0:0:0:0:
180,40,141114,6,0,P|131:94|147:222,1,198.000006042481,2|10,1:2|2:2,0:0:0:0:
365,345,141564,2,0,P|414:291|398:163,1,198.000006042481,2|0,1:2|1:1,0:0:0:0:
201,280,142014,2,0,P|153:293|104:302,1,99.0000030212403,8|0,2:2|0:0,0:0:0:0:
306,116,142314,5,0,1:1:0:0:
449,289,142464,1,0,1:1:0:0:
435,55,142614,2,0,P|425:103|412:151,1,99.0000030212403,8|0,2:2|1:1,0:0:0:0:
273,344,142914,1,2,2:2:0:0:
213,123,143064,1,0,1:1:0:0:
369,250,143214,2,0,L|489:287,1,99.0000030212403,10|0,2:2|0:0,0:0:0:0:
296,64,143514,6,0,B|249:33|249:33|171:20|120:75,1,198.000006042481,2|8,1:2|2:2,0:0:0:0:
0,217,143964,1,2,1:2:0:0:
26,51,144114,2,0,P|43:112|53:173,1,99.0000030212403,2|0,2:2|1:1,0:0:0:0:
221,299,144414,2,0,P|230:250|244:202,1,99.0000030212403,8|0,2:2|0:0,0:0:0:0:
57,278,144714,5,0,1:1:0:0:
184,140,144864,1,0,1:1:0:0:
302,365,145014,2,0,L|168:392,1,99.0000030212403,10|0,2:2|1:1,0:0:0:0:
44,272,145314,2,0,P|28:226|49:182,1,99.0000030212403,2|0,2:2|1:1,0:0:0:0:
228,46,145614,1,10,2:2:0:0:
314,268,145764,1,0,1:1:0:0:
86,60,145914,5,14,2:2:0:0:
360,165,146064,1,0,0:0:0:0:
133,315,146214,1,0,1:1:0:0:
228,46,146364,2,0,P|232:95|243:143,1,99.0000030212403,10|0,2:2|0:0,0:0:0:0:
402,300,146664,1,0,1:1:0:0:
443,93,146814,5,8,2:2:0:0:
210,245,146964,1,0,1:1:0:0:
450,384,147114,1,8,2:2:0:0:
335,83,147264,2,0,P|324:131|319:180,1,99.0000030212403,4|0,1:2|0:0,0:0:0:0:
164,323,147564,1,2,1:2:0:0:
33,68,147714,5,10,2:2:0:0:
241,163,147864,1,2,2:2:0:0:
58,295,148014,1,2,3:2:0:0:
18,176,148164,5,2,1:2:0:0:
18,176,148239,1,0,1:1:0:0:
18,176,148314,2,0,P|67:186|131:195,1,99.0000030212403,4|0,1:2|0:0,0:0:0:0:
375,99,148614,5,0,1:1:0:0:
273,315,148764,1,0,0:0:0:0:
235,32,148914,5,0,1:1:0:0:
375,257,149064,1,2,3:2:0:0:
375,257,149139,1,8,2:2:0:0:
375,257,149214,2,0,P|432:268|488:276,1,99.0000030212403,10|2,2:2|3:2,0:0:0:0:
512,200,149439,5,2,0:0:0:0:
512,200,149514,2,0,P|463:192|414:182,1,99.0000030212403,2|0,1:2|0:0,0:0:0:0:
185,294,149814,5,10,2:2:0:0:
150,67,149964,1,2,0:0:0:0:
150,67,150039,1,2,0:0:0:0:
150,67,150114,1,0,1:1:0:0:
23,258,150264,1,2,3:2:0:0:
23,258,150339,1,8,2:2:0:0:
23,258,150414,1,10,2:2:0:0:
272,140,150564,2,0,L|206:127,1,49.5000015106202,2|0,3:2|3:3,0:0:0:0:
0,0,150714,6,0,P|17:46|29:94,1,99.0000030212403,2|0,1:2|0:0,0:0:0:0:
273,225,151014,5,2,1:2:0:0:
10,384,151164,1,0,0:0:0:0:
339,345,151314,5,0,1:1:0:0:
121,153,151464,1,2,3:2:0:0:
121,153,151539,1,8,2:2:0:0:
121,153,151614,2,0,L|102:294,1,99.0000030212403,10|2,1:2|3:2,0:0:0:0:
162,316,151839,5,8,2:2:0:0:
162,316,151914,2,0,P|221:338|281:301,1,99.0000030212403,10|0,1:2|3:3,0:0:0:0:
395,239,152139,5,8,2:2:0:0:
395,239,152214,2,0,L|381:140,1,99.0000030212403,10|0,1:2|3:3,0:0:0:0:
219,23,152439,5,8,2:2:0:0:
219,23,152514,2,0,L|205:121,1,99.0000030212403,10|0,1:2|3:3,0:0:0:0:
3,245,152739,5,8,2:2:0:0:
3,245,152814,1,10,1:2:0:0:
15,197,152889,1,0,1:1:0:0:
50,164,152964,1,0,1:1:0:0:
98,156,153039,1,0,1:1:0:0:
143,175,153114,5,12,2:2:0:0:
359,381,153264,1,2,0:0:0:0:
306,111,153414,1,0,1:1:0:0:
115,310,153564,5,10,2:2:0:0:
391,180,153714,1,2,0:0:0:0:
113,57,153864,1,0,1:1:0:0:
421,7,154014,5,14,2:2:0:0:
286,298,154164,1,2,0:0:0:0:
187,0,154314,1,0,1:1:0:0:
476,325,154464,5,10,2:2:0:0:
182,156,154614,1,2,0:0:0:0:
502,25,154764,1,0,1:1:0:0:
218,347,154914,5,10,2:2:0:0:
176,371,154989,1,8,2:2:0:0:
127,370,155064,1,8,2:2:0:0:
87,342,155139,1,8,2:2:0:0:
68,297,155214,2,0,B|80:249|80:249|51:198,1,99.0000030212403,2|0,3:2|3:3,0:0:0:0:
347,52,155514,6,0,P|261:70|183:-36,1,198.000006042481,4|8,1:2|2:2,0:0:0:0:
299,190,155964,1,2,2:2:0:0:
84,170,156114,2,0,P|140:164|221:143,1,99.0000030212403,2|0,1:2|0:0,0:0:0:0:
414,274,156414,1,8,2:2:0:0:
331,67,156564,1,2,2:2:0:0:
201,253,156714,6,0,P|123:287|19:232,1,198.000006042481,2|8,1:2|2:2,0:0:0:0:
155,67,157164,1,2,2:2:0:0:
284,196,157314,2,0,L|299:307,1,99.0000030212403,2|0,1:2|0:0,0:0:0:0:
502,176,157614,1,8,2:2:0:0:
331,67,157764,1,2,2:2:0:0:
480,268,157914,6,0,P|441:253|359:240,1,99.0000030212403,4|0,1:2|0:0,0:0:0:0:
174,347,158214,2,0,P|189:308|202:226,1,99.0000030212403,10|0,2:2|0:0,0:0:0:0:
157,187,158439,1,8,2:2:0:0:
157,187,158514,1,2,1:2:0:0:
237,5,158664,2,0,L|252:116,1,99.0000030212403,0|0,0:0|1:1,0:0:0:0:
502,176,158964,6,0,B|477:182|450:201|450:201|371:210|322:158,1,198.000006042481,10|0,2:2|1:1,0:0:0:0:
512,283,159414,2,0,P|463:291|418:313,1,99.0000030212403,10|2,2:2|2:2,0:0:0:0:
274,384,159714,5,0,1:1:0:0:
274,384,159789,2,0,P|263:349|259:299,1,56.25,8|0,2:2|3:3,0:0:0:0:
133,264,159939,5,0,3:3:0:0:
133,264,160014,2,0,P|143:229|147:179,1,56.25,8|0,2:2|3:3,0:0:0:0:
229,140,160164,5,0,3:3:0:0:
229,140,160239,2,0,P|218:105|214:55,1,56.25,8|4,2:2|1:2,0:0:0:0:
153,25,160389,6,0,P|91:40|81:111,1,112.5,0|0,0:0|1:1,0:0:0:0:
4,119,160614,2,0,P|-14:180|42:224,1,112.5,8|0,2:2|3:3,0:0:0:0:
54,289,160839,1,0,3:3:0:0:
54,289,160914,1,8,2:2:0:0:
309,205,161064,6,0,L|376:199,1,67.4999979400635,2|0,1:2|0:0,0:0:0:0:
233,221,161964,5,0,1:1:0:0:
233,221,162039,1,0,1:1:0:0:
233,221,162114,2,0,L|288:228,1,56.25,8|8,2:2|2:2,0:0:0:0:
45,330,162264,1,8,2:2:0:0:
17,294,162339,1,8,2:2:0:0:
2,252,162414,1,8,2:2:0:0:
0,207,162489,1,8,2:2:0:0:
12,164,162564,1,8,2:2:0:0:
37,127,162639,1,8,2:2:0:0:
72,99,162714,6,0,B|131:104|131:104|170:128|170:128|235:134,1,168.75,4|0,1:2|0:0,0:0:0:0:
412,13,163014,1,10,2:2:0:0:
412,13,163089,1,2,2:2:0:0:
412,13,163164,2,0,L|399:105,1,56.25,2|0,1:2|0:0,0:0:0:0:
311,250,163314,5,2,2:2:0:0:
311,250,163389,1,2,2:2:0:0:
311,250,163464,2,0,L|298:158,1,56.25,2|0,1:2|0:0,0:0:0:0:
496,52,163614,1,10,2:2:0:0:
496,52,163689,1,2,2:2:0:0:
496,52,163764,2,0,L|483:144,1,56.25,2|0,2:2|0:0,0:0:0:0:
512,184,163914,5,2,1:2:0:0:
472,214,163989,1,0,0:0:0:0:
422,218,164064,1,2,1:2:0:0:
380,193,164139,1,0,0:0:0:0:
359,147,164214,1,10,2:2:0:0:
337,101,164289,1,0,0:0:0:0:
295,76,164364,1,2,1:2:0:0:
244,78,164439,1,0,0:0:0:0:
206,111,164514,6,0,P|213:151|217:190,1,56.25,2|0,2:2|0:0,0:0:0:0:
113,328,164664,1,2,1:2:0:0:
32,112,164814,1,10,2:2:0:0:
217,259,164964,1,2,2:2:0:0:
120,51,165114,5,0,1:1:0:0:
3,283,165264,1,2,1:2:0:0:
263,175,165414,1,10,2:2:0:0:
6,4,165564,2,0,P|25:66|34:132,1,112.5,2|2,1:2|2:2,0:0:0:0:
125,236,165864,1,2,1:2:0:0:
318,67,166014,2,0,P|256:86|190:95,1,112.5,10|2,2:2|2:2,0:0:0:0:
443,276,166314,5,2,1:2:0:0:
263,175,166464,1,2,1:2:0:0:
425,6,166614,2,0,L|394:155,1,112.5,10|0,2:2|1:1,0:0:0:0:
330,344,166914,1,2,2:2:0:0:
487,192,167064,1,0,1:1:0:0:
264,276,167214,2,0,P|208:265|154:249,1,112.5,8|2,2:2|2:2,0:0:0:0:
64,80,167514,5,4,1:2:0:0:
175,174,167664,1,0,0:0:0:0:
201,7,167814,5,10,2:2:0:0:
258,165,167964,1,2,1:2:0:0:
358,0,168114,5,2,2:2:0:0:
325,212,168264,1,2,1:2:0:0:
507,64,168414,5,8,2:2:0:0:
356,287,168564,1,0,0:0:0:0:
207,92,168714,5,2,1:2:0:0:
488,245,168864,1,2,1:2:0:0:
279,384,169014,1,8,2:2:0:0:
325,212,169164,2,0,B|211:192|226:272|109:252,1,225,2|2,1:2|1:2,0:0:0:0:
11,61,169614,2,0,P|61:86|150:102,1,112.5,10|2,2:2|1:2,0:0:0:0:
50,332,169914,5,12,2:2:0:0:
309,202,170064,1,0,1:1:0:0:
123,89,170214,5,8,2:2:0:0:
293,296,170364,1,2,1:2:0:0:
293,296,170439,1,2,2:2:0:0:
293,296,170514,1,10,2:2:0:0:
478,130,170664,6,0,P|414:144|355:101,1,112.5,0|0,1:1|0:0,0:0:0:0:
50,332,170964,2,0,P|128:319|173:166,1,225,4|0,1:2|1:1,0:0:0:0:
359,22,171414,1,14,2:2:0:0:
453,232,171564,1,2,3:2:0:0:
453,232,171639,1,0,3:3:0:0:
453,232,171714,2,0,P|425:226|397:222,1,56.25,0|0,1:1|3:3,0:0:0:0:
210,115,171864,1,0,3:3:0:0:
299,378,172014,2,0,P|304:316|348:255,1,112.5,8|0,2:2|3:3,0:0:0:0:
318,187,172239,5,0,3:3:0:0:
318,187,172314,1,12,2:2:0:0:
57,56,172464,1,2,2:2:0:0:
190,273,172614,1,2,1:2:0:0:
240,30,172764,5,8,2:2:0:0:
68,160,172914,1,2,2:2:0:0:
232,200,173064,1,2,1:2:0:0:
149,12,173214,5,8,2:2:0:0:
330,192,173364,1,2,2:2:0:0:
103,246,173514,1,2,1:2:0:0:
322,73,173664,5,12,2:2:0:0:
420,286,173814,1,2,2:2:0:0:
221,195,173964,1,2,1:2:0:0:
403,109,174114,6,0,P|413:69|427:-3,1,112.5,8|2,2:2|2:2,0:0:0:0:
276,273,174414,2,0,P|286:328|300:383,1,112.5,2|2,3:2|2:2,0:0:0:0:
512,217,174714,5,12,2:2:0:0:
250,112,174864,1,2,2:2:0:0:
381,364,175014,1,2,1:2:0:0:
417,101,175164,5,8,2:2:0:0:
208,201,175314,1,2,2:2:0:0:
367,282,175464,1,2,1:2:0:0:
299,40,175614,5,8,2:2:0:0:
263,296,175764,1,2,2:2:0:0:
76,135,175914,1,2,1:2:0:0:
354,194,176064,5,8,2:2:0:0:
109,295,176214,1,2,2:2:0:0:
202,115,176364,1,2,1:2:0:0:
381,287,176514,5,12,2:2:0:0:
115,189,176664,1,0,3:3:0:0:
91,165,176739,1,8,2:2:0:0:
76,135,176814,1,8,2:2:0:0:
71,101,176889,1,8,2:2:0:0:
76,68,176964,1,8,2:2:0:0:
91,38,177039,1,8,2:2:0:0:
115,15,177114,6,0,L|333:44,1,168.75,4|0,1:2|0:0,0:0:0:0:
345,84,177414,1,10,2:2:0:0:
182,250,177564,1,2,1:2:0:0:
201,0,177714,5,10,2:2:0:0:
393,192,177864,1,2,1:2:0:0:
109,295,178014,5,10,2:2:0:0:
261,79,178164,1,2,1:2:0:0:
261,79,178239,1,0,1:1:0:0:
261,79,178314,2,0,P|269:145|279:201,1,112.5,8|2,2:2|1:2,0:0:0:0:
59,181,178614,5,10,2:2:0:0:
293,326,178764,1,0,1:1:0:0:
166,103,178914,5,10,2:2:0:0:
21,314,179064,1,0,1:1:0:0:
292,187,179214,5,8,2:2:0:0:
34,53,179364,1,2,1:2:0:0:
337,0,179514,5,10,2:2:0:0:
182,250,179664,1,0,1:1:0:0:
485,249,179814,5,8,2:2:0:0:
228,37,179964,1,0,1:1:0:0:
330,326,180114,5,10,2:2:0:0:
512,85,180264,1,2,1:2:0:0:
512,85,180339,1,0,0:0:0:0:
512,85,180414,2,0,P|462:98|362:114,1,112.5,10|0,2:2|1:1,0:0:0:0:
182,250,180714,5,10,2:2:0:0:
121,50,180864,1,0,1:1:0:0:
319,118,181014,5,8,2:2:0:0:
52,223,181164,1,0,1:1:0:0:
330,326,181314,5,8,2:2:0:0:
106,43,181464,1,0,1:1:0:0:
307,9,181614,5,8,2:2:0:0:
210,384,181764,1,4,1:2:0:0:
210,384,185514,6,0,P|198:316|180:236,1,135.000005149842,2|0,2:2|0:0,0:0:0:0:
292,186,185964,2,0,L|276:268,1,67.5000025749208,0|0,3:3|0:0,0:0:0:0:
205,164,186264,1,0,3:3:0:0:
331,84,186414,2,0,P|294:96|247:103,1,67.5000025749208,0|0,3:3|0:0,0:0:0:0:
43,171,186714,6,0,P|83:177|122:189,1,80.9999975280763,4|0,1:2|0:0,0:0:0:0:
214,283,187014,1,8,2:2:0:0:
98,364,187164,2,0,B|180:334|176:388|256:362,1,161.999995056153,2|0,2:2|0:0,0:0:0:0:
359,284,187614,2,0,L|369:189,1,80.9999975280763,8|0,2:2|0:0,0:0:0:0:
307,76,187914,6,0,P|247:80|206:170,2,161.999995056153,0|8|2,1:1|2:2|1:2,0:0:0:0:
464,158,188664,1,0,0:0:0:0:
414,0,188814,2,0,L|405:80,1,80.9999975280763,10|0,2:2|0:0,0:0:0:0:
204,163,189114,6,0,B|189:167|172:182|172:182|104:205|56:156,1,161.999995056153,4|8,1:2|2:2,0:0:0:0:
192,53,189564,2,0,P|235:68|296:80,1,80.9999975280763,2|0,2:2|1:1,0:0:0:0:
351,184,189864,1,0,0:0:0:0:
212,243,190014,2,0,L|203:162,1,80.9999975280763,8|0,2:2|0:0,0:0:0:0:
317,280,190314,5,0,1:1:0:0:
144,373,190464,1,0,0:0:0:0:
211,255,190614,1,8,2:2:0:0:
314,363,190764,2,0,P|362:368|429:380,1,80.9999975280763,0|0,0:0|1:1,0:0:0:0:
501,247,191064,1,0,0:0:0:0:
370,174,191214,2,0,L|355:72,1,80.9999975280763,10|0,2:2|0:0,0:0:0:0:
198,18,191514,5,14,2:2:0:0:
110,219,191664,1,0,1:1:0:0:
281,133,191814,1,8,2:2:0:0:
106,0,191964,2,0,L|121:102,1,80.9999975280763,2|8,1:2|2:2,0:0:0:0:
179,281,192264,1,2,1:2:0:0:
281,133,192414,1,8,2:2:0:0:
99,233,192564,5,2,1:2:0:0:
99,233,192639,1,0,1:1:0:0:
99,233,192714,2,0,P|52:246|5:253,1,80.9999975280763,8|0,2:2|1:1,0:0:0:0:
181,371,193014,2,0,P|228:358|275:351,1,80.9999975280763,10|0,2:2|1:1,0:0:0:0:
408,227,193314,1,10,2:2:0:0:
479,379,193464,1,0,1:1:0:0:
309,231,193614,1,10,2:2:0:0:
478,126,193764,1,0,1:1:0:0:
367,304,193914,6,0,P|357:344|352:393,1,80.9999975280763,12|0,2:2|0:0,0:0:0:0:
173,277,194214,1,0,1:1:0:0:
294,151,194364,2,0,P|304:191|309:240,1,80.9999975280763,12|0,2:2|0:0,0:0:0:0:
181,371,194664,1,2,1:2:0:0:
74,201,194814,1,10,2:2:0:0:
274,313,194964,1,2,2:2:0:0:
49,384,195114,5,0,1:1:0:0:
159,181,195264,2,0,P|169:141|174:92,1,80.9999975280763,12|0,2:2|0:0,0:0:0:0:
0,13,195564,1,0,1:1:0:0:
74,201,195714,1,12,2:2:0:0:
250,52,195864,1,2,2:2:0:0:
63,113,196014,1,2,1:2:0:0:
191,264,196164,6,0,L|304:290,1,80.9999975280763,14|0,2:2|0:0,0:0:0:0:
453,184,196464,1,0,1:1:0:0:
375,384,196614,2,0,P|355:329|354:269,1,80.9999975280763,12|0,2:2|0:0,0:0:0:0:
249,176,196914,1,0,1:1:0:0:
473,40,197064,5,12,2:2:0:0:
347,211,197214,1,0,0:0:0:0:
318,9,197364,1,0,1:1:0:0:
155,177,197514,6,0,L|42:203,1,80.9999975280763,12|0,2:2|0:0,0:0:0:0:
212,47,197814,1,0,1:1:0:0:
283,314,197964,1,8,2:2:0:0:
8,239,198114,1,8,2:2:0:0:
284,95,198264,6,0,B|333:87|376:127|376:127|425:103|469:126,1,198,4|0,1:2|0:0,0:0:0:0:
469,125,200514,5,14,2:2:0:0:
280,384,200664,1,8,2:2:0:0:
301,349,200739,1,8,2:2:0:0:
310,310,200814,1,10,2:2:0:0:
308,270,200889,1,8,2:2:0:0:
293,232,200964,1,8,2:2:0:0:
267,201,201039,1,8,2:2:0:0:
233,180,201114,6,0,B|88:148|88:148|124:200,1,198.000006042481,4|10,1:2|2:2,0:0:0:0:
0,365,201564,2,0,P|49:354|118:342,1,99.0000030212403,2|0,1:2|0:0,0:0:0:0:
375,384,201864,1,2,1:2:0:0:
240,170,202014,1,8,2:2:0:0:
512,315,202164,6,0,P|463:304|394:292,1,99.0000030212403,2|0,2:2|1:1,0:0:0:0:
216,340,202464,1,0,1:1:0:0:
353,135,202614,2,0,P|333:180|324:228,1,99.0000030212403,10|0,2:2|1:1,0:0:0:0:
84,124,202914,1,2,2:2:0:0:
271,6,203064,1,0,1:1:0:0:
148,202,203214,2,0,L|31:228,1,99.0000030212403,10|0,2:2|0:0,0:0:0:0:
350,356,203514,6,0,P|392:290|529:298,1,198.000006042481,2|8,1:2|2:2,0:0:0:0:
335,154,203964,1,2,1:2:0:0:
460,384,204114,1,0,0:0:0:0:
436,122,204264,1,0,1:1:0:0:
262,296,204414,1,8,2:2:0:0:
505,198,204564,1,0,0:0:0:0:
318,17,204714,6,0,P|269:28|220:36,1,99.0000030212403,0|0,1:1|1:1,0:0:0:0:
30,202,205014,2,0,B|127:168|128:238|223:211,1,198.000006042481,8|2,2:2|2:2,0:0:0:0:
89,57,205464,1,0,1:1:0:0:
314,129,205614,2,0,L|336:259,1,99.0000030212403,10|0,2:2|0:0,0:0:0:0:
0,351,205914,6,0,B|25:334|60:337|60:337|89:356|122:357|122:357|154:334|187:335,1,198.000006042481,4|8,1:2|2:2,0:0:0:0:
350,222,206364,1,2,1:2:0:0:
177,86,206514,2,0,P|171:143|161:213,1,99.0000030212403,0|2,0:0|1:2,0:0:0:0:
212,255,206739,1,2,0:2:0:0:
212,255,206814,1,8,2:2:0:0:
385,365,206964,1,2,0:0:0:0:
512,118,207114,6,0,P|447:100|385:151,1,148.50000453186,0|0,1:1|0:0,0:0:0:0:
325,195,207414,2,0,P|331:252|341:322,1,99.0000030212403,10|0,2:2|1:1,0:0:0:0:
158,92,207714,2,0,P|108:98|59:103,1,99.0000030212403,2|2,2:2|1:2,0:0:0:0:
6,162,207939,1,2,0:0:0:0:
6,162,208014,1,10,2:2:0:0:
135,0,208164,1,0,0:0:0:0:
325,195,208314,6,0,B|300:201|273:220|273:220|194:229|145:177,1,198.000006042481,2|8,1:2|2:2,0:0:0:0:
353,283,208764,1,2,1:2:0:0:
260,32,208914,2,0,L|248:142,1,99.0000030212403,2|0,2:2|1:1,0:0:0:0:
74,274,209214,1,8,2:2:0:0:
274,384,209364,1,0,0:0:0:0:
145,177,209514,5,0,1:1:0:0:
0,366,209664,2,0,L|93:348,1,49.5000015106202,0|2,1:1|0:2,0:0:0:0:
255,253,209814,1,10,2:2:0:0:
255,253,209889,1,2,0:2:0:0:
255,253,209964,2,0,L|162:235,1,49.5000015106202,2|2,1:2|0:2,0:0:0:0:
89,109,210114,5,10,2:2:0:0:
89,109,210189,1,2,0:2:0:0:
89,109,210264,2,0,L|107:16,1,49.5000015106202,2|2,1:2|0:2,0:0:0:0:
259,0,210414,1,10,2:2:0:0:
296,31,210489,1,8,2:2:0:0:
316,76,210564,1,8,2:2:0:0:
315,125,210639,1,8,2:2:0:0:
293,169,210714,6,0,B|332:139|387:130|387:130|422:164|473:177,1,198.000006042481,4|10,1:2|2:2,0:0:0:0:
248,337,211164,2,0,L|150:355,1,99.0000030212403,2|0,1:2|0:0,0:0:0:0:
418,381,211464,1,2,1:2:0:0:
224,229,211614,1,8,2:2:0:0:
401,91,211764,6,0,P|387:154|378:236,1,99.0000030212403,2|0,2:2|1:1,0:0:0:0:
264,346,212064,1,0,1:1:0:0:
93,251,212214,2,0,P|85:202|74:153,1,99.0000030212403,10|0,2:2|1:1,0:0:0:0:
288,0,212514,1,2,2:2:0:0:
224,229,212664,1,0,1:1:0:0:
23,55,212814,2,0,L|143:75,1,99.0000030212403,10|0,2:2|0:0,0:0:0:0:
16,369,213114,6,0,P|55:304|190:308,1,198.000006042481,2|10,1:2|2:2,0:0:0:0:
394,189,213564,1,2,1:2:0:0:
394,189,213639,1,2,0:2:0:0:
394,189,213714,2,0,P|342:184|258:165,1,99.0000030212403,2|0,0:2|1:1,0:0:0:0:
412,380,214014,1,8,2:2:0:0:
502,164,214164,1,0,0:0:0:0:
282,277,214314,6,0,P|230:282|146:301,1,99.0000030212403,0|0,1:1|1:1,0:0:0:0:
333,91,214614,2,0,P|381:100|430:104,1,99.0000030212403,8|0,2:2|1:1,0:0:0:0:
163,0,214914,1,2,2:2:0:0:
288,287,215064,1,0,1:1:0:0:
405,9,215214,1,10,2:2:0:0:
90,172,215364,5,2,0:2:0:0:
90,172,215439,1,2,0:2:0:0:
90,172,215514,2,0,B|181:140|186:207|284:179,1,198.000006042481,2|8,1:2|2:2,0:0:0:0:
494,338,215964,1,2,1:2:0:0:
494,338,216039,1,2,0:2:0:0:
494,338,216114,2,0,L|465:208,1,99.0000030212403,2|0,0:2|1:1,0:0:0:0:
304,375,216414,1,8,2:2:0:0:
382,176,216564,1,0,0:0:0:0:
231,91,216714,5,0,1:1:0:0:
389,308,216864,1,0,1:1:0:0:
512,65,217014,2,0,P|464:78|415:83,1,99.0000030212403,10|0,2:2|1:1,0:0:0:0:
287,268,217314,2,0,P|239:254|190:249,1,99.0000030212403,2|0,2:2|1:1,0:0:0:0:
12,113,217614,1,10,2:2:0:0:
112,291,217764,1,0,1:1:0:0:
251,76,217914,5,14,2:2:0:0:
11,211,218064,1,0,0:0:0:0:
212,338,218214,1,0,1:1:0:0:
135,51,218364,5,10,2:2:0:0:
16,310,218514,1,0,0:0:0:0:
246,162,218664,1,0,1:1:0:0:
384,367,218814,5,8,2:2:0:0:
111,190,218964,1,0,1:1:0:0:
358,28,219114,1,8,2:2:0:0:
209,354,219264,5,4,1:2:0:0:
135,51,219414,1,0,0:0:0:0:
396,219,219564,1,2,1:2:0:0:
239,0,219714,5,10,2:2:0:0:
148,278,219864,1,2,2:2:0:0:
303,92,220014,5,2,3:2:0:0:
349,290,220164,1,2,2:2:0:0:
122,173,220314,6,0,P|76:167|-5:148,1,99.0000030212403,4|0,1:2|0:0,0:0:0:0:
111,370,220614,2,0,P|159:359|208:353,1,99.0000030212403,8|0,2:2|0:0,0:0:0:0:
433,206,220914,1,0,1:1:0:0:
338,383,221064,1,2,2:2:0:0:
266,201,221214,1,10,2:2:0:0:
452,325,221364,1,2,2:2:0:0:
305,115,221514,6,0,P|262:109|180:89,1,99.0000030212403,2|0,1:2|0:0,0:0:0:0:
50,295,221814,2,0,P|98:284|147:277,1,99.0000030212403,10|0,2:2|0:0,0:0:0:0:
30,65,222114,1,0,1:1:0:0:
247,203,222264,1,2,2:2:0:0:
2,145,222414,1,10,2:2:0:0:
189,12,222564,1,2,2:2:0:0:
244,295,222714,6,0,P|195:284|146:277,1,99.0000030212403,2|2,1:2|0:0,0:0:0:0:
61,206,222939,1,2,0:0:0:0:
61,206,223014,2,0,P|109:198|158:188,1,99.0000030212403,10|0,2:2|0:0,0:0:0:0:
358,77,223314,1,0,1:1:0:0:
463,280,223464,1,2,2:2:0:0:
258,182,223614,1,10,2:2:0:0:
466,86,223764,1,2,2:2:0:0:
251,4,223914,5,2,1:2:0:0:
350,254,224064,1,0,0:0:0:0:
377,6,224214,5,10,2:2:0:0:
377,6,224289,1,0,3:3:0:0:
377,6,224364,2,0,L|363:92,1,49.5000015106202,0|0,3:3|3:3,0:0:0:0:
176,213,224514,1,2,1:2:0:0:
176,213,224589,1,8,2:2:0:0:
176,213,224664,2,0,L|162:127,1,49.5000015106202,8|8,2:2|2:2,0:0:0:0:
447,187,224814,5,2,1:2:0:0:
470,218,224889,1,8,2:2:0:0:
479,256,224964,1,8,2:2:0:0:
470,294,225039,1,8,2:2:0:0:
446,326,225114,5,12,2:2:0:0:
191,152,225264,1,0,0:0:0:0:
302,350,225414,1,0,1:1:0:0:
377,94,225564,5,10,2:2:0:0:
190,288,225714,1,0,0:0:0:0:
447,187,225864,1,0,1:1:0:0:
148,0,226014,5,14,2:2:0:0:
353,247,226164,1,0,0:0:0:0:
39,221,226314,1,0,1:1:0:0:
310,15,226464,5,10,2:2:0:0:
278,308,226614,1,0,0:0:0:0:
55,84,226764,1,0,1:1:0:0:
422,27,226914,5,10,2:2:0:0:
462,54,226989,1,8,2:2:0:0:
482,99,227064,1,8,2:2:0:0:
476,147,227139,1,8,2:2:0:0:
446,186,227214,2,0,P|398:191|325:203,1,99.0000030212403,2|0,3:2|3:3,0:0:0:0:
152,3,227514,6,0,B|152:37|164:71|164:71|139:122|139:122|155:163|155:192,1,198.000006042481,4|8,1:2|2:2,0:0:0:0:
53,328,227964,1,2,2:2:0:0:
247,384,228114,2,0,B|268:338|268:338|246:273,1,99.0000030212403,2|0,1:2|0:0,0:0:0:0:
46,178,228414,1,8,2:2:0:0:
162,333,228564,1,2,2:2:0:0:
236,123,228714,6,0,B|367:94|367:94|404:122|397:171,1,198.000006042481,2|8,1:2|2:2,0:0:0:0:
487,301,229164,1,2,2:2:0:0:
266,209,229314,2,0,L|396:236,1,99.0000030212403,2|0,1:2|0:0,0:0:0:0:
162,333,229614,1,8,2:2:0:0:
236,123,229764,1,2,2:2:0:0:
402,308,229914,6,0,L|272:335,1,99.0000030212403,4|0,1:2|0:0,0:0:0:0:
243,377,230139,1,0,1:1:0:0:
243,377,230214,2,0,P|179:369|160:305,1,99.0000030212403,8|0,2:2|0:0,0:0:0:0:
38,249,230514,1,2,1:2:0:0:
40,231,230589,1,2,2:2:0:0:
42,214,230664,1,2,2:2:0:0:
45,197,230739,1,0,1:0:0:0:
47,180,230814,1,2,1:2:0:0:
180,13,230964,6,0,P|189:111|197:210,1,198.000006042481,8|0,2:2|1:1,0:0:0:0:
264,265,231339,1,2,0:2:0:0:
264,265,231414,2,0,L|386:288,1,99.0000030212403,10|0,2:2|0:0,0:0:0:0:
455,211,231639,5,8,2:2:0:0:
455,211,231714,2,0,L|372:222,1,49.5000015106202,0|0,1:1|0:0,0:0:0:0:
294,137,231864,1,8,2:2:0:0:
277,112,231939,1,8,2:2:0:0:
270,83,232014,1,0,1:1:0:0:
274,54,232089,1,0,3:3:0:0:
288,28,232164,1,0,3:3:0:0:
311,9,232239,1,0,1:1:0:0:
339,0,232314,6,0,P|398:10|475:21,1,99.0000030212403,12|0,2:2|3:3,0:0:0:0:
481,90,232539,1,0,3:3:0:0:
481,90,232614,2,0,P|432:97|383:106,1,99.0000030212403,0|0,3:3|3:3,0:0:0:0:
320,158,232839,1,0,3:3:0:0:
320,158,232914,1,0,3:3:0:0:
90,70,233064,6,0,P|148:13|95:75,1,247.500007553101,0|0,1:1|0:0,0:0:0:0:
0,70,233514,6,0,P|12:147|24:216,1,112.5,12|0,2:2|3:3,0:0:0:0:
81,228,233739,1,0,3:3:0:0:
81,228,233814,1,8,1:2:0:0:
320,158,233964,2,0,P|342:208|330:262,1,112.5,8|2,2:2|3:2,0:0:0:0:
271,314,234189,1,0,3:3:0:0:
271,314,234264,2,0,L|178:300,1,56.25,0|0,3:3|3:3,0:0:0:0:
148,167,234414,5,8,2:2:0:0:
143,112,234489,1,8,2:2:0:0:
175,67,234564,1,8,2:2:0:0:
229,54,234639,1,8,2:2:0:0:
278,79,234714,6,0,B|365:54|361:112|453:91,1,180,4|2,1:2|1:2,0:0:0:0:
306,237,235164,2,0,P|261:224|201:219,1,90,10|0,2:2|0:0,0:0:0:0:
439,381,235464,1,2,1:2:0:0:
414,176,235614,6,0,P|367:219|372:345,1,180,10|2,2:2|1:2,0:0:0:0:
180,376,236064,2,0,L|160:265,1,90,10|0,2:2|0:0,0:0:0:0:
67,145,236364,1,0,1:1:0:0:
0,271,236514,5,10,2:2:0:0:
185,166,236664,1,2,1:2:0:0:
6,29,236814,2,0,P|51:42|111:47,1,90,2|0,3:2|0:0,0:0:0:0:
238,240,237114,6,0,B|304:233|304:233|347:250|347:250|413:240,1,180,4|2,1:2|1:2,0:0:0:0:
311,52,237564,2,0,L|300:163,1,90,10|0,2:2|0:0,0:0:0:0:
483,8,237864,5,2,1:2:0:0:
483,8,237939,1,0,1:1:0:0:
483,8,238014,2,0,P|420:34|378:3,1,90,10|2,2:2|2:2,0:0:0:0:
221,90,238314,1,2,1:2:0:0:
379,209,238464,2,0,L|387:119,1,90,10|0,2:2|0:0,0:0:0:0:
167,14,238764,5,0,1:1:0:0:
167,14,238839,1,0,1:1:0:0:
167,14,238914,1,10,2:2:0:0:
75,214,239064,1,2,1:2:0:0:
309,89,239214,2,0,L|300:0,1,90,10|0,2:2|0:0,0:0:0:0:
0,153,239514,6,0,B|36:129|36:129|109:112|163:166,1,180,4|2,1:2|1:2,0:0:0:0:
93,300,239964,2,0,P|44:309|-25:330,1,90,10|0,2:2|0:0,0:0:0:0:
219,384,240264,5,2,1:2:0:0:
219,384,240339,1,0,1:1:0:0:
219,384,240414,2,0,B|228:345|220:316|220:316|225:288|238:262|238:262|238:223|244:183,1,180,14|2,2:2|1:2,0:0:0:0:
371,77,240864,2,0,L|388:191,1,90,10|0,2:2|0:0,0:0:0:0:
472,295,241164,1,0,1:1:0:0:
254,197,241314,5,10,2:2:0:0:
475,109,241464,1,2,1:2:0:0:
281,298,241614,2,0,L|192:280,1,90,14|0,2:2|0:0,0:0:0:0:
53,63,241914,6,0,P|-1:108|23:223,1,180,2|2,1:2|1:2,0:0:0:0:
201,92,242364,2,0,L|217:-31,1,90,10|0,2:2|0:0,0:0:0:0:
424,197,242664,5,2,1:2:0:0:
424,197,242739,1,0,1:1:0:0:
424,197,242814,2,0,P|369:208|319:237,1,90,10|2,2:2|2:2,0:0:0:0:
294,285,243039,1,0,0:0:0:0:
294,285,243114,1,4,1:2:0:0:
129,205,243264,1,8,2:2:0:0:
206,382,243414,1,0,3:3:0:0:
267,113,243564,5,0,3:3:0:0:
267,113,243639,1,2,0:2:0:0:
267,113,243714,1,10,2:2:0:0:
88,348,243864,1,10,2:2:0:0:
10,67,244014,1,10,2:2:0:0:
290,290,244164,6,0,B|377:301|426:211|426:211|458:258|513:254,1,270,4|0,1:2|0:0,0:0:0:0:
256,192,246489,12,0,247914,0:0:0:0:
