osu file format v14

[General]
AudioFilename: audio.mp3
AudioLeadIn: 0
PreviewTime: 51974
Countdown: 0
SampleSet: Soft
StackLeniency: 0.7
Mode: 0
LetterboxInBreaks: 0
WidescreenStoryboard: 0

[Editor]
DistanceSpacing: 1.2
BeatDivisor: 4
GridSize: 8
TimelineZoom: 2.3

[Metadata]
Title:Nameless mind
TitleUnicode:Nameless mind
Artist:Kusuda Aina
ArtistUnicode:楠田亜衣奈
Creator:Noctiam
Version:Together
Source:
Tags:next brilliant wave jpop stream
BeatmapID:2059992
BeatmapSetID:984525

[Difficulty]
HPDrainRate:5.5
CircleSize:4
OverallDifficulty:8.5
ApproachRate:9.4
SliderMultiplier:2
SliderTickRate:1

[Events]
//Background and Video events
0,0,"60a4fe9ef2c2bb0aa808ae0b5e10a0477d6676f8_s2_n1.jpg",0,0
//Break Periods
2,145488,147713
2,170779,173353
//Storyboard Layer 0 (Background)
//Storyboard Layer 1 (Fail)
//Storyboard Layer 2 (Pass)
//Storyboard Layer 3 (Foreground)
//Storyboard Layer 4 (Overlay)
//Storyboard Sound Samples

[TimingPoints]
347,348.837209302326,4,2,0,60,1,0
5928,-80,4,3,0,80,0,0
14300,-80,4,2,0,80,0,0
17091,-80,4,3,0,80,0,0
19881,-133.333333333333,4,2,0,60,0,0
42207,-200,4,2,0,60,0,0
47788,-133.333333333333,4,2,0,70,0,0
51974,-66.6666666666667,4,2,0,80,0,0
53370,-80,4,3,0,80,0,1
59474,-80,4,2,0,80,0,1
63835,-80,4,3,0,80,0,0
64533,-80,4,3,0,80,0,1
70637,-80,4,2,0,80,0,1
74300,-100,4,2,0,60,0,0
86858,-133.333333333333,4,2,0,70,0,0
109184,-200,4,2,0,60,0,0
114765,-133.333333333333,4,2,0,70,0,0
118951,-66.6666666666667,4,2,0,70,0,0
119649,-80,4,2,0,70,0,0
120347,-80,4,3,0,80,0,1
126451,-80,4,2,0,80,0,1
130812,-80,4,3,0,80,0,0
131509,-80,4,3,0,80,0,1
137614,-80,4,2,0,80,0,1
141277,-100,4,2,0,60,0,0
148253,-200,4,2,0,60,0,0
152265,-100,4,2,0,60,0,0
153835,-80,4,3,0,80,0,0
159416,-80,4,2,0,80,0,0
167788,-200,4,2,0,60,0,0
174067,-100,4,2,0,70,0,0
176160,-100,4,2,0,70,0,0
179126,-100,4,3,0,70,0,0
180347,-66.6666666666667,4,2,0,70,0,0
181742,-80,4,3,0,80,0,1
187847,-80,4,2,0,80,0,1
192207,-80,4,3,0,80,0,0
192905,-80,4,3,0,80,0,1
199009,-80,4,2,0,80,0,1
202672,-100,4,2,0,70,0,0
204067,-80,4,3,0,80,0,0
212440,-80,4,2,0,80,0,0
215230,-80,4,3,0,80,0,0

[Colours]
Combo1 : 0,251,251
Combo2 : 166,17,255
Combo3 : 111,111,255
Combo4 : 190,190,190
Combo5 : 255,89,89

[HitObjects]
65,117,347,6,0,L|40:228,2,100,2|0|2,0:0|0:0|0:0,0:0:0:0:
152,51,870,1,0,0:0:0:0:
185,164,1044,2,0,P|237:160|287:141,1,100,2|0,0:0|0:0,0:0:0:0:
186,56,1393,1,0,0:0:0:0:
116,206,1567,6,0,P|139:273|168:291,2,100,2|0|2,0:0|0:0|0:0,0:0:0:0:
32,306,2091,1,0,0:0:0:0:
122,348,2265,2,0,L|225:321,1,100,0|2,0:0|0:0,0:0:0:0:
197,208,2614,1,0,0:0:0:0:
374,253,2788,6,0,P|316:267|272:257,2,100,2|0|2,0:0|0:0|0:0,0:0:0:0:
443,156,3312,1,0,0:0:0:0:
335,109,3486,2,0,L|209:131,1,100,2|0,0:0|0:0,0:0:0:0:
107,301,3835,2,0,L|214:279,1,100
324,231,4184,2,0,P|329:261|458:290,1,150
458,302,4533,5,8,0:0:0:0:
452,272,4620,1,8,0:0:0:0:
432,250,4707,1,8,0:0:0:0:
404,241,4794,1,8,0:0:0:0:
384,263,4881,1,8,0:0:0:0:
363,285,4968,1,8,0:0:0:0:
343,307,5056,2,0,P|282:331|215:324,1,100,8|0,0:0|0:0,0:0:0:0:
99,274,5405,1,8,0:0:0:0:
285,223,5579,2,0,P|191:211|122:159,1,150,8|0,0:0|0:0,0:0:0:0:
132,152,5928,5,4,0:0:0:0:
159,126,6015,1,0,0:0:0:0:
191,107,6102,1,0,0:0:0:0:
227,97,6189,1,0,0:0:0:0:
265,94,6276,1,0,0:0:0:0:
301,100,6364,1,0,0:0:0:0:
336,115,6451,1,0,0:0:0:0:
366,137,6538,1,0,0:0:0:0:
391,165,6625,1,2,0:0:0:0:
408,198,6712,1,0,0:0:0:0:
418,234,6800,5,0,0:0:0:0:
381,233,6887,1,0,0:0:0:0:
351,254,6974,1,8,0:0:0:0:
346,291,7061,1,0,0:0:0:0:
324,321,7148,1,0,0:0:0:0:
291,337,7235,1,0,0:0:0:0:
254,335,7323,5,2,0:0:0:0:
217,332,7410,1,0,0:0:0:0:
179,328,7497,1,0,0:0:0:0:
142,325,7585,1,0,0:0:0:0:
104,322,7671,5,8,0:0:0:0:
95,286,7759,1,0,0:0:0:0:
85,250,7846,1,0,0:0:0:0:
76,214,7933,1,0,0:0:0:0:
66,177,8021,5,2,0:0:0:0:
103,180,8108,1,0,0:0:0:0:
137,196,8195,1,0,0:0:0:0:
162,224,8282,1,0,0:0:0:0:
175,259,8370,5,8,0:0:0:0:
209,243,8457,1,0,0:0:0:0:
234,216,8544,1,0,0:0:0:0:
248,182,8631,1,0,0:0:0:0:
248,144,8719,5,2,0:0:0:0:
212,134,8806,1,0,0:0:0:0:
175,136,8893,1,0,0:0:0:0:
141,151,8980,1,0,0:0:0:0:
114,177,9067,1,8,0:0:0:0:
99,211,9155,1,0,0:0:0:0:
96,249,9242,5,0,0:0:0:0:
79,215,9329,1,0,0:0:0:0:
71,178,9416,1,2,0:0:0:0:
73,141,9503,1,0,0:0:0:0:
85,105,9590,1,0,0:0:0:0:
105,74,9678,1,0,0:0:0:0:
132,49,9765,1,8,0:0:0:0:
165,31,9852,1,0,0:0:0:0:
202,23,9939,1,0,0:0:0:0:
239,24,10026,1,0,0:0:0:0:
275,35,10114,1,2,0:0:0:0:
307,54,10201,1,0,0:0:0:0:
333,81,10288,1,0,0:0:0:0:
351,113,10375,1,0,0:0:0:0:
361,150,10462,1,8,0:0:0:0:
360,187,10550,1,0,0:0:0:0:
351,223,10637,6,0,L|338:300,5,62.5,0|0|2|0|0|0,0:0|0:0|0:0|0:0|0:0|0:0,0:0:0:0:
463,242,11160,2,0,L|481:301,3,62.5,8|0|0|0,0:0|0:0|0:0|0:0,0:0:0:0:
399,329,11509,5,6,0:0:0:0:
367,311,11596,1,0,0:0:0:0:
340,284,11683,1,0,0:0:0:0:
320,253,11770,1,0,0:0:0:0:
309,217,11857,1,8,0:0:0:0:
307,180,11945,1,0,0:0:0:0:
314,143,12032,1,0,0:0:0:0:
330,109,12119,1,0,0:0:0:0:
354,80,12206,1,2,0:0:0:0:
384,58,12293,1,0,0:0:0:0:
419,44,12381,5,0,0:0:0:0:
383,34,12468,1,0,0:0:0:0:
346,33,12555,1,8,0:0:0:0:
310,43,12642,1,0,0:0:0:0:
278,62,12729,1,0,0:0:0:0:
252,89,12817,1,0,0:0:0:0:
234,122,12905,5,2,0:0:0:0:
260,148,12992,1,0,0:0:0:0:
274,183,13079,1,0,0:0:0:0:
272,220,13166,1,0,0:0:0:0:
256,253,13253,5,8,0:0:0:0:
218,250,13340,1,0,0:0:0:0:
181,246,13427,1,0,0:0:0:0:
144,242,13514,1,0,0:0:0:0:
106,239,13602,5,8,0:0:0:0:
112,195,13689,1,0,0:0:0:0:
129,155,13776,1,0,0:0:0:0:
156,122,13863,1,0,0:0:0:0:
193,97,13950,1,8,0:0:0:0:
234,84,14038,1,0,0:0:0:0:
278,83,14125,1,0,0:0:0:0:
320,94,14212,1,0,0:0:0:0:
357,117,14299,5,8,0:0:0:0:
282,285,14474,1,0,0:0:0:0:
282,285,14649,1,0,0:0:0:0:
243,160,14823,5,8,0:0:0:0:
448,236,14998,1,0,0:0:0:0:
448,236,15172,1,0,0:0:0:0:
311,37,15347,5,8,0:0:0:0:
168,238,15522,1,0,0:0:0:0:
168,238,15695,1,0,0:0:0:0:
192,48,15871,5,8,0:0:0:0:
366,242,16044,1,0,0:0:0:0:
366,242,16220,1,0,0:0:0:0:
126,167,16393,5,8,0:0:0:0:
397,76,16567,1,0,0:0:0:0:
211,270,16742,1,8,0:0:0:0:
83,41,16916,1,0,0:0:0:0:
277,65,17091,5,8,0:0:0:0:
277,65,17178,1,0,0:0:0:0:
277,65,17265,2,0,L|262:150,1,62.5
201,209,17440,5,0,0:0:0:0:
201,209,17527,1,0,0:0:0:0:
201,209,17614,2,0,L|216:294,1,62.5,8|8,0:0|0:0,0:0:0:0:
143,348,17788,5,0,0:0:0:0:
143,348,17875,1,0,0:0:0:0:
143,348,17962,2,0,L|58:363,1,62.5
30,275,18137,5,8,0:0:0:0:
30,275,18224,1,8,0:0:0:0:
30,275,18312,5,8,0:0:0:0:
172,42,18660,1,8,0:0:0:0:
102,188,18835,1,8,0:0:0:0:
7,57,19009,1,8,0:0:0:0:
187,200,19881,6,0,P|139:221|108:330,1,150.000005722046
207,349,20405,1,0,0:0:0:0:
285,289,20579,2,0,L|389:296,1,75.0000028610231
359,294,20841,1,0,0:0:0:0:
359,294,20928,1,0,0:0:0:0:
447,360,21102,1,0,0:0:0:0:
450,252,21277,6,0,L|413:180,1,75.0000028610231
379,70,21626,2,0,P|413:63|458:83,1,75.0000028610231
311,149,21974,2,0,P|239:146|208:129,1,75.0000028610231
157,24,22323,2,0,P|207:45|222:68,1,75.0000028610231
138,159,22672,6,0,B|88:167|74:108|74:108|62:91|30:152,1,150.000005722046
118,235,23195,1,0,0:0:0:0:
21,225,23370,2,0,L|51:328,1,75.0000028610231
41,297,23631,1,0,0:0:0:0:
41,297,23719,1,0,0:0:0:0:
143,251,23893,1,0,0:0:0:0:
221,330,24067,6,0,L|237:253,1,75.0000028610231
236,256,24329,1,0,0:0:0:0:
236,256,24416,1,0,0:0:0:0:
143,327,24591,1,0,0:0:0:0:
303,353,24765,1,0,0:0:0:0:
321,349,24852,1,0,0:0:0:0:
338,342,24939,1,0,0:0:0:0:
353,331,25026,1,0,0:0:0:0:
365,317,25113,1,0,0:0:0:0:
481,341,25288,1,0,0:0:0:0:
460,233,25463,6,0,P|404:220|306:238,1,150.000005722046
234,306,25986,1,0,0:0:0:0:
127,219,26160,2,0,P|168:198|212:190,1,75.0000028610231
195,191,26422,1,0,0:0:0:0:
195,191,26509,1,0,0:0:0:0:
100,135,26684,1,0,0:0:0:0:
191,38,26858,6,0,P|209:86|207:125,1,75.0000028610231
308,154,27207,2,0,P|323:108|359:84,1,75.0000028610231
467,182,27556,2,0,P|449:230|451:269,1,75.0000028610231
350,298,27905,2,0,P|335:252|299:228,1,75.0000028610231
214,311,28253,6,0,P|156:323|58:280,1,150.000005722046
165,224,28777,1,0,0:0:0:0:
39,148,28951,2,0,L|49:241,1,75.0000028610231
47,222,29213,1,0,0:0:0:0:
47,222,29300,1,0,0:0:0:0:
127,138,29474,6,0,B|166:98|166:98|132:75|98:94|86:49,1,150.000005722046
13,132,29998,1,0,0:0:0:0:
137,217,30172,1,0,0:0:0:0:
19,282,30347,1,0,0:0:0:0:
34,156,30521,1,0,0:0:0:0:
165,224,30695,1,0,0:0:0:0:
8,312,30870,1,0,0:0:0:0:
193,246,31044,6,0,B|164:285|164:285|182:348|259:321,1,150.000005722046
318,257,31567,1,0,0:0:0:0:
433,288,31742,1,0,0:0:0:0:
433,288,31829,1,0,0:0:0:0:
433,288,31916,2,0,L|347:329,1,75.0000028610231
487,355,32265,1,0,0:0:0:0:
475,222,32440,6,0,P|428:207|381:216,1,75.0000028610231
249,233,32788,2,0,L|275:141,1,75.0000028610231
378,62,33137,2,0,L|351:158,1,75.0000028610231
196,62,33486,2,0,P|238:48|291:53,1,75.0000028610231
96,22,33835,6,0,L|132:176,1,150.000005722046
43,147,34358,1,0,0:0:0:0:
217,172,34533,1,0,0:0:0:0:
217,172,34620,1,0,0:0:0:0:
217,172,34707,2,0,P|198:217|154:240,1,75.0000028610231
67,247,35056,1,0,0:0:0:0:
79,341,35230,6,0,L|184:338,1,75.0000028610231
153,338,35492,1,0,0:0:0:0:
153,338,35579,1,0,0:0:0:0:
270,306,35753,1,0,0:0:0:0:
202,212,35928,1,0,0:0:0:0:
180,207,36015,1,0,0:0:0:0:
157,208,36102,1,0,0:0:0:0:
135,214,36189,1,0,0:0:0:0:
116,225,36276,1,0,0:0:0:0:
191,305,36451,1,0,0:0:0:0:
48,294,36626,6,0,L|5:126,1,150.000005722046
142,71,37149,1,0,0:0:0:0:
40,40,37323,1,0,0:0:0:0:
40,40,37410,1,0,0:0:0:0:
40,40,37498,2,0,L|93:137,1,75.0000028610231
154,187,37847,1,0,0:0:0:0:
214,36,38021,6,0,P|232:81|236:119,1,75.0000028610231
214,228,38370,2,0,P|178:212|143:165,1,75.0000028610231
329,139,38719,2,0,P|311:184|307:222,1,75.0000028610231
329,331,39068,2,0,P|365:315|400:268,1,75.0000028610231
214,228,39416,6,0,L|257:376,1,150.000005722046
325,249,39940,1,0,0:0:0:0:
360,144,40114,2,0,L|433:160,1,75.0000028610231
252,168,40463,1,0,0:0:0:0:
134,82,40637,6,0,P|91:97|58:192,1,150.000005722046
240,295,41160,1,0,0:0:0:0:
190,220,41335,1,0,0:0:0:0:
190,220,41422,1,0,0:0:0:0:
190,220,41509,1,0,0:0:0:0:
107,188,41684,1,0,0:0:0:0:
248,166,41858,1,0,0:0:0:0:
165,317,42033,1,0,0:0:0:0:
49,238,42207,6,0,P|34:175|47:125,1,100
94,61,42730,1,0,0:0:0:0:
94,61,42817,1,0,0:0:0:0:
94,61,42905,2,0,L|163:77,1,50
236,90,43253,1,0,0:0:0:0:
167,155,43428,1,0,0:0:0:0:
301,141,43602,6,0,P|339:147|365:164,1,50
253,219,43951,2,0,P|216:227|193:243,1,50
356,302,44300,2,0,L|364:238,1,50
246,314,44649,2,0,L|274:367,1,50
431,356,44998,6,0,P|458:312|470:249,1,100
378,229,45521,1,0,0:0:0:0:
378,229,45608,1,0,0:0:0:0:
378,229,45695,2,0,L|355:168,1,50
475,157,46044,1,0,0:0:0:0:
405,84,46219,2,0,P|360:97|304:79,1,100
230,152,46742,5,0,0:0:0:0:
225,38,46916,1,0,0:0:0:0:
225,38,47003,1,0,0:0:0:0:
225,38,47091,1,0,0:0:0:0:
147,135,47265,1,0,0:0:0:0:
265,175,47440,1,0,0:0:0:0:
133,94,47614,1,0,0:0:0:0:
314,110,47788,6,0,L|367:202,1,75.0000028610231
402,260,48137,1,0,0:0:0:0:
449,169,48312,1,0,0:0:0:0:
323,244,48486,2,0,L|288:326,1,75.0000028610231
294,313,48748,1,0,0:0:0:0:
294,313,48836,1,0,0:0:0:0:
173,353,49009,6,0,P|132:340|98:303,1,75.0000028610231
229,202,49358,2,0,L|210:291,1,75.0000028610231
74,199,49707,2,0,L|87:115,1,75.0000028610231
230,71,50056,2,0,P|177:78|153:68,1,75.0000028610231
321,29,50405,6,0,B|352:60|332:125|332:125|367:113|382:94|399:107,1,150.000005722046
402,103,50841,1,0,0:0:0:0:
413,122,50928,1,0,0:0:0:0:
421,143,51015,1,0,0:0:0:0:
425,165,51102,1,0,0:0:0:0:
475,339,51277,5,0,0:0:0:0:
465,314,51364,1,0,0:0:0:0:
449,294,51451,1,0,0:0:0:0:
427,280,51538,1,0,0:0:0:0:
401,274,51625,1,0,0:0:0:0:
375,276,51713,1,0,0:0:0:0:
351,286,51800,1,0,0:0:0:0:
332,304,51887,1,0,0:0:0:0:
319,328,51974,6,0,B|237:335|139:320|139:320|152:295,1,150.000005722046
186,288,52236,2,0,P|172:196|52:197,1,225.000008583069
17,313,52672,2,0,P|160:329|18:116,1,525.000020027161
53,125,53370,5,2,0:0:0:0:
81,148,53457,1,0,0:0:0:0:
114,167,53544,1,0,0:0:0:0:
148,181,53631,1,0,0:0:0:0:
185,189,53718,1,8,0:0:0:0:
222,191,53806,1,0,0:0:0:0:
260,188,53893,5,0,0:0:0:0:
247,153,53980,1,0,0:0:0:0:
247,116,54067,1,2,0:0:0:0:
262,81,54154,1,0,0:0:0:0:
288,55,54241,1,0,0:0:0:0:
323,40,54329,1,0,0:0:0:0:
360,40,54416,1,8,0:0:0:0:
395,53,54503,1,0,0:0:0:0:
422,78,54590,1,0,0:0:0:0:
438,112,54677,1,0,0:0:0:0:
441,149,54765,5,2,0:0:0:0:
434,198,54852,1,0,0:0:0:0:
405,238,54939,1,0,0:0:0:0:
361,261,55026,1,0,0:0:0:0:
312,261,55114,5,8,0:0:0:0:
299,213,55201,1,0,0:0:0:0:
271,172,55288,1,0,0:0:0:0:
230,144,55375,1,0,0:0:0:0:
181,132,55463,5,2,0:0:0:0:
190,182,55550,1,0,0:0:0:0:
198,231,55637,1,0,0:0:0:0:
206,280,55724,1,0,0:0:0:0:
214,330,55811,5,8,0:0:0:0:
165,329,55899,1,0,0:0:0:0:
118,311,55986,1,0,0:0:0:0:
81,278,56073,1,0,0:0:0:0:
56,235,56160,5,2,0:0:0:0:
80,206,56247,1,0,0:0:0:0:
110,184,56334,1,0,0:0:0:0:
144,169,56421,1,0,0:0:0:0:
181,161,56509,1,8,0:0:0:0:
218,160,56596,1,0,0:0:0:0:
255,168,56684,1,0,0:0:0:0:
256,131,56771,1,0,0:0:0:0:
242,96,56858,1,2,0:0:0:0:
216,70,56945,1,0,0:0:0:0:
182,56,57032,1,0,0:0:0:0:
144,56,57120,1,0,0:0:0:0:
110,71,57207,1,8,0:0:0:0:
85,98,57294,1,0,0:0:0:0:
72,133,57381,1,0,0:0:0:0:
74,170,57468,1,0,0:0:0:0:
90,204,57556,5,2,0:0:0:0:
138,190,57643,1,0,0:0:0:0:
187,194,57730,1,0,0:0:0:0:
232,216,57817,1,0,0:0:0:0:
265,253,57905,5,2,0:0:0:0:
216,257,57992,1,0,0:0:0:0:
170,277,58079,1,0,0:0:0:0:
134,311,58166,1,0,0:0:0:0:
112,355,58253,5,2,0:0:0:0:
96,308,58340,1,0,0:0:0:0:
80,260,58427,1,0,0:0:0:0:
64,213,58514,1,0,0:0:0:0:
48,166,58602,5,2,0:0:0:0:
93,132,58689,1,0,0:0:0:0:
146,113,58776,1,0,0:0:0:0:
202,110,58864,1,0,0:0:0:0:
257,122,58951,5,2,0:0:0:0:
250,170,59038,1,0,0:0:0:0:
214,205,59125,1,0,0:0:0:0:
166,211,59212,1,0,0:0:0:0:
123,186,59299,1,0,0:0:0:0:
105,141,59387,1,0,0:0:0:0:
117,93,59474,6,0,L|231:40,1,125
378,36,59823,1,0,0:0:0:0:
383,73,59910,1,0,0:0:0:0:
388,110,59997,1,0,0:0:0:0:
302,222,60172,2,0,P|376:129|495:155,1,250
492,152,60608,1,0,0:0:0:0:
492,152,60695,1,0,0:0:0:0:
385,301,60870,5,0,0:0:0:0:
219,251,61044,1,0,0:0:0:0:
366,191,61219,1,0,0:0:0:0:
319,363,61393,1,0,0:0:0:0:
161,326,61567,2,0,B|128:312|128:312|132:250|145:200|145:199|129:197|129:197|91:251|32:270,1,250
62,257,62003,1,0,0:0:0:0:
62,257,62091,1,0,0:0:0:0:
232,170,62265,5,0,0:0:0:0:
45,137,62440,1,0,0:0:0:0:
216,70,62614,1,0,0:0:0:0:
134,204,62788,1,0,0:0:0:0:
30,62,62963,2,0,P|89:38|161:41,1,125
311,77,63312,5,0,0:0:0:0:
145,127,63486,2,0,P|217:148|263:235,1,125
185,314,63835,6,0,L|87:300,3,62.5
70,239,64184,2,0,L|8:247,3,62.5
2,152,64533,5,0,0:0:0:0:
39,147,64620,1,0,0:0:0:0:
76,146,64707,1,0,0:0:0:0:
113,150,64794,1,0,0:0:0:0:
150,158,64881,1,0,0:0:0:0:
185,170,64969,1,0,0:0:0:0:
219,187,65056,5,0,0:0:0:0:
253,201,65143,1,0,0:0:0:0:
290,203,65230,1,0,0:0:0:0:
327,195,65317,1,0,0:0:0:0:
358,175,65404,1,0,0:0:0:0:
383,147,65492,1,0,0:0:0:0:
397,112,65579,1,0,0:0:0:0:
361,121,65666,1,0,0:0:0:0:
323,122,65753,1,0,0:0:0:0:
287,113,65840,1,0,0:0:0:0:
254,96,65928,5,0,0:0:0:0:
289,84,66015,1,0,0:0:0:0:
325,73,66102,1,0,0:0:0:0:
361,61,66189,1,0,0:0:0:0:
397,50,66276,5,0,0:0:0:0:
397,87,66364,1,0,0:0:0:0:
398,125,66451,1,0,0:0:0:0:
399,162,66538,1,0,0:0:0:0:
400,200,66626,5,0,0:0:0:0:
432,182,66713,1,0,0:0:0:0:
451,150,66800,1,0,0:0:0:0:
452,113,66887,1,0,0:0:0:0:
434,81,66974,5,0,0:0:0:0:
406,106,67061,1,0,0:0:0:0:
373,123,67148,1,0,0:0:0:0:
337,130,67235,1,0,0:0:0:0:
299,128,67323,5,0,0:0:0:0:
265,143,67410,1,0,0:0:0:0:
240,170,67497,1,0,0:0:0:0:
227,205,67584,1,0,0:0:0:0:
230,242,67671,1,0,0:0:0:0:
247,275,67759,1,0,0:0:0:0:
276,299,67847,5,0,0:0:0:0:
296,267,67934,1,0,0:0:0:0:
296,230,68021,1,0,0:0:0:0:
278,198,68108,1,0,0:0:0:0:
246,179,68195,1,0,0:0:0:0:
209,180,68283,1,0,0:0:0:0:
177,199,68370,1,0,0:0:0:0:
154,228,68457,1,0,0:0:0:0:
120,241,68544,1,0,0:0:0:0:
83,234,68631,1,0,0:0:0:0:
55,210,68719,5,0,0:0:0:0:
91,176,68806,1,0,0:0:0:0:
107,129,68893,1,0,0:0:0:0:
98,81,68980,1,0,0:0:0:0:
67,42,69067,5,0,0:0:0:0:
41,84,69154,1,0,0:0:0:0:
51,131,69241,1,0,0:0:0:0:
90,160,69328,1,0,0:0:0:0:
139,153,69416,5,0,0:0:0:0:
112,112,69503,1,0,0:0:0:0:
64,102,69590,1,0,0:0:0:0:
24,128,69677,1,0,0:0:0:0:
14,176,69765,5,0,0:0:0:0:
34,222,69852,1,0,0:0:0:0:
64,262,69939,1,0,0:0:0:0:
102,294,70026,1,0,0:0:0:0:
146,316,70113,1,0,0:0:0:0:
190,293,70201,1,0,0:0:0:0:
239,282,70288,1,0,0:0:0:0:
289,283,70375,1,0,0:0:0:0:
337,296,70462,1,0,0:0:0:0:
381,320,70550,1,0,0:0:0:0:
418,353,70637,6,0,L|265:337,1,125
158,232,70986,1,0,0:0:0:0:
195,237,71073,1,0,0:0:0:0:
232,242,71160,1,0,0:0:0:0:
432,195,71335,2,0,B|364:165|300:180|300:180|268:132|207:105,1,250
212,107,71771,1,0,0:0:0:0:
212,107,71858,1,0,0:0:0:0:
385,83,72033,5,0,0:0:0:0:
306,244,72207,1,0,0:0:0:0:
300,101,72381,1,0,0:0:0:0:
457,179,72556,1,0,0:0:0:0:
225,220,72730,2,0,P|175:172|162:105,1,125
321,42,73079,5,0,0:0:0:0:
321,42,73166,1,0,0:0:0:0:
321,42,73253,2,0,L|189:37,1,125
32,134,73602,1,0,0:0:0:0:
69,130,73689,1,0,0:0:0:0:
105,140,73776,1,0,0:0:0:0:
136,160,73863,1,0,0:0:0:0:
158,190,73950,1,0,0:0:0:0:
87,277,74126,1,0,0:0:0:0:
34,55,74300,5,0,0:0:0:0:
299,102,74474,1,0,0:0:0:0:
480,29,75695,6,0,L|467:155,1,100
378,89,76044,1,0,0:0:0:0:
451,211,76219,1,0,0:0:0:0:
289,186,76393,2,0,P|273:126|278:66,1,100
357,37,76742,1,0,0:0:0:0:
196,28,76916,1,0,0:0:0:0:
78,104,77091,6,0,L|172:164,1,100
265,103,77440,1,0,0:0:0:0:
281,252,77614,1,0,0:0:0:0:
462,188,77788,2,0,L|348:238,1,100
312,97,78137,1,0,0:0:0:0:
239,249,78312,1,0,0:0:0:0:
138,124,78486,6,0,P|71:174|105:292,1,200
207,334,79009,1,0,0:0:0:0:
293,161,79184,2,0,L|278:264,1,100
388,356,79533,2,0,L|372:239,1,100
504,174,79881,6,0,P|441:182|393:176,1,100
456,80,80230,1,0,0:0:0:0:
323,169,80405,1,0,0:0:0:0:
209,66,80579,2,0,P|269:85|314:72,1,100
288,193,80928,1,0,0:0:0:0:
405,62,81102,1,0,0:0:0:0:
442,215,81277,6,0,P|449:279|400:324,1,100
332,214,81626,1,0,0:0:0:0:
256,355,81800,1,0,0:0:0:0:
241,225,81974,2,0,P|270:265|309:295,1,100
442,215,82323,1,0,0:0:0:0:
391,346,82498,1,0,0:0:0:0:
309,162,82672,6,0,P|367:119|424:125,1,100
497,154,83021,1,0,0:0:0:0:
441,31,83195,1,0,0:0:0:0:
301,52,83370,2,0,L|199:103,1,100
31,160,83719,2,0,L|162:205,1,100
312,178,84067,5,0,0:0:0:0:
188,294,84242,1,0,0:0:0:0:
188,294,84416,1,0,0:0:0:0:
33,234,84591,5,0,0:0:0:0:
277,328,84766,1,0,0:0:0:0:
277,328,84940,1,0,0:0:0:0:
67,317,85114,5,0,0:0:0:0:
314,178,85288,1,0,0:0:0:0:
314,178,85637,6,0,P|378:170|446:194,2,100
248,270,86160,2,0,P|184:262|116:286,2,100
332,346,86684,1,0,0:0:0:0:
431,286,86858,5,0,0:0:0:0:
431,286,86945,1,0,0:0:0:0:
431,286,87033,2,0,P|447:226|431:132,1,150.000005722046
397,58,87556,2,0,P|343:83|247:78,1,150.000005722046
162,40,88079,1,0,0:0:0:0:
76,70,88253,6,0,L|107:231,1,150.000005722046
169,142,88777,1,0,0:0:0:0:
26,218,88951,2,0,P|42:274|150:287,1,150.000005722046
461,352,89649,6,0,P|396:351|314:299,1,150.000005722046
394,247,90172,1,0,0:0:0:0:
394,247,90259,1,0,0:0:0:0:
394,247,90347,2,0,L|489:218,1,75.0000028610231
425,133,90695,2,0,L|327:104,1,75.0000028610231
250,166,91044,6,0,P|198:145|191:56,1,150.000005722046
297,35,91567,1,0,0:0:0:0:
332,154,91742,1,0,0:0:0:0:
417,75,91916,1,0,0:0:0:0:
467,170,92091,2,0,L|405:240,1,75.0000028610231
350,315,92440,6,0,P|278:296|186:335,1,150.000005722046
107,350,92963,1,0,0:0:0:0:
107,350,93050,1,0,0:0:0:0:
107,350,93137,2,0,L|42:294,1,75.0000028610231
126,242,93486,2,0,L|177:183,1,75.0000028610231
94,62,93835,6,0,P|57:93|58:197,1,150.000005722046
166,114,94358,1,0,0:0:0:0:
267,231,94533,2,0,P|256:181|302:91,1,150.000005722046
494,316,95230,6,0,L|340:304,1,150.000005722046
248,336,95753,1,0,0:0:0:0:
248,336,95841,1,0,0:0:0:0:
248,336,95928,2,0,L|145:345,1,75.0000028610231
53,315,96277,1,0,0:0:0:0:
157,259,96451,6,0,L|116:106,1,150.000005722046
43,218,96974,1,0,0:0:0:0:
42,83,97149,1,0,0:0:0:0:
217,158,97323,1,0,0:0:0:0:
136,40,97498,1,0,0:0:0:0:
133,198,97672,2,0,P|162:226|254:233,1,112.500004291535
305,213,98021,6,0,L|194:343,1,150.000005722046
49,261,98544,1,0,0:0:0:0:
122,343,98719,1,0,0:0:0:0:
122,343,98806,1,0,0:0:0:0:
122,343,98893,2,0,P|147:299|148:254,1,75.0000028610231
89,132,99242,1,0,0:0:0:0:
205,182,99416,6,0,L|105:202,1,75.0000028610231
53,75,99765,2,0,L|147:95,1,75.0000028610231
70,263,100114,2,0,P|55:225|53:178,1,75.0000028610231
188,39,100463,2,0,P|198:78|193:132,1,75.0000028610231
164,233,100812,6,0,P|203:218|322:266,1,150.000005722046
416,314,101335,1,0,0:0:0:0:
284,341,101510,1,0,0:0:0:0:
284,341,101597,1,0,0:0:0:0:
284,341,101684,2,0,L|221:288,1,75.0000028610231
363,190,102033,1,0,0:0:0:0:
489,229,102207,6,0,P|466:270|434:284,1,75.0000028610231
442,282,102469,1,0,0:0:0:0:
442,282,102556,1,0,0:0:0:0:
333,201,102730,1,0,0:0:0:0:
456,137,102905,1,0,0:0:0:0:
441,119,102992,1,0,0:0:0:0:
424,105,103079,1,0,0:0:0:0:
405,92,103166,1,0,0:0:0:0:
385,82,103253,1,0,0:0:0:0:
270,120,103428,1,0,0:0:0:0:
156,38,103602,6,0,P|172:92|152:210,1,150.000005722046
53,206,104126,1,0,0:0:0:0:
88,300,104300,1,0,0:0:0:0:
88,300,104387,1,0,0:0:0:0:
88,300,104474,2,0,L|179:317,1,75.0000028610231
245,224,104823,1,0,0:0:0:0:
319,360,104998,6,0,L|234:351,1,75.0000028610231
382,276,105347,2,0,L|469:291,1,75.0000028610231
300,158,105695,2,0,P|263:196|263:229,1,75.0000028610231
443,178,106044,2,0,L|429:103,1,75.0000028610231
335,27,106393,6,0,B|334:95|218:61|198:26|283:61,1,150.000005722046
326,149,106916,1,0,0:0:0:0:
326,149,107003,1,0,0:0:0:0:
326,149,107091,1,0,0:0:0:0:
257,216,107265,2,0,L|156:198,1,75.0000028610231
131,125,107614,6,0,P|144:181|122:289,1,150.000005722046
73,351,108137,1,0,0:0:0:0:
44,246,108312,1,0,0:0:0:0:
44,246,108399,1,0,0:0:0:0:
44,246,108486,1,0,0:0:0:0:
113,362,108660,1,0,0:0:0:0:
43,214,108835,1,0,0:0:0:0:
227,247,109009,1,0,0:0:0:0:
55,182,109184,6,0,P|88:212|68:310,1,150
71,306,109794,1,0,0:0:0:0:
71,306,109881,1,0,0:0:0:0:
185,348,110056,1,0,0:0:0:0:
231,262,110230,2,0,L|172:241,1,50
87,155,110579,6,0,P|110:182|111:218,1,50
31,74,110928,2,0,L|99:69,1,50
202,105,111277,2,0,P|179:132|178:168,1,50
258,24,111626,2,0,L|190:19,1,50
301,115,111974,6,0,B|336:112|362:82|362:82|405:105|447:88,1,150
437,92,112585,1,0,0:0:0:0:
437,92,112672,1,0,0:0:0:0:
494,193,112847,1,0,0:0:0:0:
433,267,113021,1,0,0:0:0:0:
395,175,113195,2,0,P|359:180|337:238,1,100
405,349,113719,5,0,0:0:0:0:
464,214,113893,1,0,0:0:0:0:
464,214,113980,1,0,0:0:0:0:
464,214,114067,1,0,0:0:0:0:
299,267,114242,1,0,0:0:0:0:
447,188,114416,1,0,0:0:0:0:
295,129,114591,1,0,0:0:0:0:
454,37,114765,6,0,P|412:60|394:107,1,75.0000028610231
481,168,115114,1,0,0:0:0:0:
369,201,115288,1,0,0:0:0:0:
254,92,115463,2,0,P|295:95|330:124,1,75.0000028610231
322,113,115724,1,0,0:0:0:0:
322,113,115812,1,0,0:0:0:0:
240,218,115986,6,0,L|276:306,1,75.0000028610231
112,218,116335,2,0,P|64:229|16:226,1,75.0000028610231
180,115,116684,2,0,P|216:105|253:103,1,75.0000028610231
53,115,117033,2,0,L|24:45,1,75.0000028610231
228,180,117381,6,0,B|179:211|179:211|103:188|99:235,1,150.000005722046
93,251,117817,1,0,0:0:0:0:
91,273,117904,1,0,0:0:0:0:
94,295,117991,1,0,0:0:0:0:
102,316,118078,1,0,0:0:0:0:
300,260,118253,5,0,0:0:0:0:
281,278,118340,1,0,0:0:0:0:
272,302,118427,1,0,0:0:0:0:
274,328,118514,1,0,0:0:0:0:
287,351,118601,1,0,0:0:0:0:
308,366,118689,1,0,0:0:0:0:
334,371,118776,1,0,0:0:0:0:
359,365,118863,1,0,0:0:0:0:
377,348,118951,6,0,B|412:318|412:318|347:299|347:245|353:194,1,150.000005722046
415,191,119213,2,0,P|332:211|229:168,1,150.000005722046
248,126,119474,2,0,L|166:133,1,75.0000028610231
71,115,119649,6,0,P|35:105|2:108,3,62.5
94,214,119998,2,0,P|129:203|161:206,3,62.5
251,274,120347,5,0,0:0:0:0:
288,270,120434,1,0,0:0:0:0:
321,253,120521,1,0,0:0:0:0:
346,226,120608,1,0,0:0:0:0:
360,191,120695,1,0,0:0:0:0:
360,154,120783,1,0,0:0:0:0:
346,119,120870,5,0,0:0:0:0:
315,141,120957,1,0,0:0:0:0:
282,157,121044,1,0,0:0:0:0:
245,166,121131,1,0,0:0:0:0:
208,168,121218,1,0,0:0:0:0:
171,163,121306,1,0,0:0:0:0:
136,150,121393,1,0,0:0:0:0:
104,131,121480,1,0,0:0:0:0:
76,106,121567,1,0,0:0:0:0:
54,76,121654,1,0,0:0:0:0:
38,42,121742,5,0,0:0:0:0:
87,49,121829,1,0,0:0:0:0:
126,79,121916,1,0,0:0:0:0:
146,124,122003,1,0,0:0:0:0:
141,174,122091,5,0,0:0:0:0:
114,215,122178,1,0,0:0:0:0:
113,264,122265,1,0,0:0:0:0:
139,306,122352,1,0,0:0:0:0:
183,328,122439,5,0,0:0:0:0:
201,282,122527,1,0,0:0:0:0:
184,237,122614,1,0,0:0:0:0:
140,216,122701,1,0,0:0:0:0:
93,233,122788,5,0,0:0:0:0:
68,189,122875,1,0,0:0:0:0:
68,140,122962,1,0,0:0:0:0:
92,97,123049,1,0,0:0:0:0:
135,71,123137,5,0,0:0:0:0:
151,104,123224,1,0,0:0:0:0:
174,134,123311,1,0,0:0:0:0:
203,157,123398,1,0,0:0:0:0:
237,174,123485,1,0,0:0:0:0:
273,183,123573,1,0,0:0:0:0:
310,184,123660,5,0,0:0:0:0:
297,150,123747,1,0,0:0:0:0:
270,124,123834,1,0,0:0:0:0:
235,113,123921,1,0,0:0:0:0:
198,118,124008,1,0,0:0:0:0:
168,139,124096,1,0,0:0:0:0:
149,172,124183,1,0,0:0:0:0:
147,209,124270,1,0,0:0:0:0:
161,243,124357,1,0,0:0:0:0:
189,268,124444,1,0,0:0:0:0:
225,278,124533,5,0,0:0:0:0:
274,268,124620,1,0,0:0:0:0:
323,259,124707,1,0,0:0:0:0:
373,249,124794,1,0,0:0:0:0:
422,240,124881,5,0,0:0:0:0:
374,226,124968,1,0,0:0:0:0:
326,212,125055,1,0,0:0:0:0:
277,199,125142,1,0,0:0:0:0:
229,185,125230,5,0,0:0:0:0:
264,149,125317,1,0,0:0:0:0:
309,127,125404,1,0,0:0:0:0:
358,122,125491,1,0,0:0:0:0:
406,135,125579,5,0,0:0:0:0:
371,99,125666,1,0,0:0:0:0:
326,77,125753,1,0,0:0:0:0:
277,71,125840,1,0,0:0:0:0:
228,81,125927,1,0,0:0:0:0:
185,107,126015,1,0,0:0:0:0:
153,145,126102,1,0,0:0:0:0:
136,192,126189,1,0,0:0:0:0:
134,241,126276,1,0,0:0:0:0:
149,289,126363,1,0,0:0:0:0:
179,329,126451,6,0,B|116:318|52:348,1,125
270,266,126800,1,0,0:0:0:0:
276,229,126887,1,0,0:0:0:0:
283,192,126974,1,0,0:0:0:0:
183,88,127149,2,0,P|99:95|69:261,1,250
52,235,127585,1,0,0:0:0:0:
52,235,127672,1,0,0:0:0:0:
287,181,127847,5,0,0:0:0:0:
232,359,128021,1,0,0:0:0:0:
167,177,128195,1,0,0:0:0:0:
117,299,128370,1,0,0:0:0:0:
338,307,128544,2,0,P|384:247|302:108,1,250
310,110,128980,1,0,0:0:0:0:
310,110,129067,1,0,0:0:0:0:
131,138,129242,5,0,0:0:0:0:
298,221,129416,1,0,0:0:0:0:
197,63,129591,1,0,0:0:0:0:
222,278,129765,1,0,0:0:0:0:
272,40,129940,2,0,P|346:39|405:65,1,125
483,174,130288,5,0,0:0:0:0:
313,142,130463,2,0,P|344:222|338:274,1,125
188,289,130812,5,0,0:0:0:0:
154,273,130899,1,0,0:0:0:0:
126,247,130986,1,0,0:0:0:0:
108,215,131073,1,0,0:0:0:0:
97,179,131160,1,0,0:0:0:0:
134,176,131247,1,0,0:0:0:0:
166,156,131334,1,0,0:0:0:0:
185,125,131421,1,0,0:0:0:0:
162,101,131509,5,0,0:0:0:0:
124,101,131596,1,0,0:0:0:0:
87,94,131683,1,0,0:0:0:0:
53,79,131770,1,0,0:0:0:0:
23,57,131858,1,0,0:0:0:0:
57,43,131945,1,0,0:0:0:0:
94,37,132032,1,0,0:0:0:0:
132,38,132119,1,0,0:0:0:0:
168,47,132206,1,0,0:0:0:0:
202,63,132294,1,0,0:0:0:0:
232,85,132381,1,0,0:0:0:0:
195,80,132468,1,0,0:0:0:0:
158,85,132555,1,0,0:0:0:0:
124,100,132642,1,0,0:0:0:0:
95,123,132729,1,0,0:0:0:0:
73,154,132817,1,0,0:0:0:0:
60,189,132904,5,0,0:0:0:0:
100,218,132992,1,0,0:0:0:0:
117,264,133079,1,0,0:0:0:0:
108,313,133166,1,0,0:0:0:0:
74,349,133253,1,0,0:0:0:0:
41,312,133340,1,0,0:0:0:0:
31,264,133427,1,0,0:0:0:0:
45,216,133514,1,0,0:0:0:0:
81,182,133602,5,0,0:0:0:0:
115,218,133689,1,0,0:0:0:0:
158,242,133776,1,0,0:0:0:0:
207,253,133863,1,0,0:0:0:0:
257,249,133951,5,0,0:0:0:0:
247,200,134038,1,0,0:0:0:0:
210,168,134125,1,0,0:0:0:0:
161,167,134212,1,0,0:0:0:0:
134,207,134300,5,0,0:0:0:0:
99,219,134387,1,0,0:0:0:0:
73,246,134474,1,0,0:0:0:0:
62,282,134561,1,0,0:0:0:0:
69,318,134648,1,0,0:0:0:0:
91,348,134736,5,0,0:0:0:0:
126,333,134823,1,0,0:0:0:0:
162,322,134910,1,0,0:0:0:0:
198,316,134997,1,0,0:0:0:0:
236,315,135084,1,0,0:0:0:0:
273,318,135172,1,0,0:0:0:0:
310,325,135259,1,0,0:0:0:0:
345,337,135347,1,0,0:0:0:0:
365,306,135434,1,0,0:0:0:0:
377,270,135521,1,0,0:0:0:0:
380,233,135608,1,0,0:0:0:0:
374,196,135695,5,0,0:0:0:0:
324,190,135782,1,0,0:0:0:0:
276,202,135869,1,0,0:0:0:0:
235,230,135956,1,0,0:0:0:0:
206,271,136044,5,0,0:0:0:0:
253,281,136131,1,0,0:0:0:0:
294,255,136218,1,0,0:0:0:0:
302,207,136305,1,0,0:0:0:0:
274,167,136393,5,0,0:0:0:0:
224,167,136480,1,0,0:0:0:0:
176,154,136567,1,0,0:0:0:0:
133,129,136654,1,0,0:0:0:0:
99,93,136742,5,0,0:0:0:0:
146,81,136829,1,0,0:0:0:0:
190,102,136916,1,0,0:0:0:0:
209,148,137003,1,0,0:0:0:0:
193,194,137091,1,0,0:0:0:0:
144,202,137178,1,0,0:0:0:0:
98,183,137265,1,0,0:0:0:0:
68,144,137352,1,0,0:0:0:0:
63,95,137439,1,0,0:0:0:0:
83,50,137527,1,0,0:0:0:0:
124,22,137614,6,0,L|264:44,1,125
416,143,137963,1,0,0:0:0:0:
379,135,138050,1,0,0:0:0:0:
342,128,138137,1,0,0:0:0:0:
135,192,138312,2,0,P|253:220|233:340,1,250
245,328,138748,1,0,0:0:0:0:
245,328,138835,1,0,0:0:0:0:
74,255,139009,5,0,0:0:0:0:
243,192,139184,1,0,0:0:0:0:
155,348,139358,1,0,0:0:0:0:
131,150,139533,1,0,0:0:0:0:
326,233,139707,2,0,P|272:278|191:224,1,125
109,82,140056,5,0,0:0:0:0:
109,82,140143,1,0,0:0:0:0:
109,82,140230,2,0,L|53:208,1,125
356,261,140579,1,0,0:0:0:0:
335,222,140666,1,0,0:0:0:0:
303,192,140753,1,0,0:0:0:0:
264,174,140840,1,0,0:0:0:0:
221,169,140927,1,0,0:0:0:0:
214,326,141102,1,0,0:0:0:0:
424,194,141277,5,0,0:0:0:0:
169,76,141451,1,0,0:0:0:0:
214,326,141800,5,0,0:0:0:0:
214,326,142149,1,0,0:0:0:0:
214,326,142498,1,0,0:0:0:0:
256,192,142672,12,0,145288,0:0:0:0:
28,351,148253,6,0,P|58:313|120:297,1,100
190,343,148777,1,0,0:0:0:0:
181,223,148951,2,0,L|79:199,1,100
22,102,149474,2,0,P|71:120|196:43,1,200
295,27,150347,2,0,L|311:88,1,50
351,194,150695,1,0,0:0:0:0:
403,109,150870,1,0,0:0:0:0:
264,175,151044,6,0,P|276:233|305:267,1,100
427,303,151567,1,0,0:0:0:0:
460,121,151742,1,0,0:0:0:0:
351,194,151916,1,0,0:0:0:0:
502,238,152091,1,0,0:0:0:0:
355,70,152265,6,0,P|276:81|213:192,1,200
305,255,152788,2,0,P|352:286|406:281,2,100
459,154,153312,2,0,P|403:165|369:207,2,100
359,69,153835,5,0,0:0:0:0:
315,66,153922,1,0,0:0:0:0:
274,80,154009,1,0,0:0:0:0:
243,111,154096,1,0,0:0:0:0:
227,151,154183,1,0,0:0:0:0:
229,194,154271,1,0,0:0:0:0:
249,233,154358,5,0,0:0:0:0:
187,273,154445,1,0,0:0:0:0:
114,269,154532,1,0,0:0:0:0:
57,222,154619,1,0,0:0:0:0:
40,151,154707,5,0,0:0:0:0:
102,112,154794,1,0,0:0:0:0:
173,127,154881,1,0,0:0:0:0:
214,188,154968,1,0,0:0:0:0:
199,262,155056,5,0,0:0:0:0:
239,323,155143,1,0,0:0:0:0:
308,347,155230,1,0,0:0:0:0:
377,322,155317,1,0,0:0:0:0:
416,259,155405,5,0,0:0:0:0:
416,185,155492,1,0,0:0:0:0:
385,117,155579,5,0,0:0:0:0:
313,134,155666,1,0,0:0:0:0:
239,125,155753,1,0,0:0:0:0:
173,89,155840,1,0,0:0:0:0:
124,33,155928,5,0,0:0:0:0:
192,25,156015,1,0,0:0:0:0:
252,56,156102,1,0,0:0:0:0:
286,115,156189,1,0,0:0:0:0:
281,182,156277,5,0,0:0:0:0:
237,159,156364,1,0,0:0:0:0:
187,155,156451,1,0,0:0:0:0:
140,170,156538,1,0,0:0:0:0:
98,198,156626,5,0,0:0:0:0:
150,249,156713,1,0,0:0:0:0:
222,243,156800,1,0,0:0:0:0:
265,185,156887,1,0,0:0:0:0:
249,114,156974,1,0,0:0:0:0:
194,65,157061,1,0,0:0:0:0:
121,59,157148,1,0,0:0:0:0:
59,99,157235,1,0,0:0:0:0:
34,169,157323,5,0,0:0:0:0:
95,178,157410,1,0,0:0:0:0:
140,220,157497,1,0,0:0:0:0:
153,280,157584,1,0,0:0:0:0:
130,337,157671,1,0,0:0:0:0:
79,371,157759,1,0,0:0:0:0:
34,339,157847,6,0,L|222:317,1,187.5
380,298,158195,1,0,0:0:0:0:
431,246,158282,1,0,0:0:0:0:
437,174,158369,1,0,0:0:0:0:
394,112,158456,1,0,0:0:0:0:
324,93,158543,1,0,0:0:0:0:
256,123,158631,1,0,0:0:0:0:
223,189,158719,5,0,0:0:0:0:
169,139,158806,1,0,0:0:0:0:
95,134,158893,1,0,0:0:0:0:
36,176,158980,1,0,0:0:0:0:
17,248,159067,1,0,0:0:0:0:
47,314,159154,1,0,0:0:0:0:
113,346,159242,1,0,0:0:0:0:
186,354,159330,1,0,0:0:0:0:
257,331,159416,5,0,0:0:0:0:
110,222,159591,1,0,0:0:0:0:
110,222,159765,1,0,0:0:0:0:
186,354,159940,5,0,0:0:0:0:
332,175,160114,1,0,0:0:0:0:
332,175,160288,1,0,0:0:0:0:
294,319,160463,5,0,0:0:0:0:
120,138,160637,1,0,0:0:0:0:
120,138,160812,1,0,0:0:0:0:
77,303,160986,5,0,0:0:0:0:
262,95,161160,1,0,0:0:0:0:
262,95,161335,1,0,0:0:0:0:
370,294,161509,5,0,0:0:0:0:
45,167,161683,1,0,0:0:0:0:
186,354,161857,1,0,0:0:0:0:
339,124,162032,1,0,0:0:0:0:
109,48,162207,5,0,0:0:0:0:
219,256,162381,1,0,0:0:0:0:
219,256,162556,1,0,0:0:0:0:
258,35,162730,5,0,0:0:0:0:
75,246,162905,1,0,0:0:0:0:
75,246,163079,1,0,0:0:0:0:
186,99,163253,5,0,0:0:0:0:
399,239,163428,1,0,0:0:0:0:
399,239,163602,1,0,0:0:0:0:
356,109,163777,5,0,0:0:0:0:
199,349,163951,1,0,0:0:0:0:
199,349,164126,1,0,0:0:0:0:
110,82,164300,5,0,0:0:0:0:
348,278,164474,1,0,0:0:0:0:
235,65,164649,1,0,0:0:0:0:
103,332,164823,1,0,0:0:0:0:
270,172,164998,5,0,0:0:0:0:
59,216,165172,1,0,0:0:0:0:
59,216,165259,1,0,0:0:0:0:
59,216,165347,1,0,0:0:0:0:
41,67,165521,5,0,0:0:0:0:
190,243,165695,1,0,0:0:0:0:
190,243,165783,1,0,0:0:0:0:
190,243,165870,1,0,0:0:0:0:
380,149,166044,5,0,0:0:0:0:
166,103,166219,1,0,0:0:0:0:
166,103,166306,1,0,0:0:0:0:
166,103,166393,1,0,0:0:0:0:
160,324,166567,5,0,0:0:0:0:
290,51,166742,1,0,0:0:0:0:
290,51,166829,1,0,0:0:0:0:
290,51,166916,1,0,0:0:0:0:
75,239,167091,5,0,0:0:0:0:
134,195,167178,1,0,0:0:0:0:
203,173,167265,1,0,0:0:0:0:
277,173,167352,1,0,0:0:0:0:
346,195,167439,1,0,0:0:0:0:
406,238,167527,1,0,0:0:0:0:
450,295,167614,1,0,0:0:0:0:
256,192,167788,12,0,170579,0:0:0:0:
19,337,173893,5,0,0:0:0:0:
19,337,173980,1,0,0:0:0:0:
19,337,174067,2,0,P|73:327|159:218,1,200
63,235,174591,2,0,L|26:124,1,100
64,46,174940,5,0,0:0:0:0:
239,75,175114,1,0,0:0:0:0:
119,151,175288,1,0,0:0:0:0:
119,151,175376,1,0,0:0:0:0:
119,151,175463,2,0,L|148:50,1,100
265,149,175812,2,0,L|303:255,1,100
448,346,176160,6,0,P|389:332|349:298,1,100
217,242,176509,1,0,0:0:0:0:
272,340,176684,1,0,0:0:0:0:
330,190,176858,2,0,L|449:206,1,100
363,70,177207,2,0,L|242:132,1,100
274,115,177469,1,0,0:0:0:0:
274,115,177556,1,0,0:0:0:0:
85,61,177730,6,0,P|161:63|194:76,1,100
103,234,178079,2,0,L|-4:210,1,100
245,172,178428,2,0,P|265:228|249:278,1,100
86,360,178777,2,0,B|42:359|45:327|45:327|55:284|118:357|194:346,1,200
201,346,179213,1,0,0:0:0:0:
229,353,179300,1,0,0:0:0:0:
259,353,179387,1,0,0:0:0:0:
287,343,179474,1,0,0:0:0:0:
215,131,179649,5,0,0:0:0:0:
189,147,179736,1,0,0:0:0:0:
172,171,179823,1,0,0:0:0:0:
166,200,179910,1,0,0:0:0:0:
172,229,179997,1,0,0:0:0:0:
188,254,180085,1,0,0:0:0:0:
213,270,180172,1,0,0:0:0:0:
243,276,180259,1,0,0:0:0:0:
272,270,180347,6,0,P|199:220|119:248,1,150.000005722046
114,251,180608,2,0,B|63:261|59:317|59:317|21:306|0:233|14:155,1,225.000008583069
126,43,181044,2,0,P|267:104|96:68,1,525.000020027161
65,81,181742,5,0,0:0:0:0:
39,108,181829,1,0,0:0:0:0:
21,141,181916,1,0,0:0:0:0:
13,177,182003,1,0,0:0:0:0:
14,214,182090,1,0,0:0:0:0:
26,250,182178,1,0,0:0:0:0:
47,282,182265,5,0,0:0:0:0:
81,267,182352,1,0,0:0:0:0:
117,258,182439,1,0,0:0:0:0:
154,255,182526,1,0,0:0:0:0:
192,259,182614,1,0,0:0:0:0:
193,296,182701,1,0,0:0:0:0:
177,329,182788,1,0,0:0:0:0:
146,351,182875,1,0,0:0:0:0:
110,355,182962,1,0,0:0:0:0:
75,342,183050,1,0,0:0:0:0:
51,314,183137,5,0,0:0:0:0:
78,272,183224,1,0,0:0:0:0:
93,224,183311,1,0,0:0:0:0:
95,175,183398,1,0,0:0:0:0:
83,126,183486,5,0,0:0:0:0:
56,167,183573,1,0,0:0:0:0:
60,216,183660,1,0,0:0:0:0:
93,252,183747,1,0,0:0:0:0:
142,259,183835,5,0,0:0:0:0:
165,215,183922,1,0,0:0:0:0:
172,166,184009,1,0,0:0:0:0:
162,117,184096,1,0,0:0:0:0:
136,75,184184,5,0,0:0:0:0:
185,84,184271,1,0,0:0:0:0:
228,108,184358,1,0,0:0:0:0:
260,146,184445,1,0,0:0:0:0:
278,193,184533,5,0,0:0:0:0:
294,159,184620,1,0,0:0:0:0:
320,132,184707,1,0,0:0:0:0:
354,117,184794,1,0,0:0:0:0:
391,114,184881,1,0,0:0:0:0:
427,124,184969,1,0,0:0:0:0:
457,146,185056,5,0,0:0:0:0:
471,181,185143,1,0,0:0:0:0:
473,218,185230,1,0,0:0:0:0:
462,254,185317,1,0,0:0:0:0:
440,284,185405,1,0,0:0:0:0:
405,270,185492,1,0,0:0:0:0:
369,261,185579,1,0,0:0:0:0:
332,257,185666,1,0,0:0:0:0:
294,260,185753,1,0,0:0:0:0:
258,268,185841,1,0,0:0:0:0:
223,281,185928,5,0,0:0:0:0:
263,309,186015,1,0,0:0:0:0:
312,308,186102,1,0,0:0:0:0:
350,277,186189,1,0,0:0:0:0:
362,229,186277,5,0,0:0:0:0:
313,229,186364,1,0,0:0:0:0:
267,209,186451,1,0,0:0:0:0:
233,173,186538,1,0,0:0:0:0:
214,127,186626,5,0,0:0:0:0:
200,174,186713,1,0,0:0:0:0:
164,208,186800,1,0,0:0:0:0:
116,220,186887,1,0,0:0:0:0:
69,206,186974,5,0,0:0:0:0:
69,156,187061,1,0,0:0:0:0:
87,110,187148,1,0,0:0:0:0:
121,73,187235,1,0,0:0:0:0:
165,50,187323,5,0,0:0:0:0:
160,87,187410,1,0,0:0:0:0:
156,124,187497,1,0,0:0:0:0:
151,162,187584,1,0,0:0:0:0:
147,199,187671,1,0,0:0:0:0:
142,236,187759,1,0,0:0:0:0:
137,273,187847,6,0,P|85:321|19:268,1,125
260,175,188195,1,0,0:0:0:0:
281,205,188282,1,0,0:0:0:0:
291,241,188369,1,0,0:0:0:0:
46,181,188544,2,0,P|80:90|241:97,1,250
217,77,188980,1,0,0:0:0:0:
217,77,189067,1,0,0:0:0:0:
102,244,189242,5,0,0:0:0:0:
342,170,189416,1,0,0:0:0:0:
182,339,189591,1,0,0:0:0:0:
259,127,189765,1,0,0:0:0:0:
309,352,189940,2,0,P|368:326|425:137,1,250
432,163,190376,1,0,0:0:0:0:
432,163,190463,1,0,0:0:0:0:
213,48,190637,5,0,0:0:0:0:
432,89,190812,1,0,0:0:0:0:
256,222,190986,1,0,0:0:0:0:
355,33,191160,1,0,0:0:0:0:
133,76,191335,2,0,P|202:94|232:150,1,125
127,307,191684,5,0,0:0:0:0:
30,216,191858,2,0,L|12:86,1,125
127,307,192207,2,0,L|161:239,3,62.5
217,197,192556,2,0,L|183:129,3,62.5
238,70,192905,5,0,0:0:0:0:
265,94,192992,1,0,0:0:0:0:
300,108,193079,1,0,0:0:0:0:
337,110,193166,1,0,0:0:0:0:
373,98,193253,1,0,0:0:0:0:
402,75,193341,1,0,0:0:0:0:
421,43,193428,5,0,0:0:0:0:
383,39,193515,1,0,0:0:0:0:
347,48,193602,1,0,0:0:0:0:
316,68,193689,1,0,0:0:0:0:
293,98,193776,1,0,0:0:0:0:
281,133,193864,1,0,0:0:0:0:
282,170,193951,1,0,0:0:0:0:
294,205,194038,1,0,0:0:0:0:
318,234,194125,1,0,0:0:0:0:
350,254,194212,1,0,0:0:0:0:
386,261,194300,5,0,0:0:0:0:
347,292,194387,1,0,0:0:0:0:
301,311,194474,1,0,0:0:0:0:
251,316,194561,1,0,0:0:0:0:
202,306,194649,5,0,0:0:0:0:
193,257,194736,1,0,0:0:0:0:
184,208,194823,1,0,0:0:0:0:
175,158,194910,1,0,0:0:0:0:
166,109,194998,5,0,0:0:0:0:
129,141,195085,1,0,0:0:0:0:
120,189,195172,1,0,0:0:0:0:
143,232,195259,1,0,0:0:0:0:
188,248,195347,5,0,0:0:0:0:
179,296,195434,1,0,0:0:0:0:
145,331,195521,1,0,0:0:0:0:
96,342,195608,1,0,0:0:0:0:
51,323,195695,5,0,0:0:0:0:
79,299,195782,1,0,0:0:0:0:
101,269,195869,1,0,0:0:0:0:
113,233,195956,1,0,0:0:0:0:
116,196,196043,1,0,0:0:0:0:
110,159,196131,1,0,0:0:0:0:
94,126,196219,5,0,0:0:0:0:
80,91,196306,1,0,0:0:0:0:
89,55,196393,1,0,0:0:0:0:
116,31,196480,1,0,0:0:0:0:
153,27,196567,1,0,0:0:0:0:
185,45,196655,1,0,0:0:0:0:
184,82,196742,1,0,0:0:0:0:
192,119,196829,1,0,0:0:0:0:
209,152,196916,1,0,0:0:0:0:
234,181,197003,1,0,0:0:0:0:
264,202,197091,5,0,0:0:0:0:
283,156,197178,1,0,0:0:0:0:
302,110,197265,1,0,0:0:0:0:
321,64,197352,1,0,0:0:0:0:
340,17,197440,5,0,0:0:0:0:
292,30,197527,1,0,0:0:0:0:
250,57,197614,1,0,0:0:0:0:
218,96,197701,1,0,0:0:0:0:
198,142,197788,5,0,0:0:0:0:
245,155,197875,1,0,0:0:0:0:
295,157,197962,1,0,0:0:0:0:
344,147,198049,1,0,0:0:0:0:
389,126,198137,5,0,0:0:0:0:
348,98,198224,1,0,0:0:0:0:
301,82,198311,1,0,0:0:0:0:
251,79,198398,1,0,0:0:0:0:
201,87,198486,1,0,0:0:0:0:
156,103,198573,1,0,0:0:0:0:
122,70,198660,1,0,0:0:0:0:
172,65,198747,1,0,0:0:0:0:
218,82,198834,1,0,0:0:0:0:
251,119,198921,1,0,0:0:0:0:
264,166,199009,6,0,L|108:178,1,125
27,350,199358,1,0,0:0:0:0:
70,346,199445,1,0,0:0:0:0:
114,342,199532,1,0,0:0:0:0:
77,102,199707,2,0,P|59:186|183:268,1,250
179,268,200143,1,0,0:0:0:0:
179,268,200230,1,0,0:0:0:0:
19,154,200405,5,0,0:0:0:0:
237,140,200579,1,0,0:0:0:0:
77,274,200753,1,0,0:0:0:0:
159,55,200928,1,0,0:0:0:0:
303,215,201102,2,0,L|262:337,1,125
79,163,201451,5,0,0:0:0:0:
79,163,201538,1,0,0:0:0:0:
79,163,201626,2,0,P|149:160|195:126,1,125
403,33,201974,1,0,0:0:0:0:
362,49,202061,1,0,0:0:0:0:
334,81,202148,1,0,0:0:0:0:
323,123,202235,1,0,0:0:0:0:
331,166,202322,1,0,0:0:0:0:
485,84,202498,1,0,0:0:0:0:
213,114,202672,5,0,0:0:0:0:
390,321,202847,1,0,0:0:0:0:
213,114,203544,2,0,B|152:170|53:158|53:158|118:218,1,250
132,232,204067,5,0,0:0:0:0:
159,258,204154,1,0,0:0:0:0:
191,277,204241,1,0,0:0:0:0:
227,287,204328,1,0,0:0:0:0:
265,290,204415,1,0,0:0:0:0:
301,284,204503,1,0,0:0:0:0:
336,269,204590,1,0,0:0:0:0:
366,247,204677,1,0,0:0:0:0:
391,219,204764,1,0,0:0:0:0:
408,186,204851,1,0,0:0:0:0:
418,150,204939,5,0,0:0:0:0:
381,151,205026,1,0,0:0:0:0:
351,130,205113,1,0,0:0:0:0:
346,93,205200,1,0,0:0:0:0:
324,63,205287,1,0,0:0:0:0:
291,47,205376,1,0,0:0:0:0:
254,49,205462,5,0,0:0:0:0:
217,52,205549,1,0,0:0:0:0:
179,56,205636,1,0,0:0:0:0:
142,59,205724,1,0,0:0:0:0:
104,62,205812,5,0,0:0:0:0:
95,98,205898,1,0,0:0:0:0:
85,134,205985,1,0,0:0:0:0:
76,170,206072,1,0,0:0:0:0:
66,207,206160,5,0,0:0:0:0:
103,204,206247,1,0,0:0:0:0:
137,188,206334,1,0,0:0:0:0:
162,160,206421,1,0,0:0:0:0:
175,125,206509,5,0,0:0:0:0:
209,141,206596,1,0,0:0:0:0:
234,168,206683,1,0,0:0:0:0:
248,202,206770,1,0,0:0:0:0:
248,240,206858,5,0,0:0:0:0:
212,250,206945,1,0,0:0:0:0:
175,248,207032,1,0,0:0:0:0:
141,233,207119,1,0,0:0:0:0:
114,207,207206,1,0,0:0:0:0:
99,173,207294,1,0,0:0:0:0:
96,135,207381,5,0,0:0:0:0:
79,169,207468,1,0,0:0:0:0:
71,206,207555,1,0,0:0:0:0:
73,243,207642,1,0,0:0:0:0:
85,279,207729,1,0,0:0:0:0:
105,310,207817,1,0,0:0:0:0:
132,335,207904,1,0,0:0:0:0:
165,353,207991,1,0,0:0:0:0:
202,361,208078,1,0,0:0:0:0:
239,360,208165,1,0,0:0:0:0:
275,349,208253,1,0,0:0:0:0:
307,330,208340,1,0,0:0:0:0:
333,303,208427,1,0,0:0:0:0:
351,271,208514,1,0,0:0:0:0:
361,234,208601,1,0,0:0:0:0:
360,197,208689,1,0,0:0:0:0:
351,161,208777,6,0,L|335:83,5,62.5
467,90,209300,2,0,L|453:30,3,62.5
359,30,209648,5,0,0:0:0:0:
327,48,209735,1,0,0:0:0:0:
300,75,209822,1,0,0:0:0:0:
280,106,209909,1,0,0:0:0:0:
269,142,209998,1,0,0:0:0:0:
267,179,210084,1,0,0:0:0:0:
274,216,210171,1,0,0:0:0:0:
290,250,210258,1,0,0:0:0:0:
314,279,210347,1,0,0:0:0:0:
344,301,210434,1,0,0:0:0:0:
379,315,210520,5,0,0:0:0:0:
343,325,210607,1,0,0:0:0:0:
306,326,210694,1,0,0:0:0:0:
270,316,210783,1,0,0:0:0:0:
238,297,210870,1,0,0:0:0:0:
212,270,210956,1,0,0:0:0:0:
194,237,211044,5,0,0:0:0:0:
220,211,211131,1,0,0:0:0:0:
234,176,211218,1,0,0:0:0:0:
232,139,211305,1,0,0:0:0:0:
216,106,211392,5,0,0:0:0:0:
178,109,211479,1,0,0:0:0:0:
141,113,211566,1,0,0:0:0:0:
104,117,211655,1,0,0:0:0:0:
66,120,211741,5,0,0:0:0:0:
63,169,211829,1,0,0:0:0:0:
75,218,211916,1,0,0:0:0:0:
101,260,212003,1,0,0:0:0:0:
138,293,212090,1,0,0:0:0:0:
184,314,212178,1,0,0:0:0:0:
233,320,212265,1,0,0:0:0:0:
282,311,212352,1,0,0:0:0:0:
326,297,212439,5,0,0:0:0:0:
242,83,212613,1,0,0:0:0:0:
242,83,212788,1,0,0:0:0:0:
159,217,212962,5,0,0:0:0:0:
422,148,213137,1,0,0:0:0:0:
422,148,213311,1,0,0:0:0:0:
285,347,213486,5,0,0:0:0:0:
173,127,213661,1,0,0:0:0:0:
173,127,213836,1,0,0:0:0:0:
166,336,214010,5,0,0:0:0:0:
312,76,214185,1,0,0:0:0:0:
312,76,214359,1,0,0:0:0:0:
385,233,214532,5,0,0:0:0:0:
102,216,214706,1,0,0:0:0:0:
329,347,214881,1,0,0:0:0:0:
404,97,215055,1,0,0:0:0:0:
251,319,215230,5,0,0:0:0:0:
251,319,215317,1,0,0:0:0:0:
251,319,215404,2,0,L|236:234,1,62.5
165,188,215579,5,0,0:0:0:0:
165,188,215666,1,0,0:0:0:0:
165,188,215753,2,0,L|180:103,1,62.5
276,65,215927,5,0,0:0:0:0:
276,65,216014,1,0,0:0:0:0:
276,65,216102,2,0,L|291:141,1,62.5
313,217,216276,5,0,0:0:0:0:
313,217,216363,1,0,0:0:0:0:
313,217,216451,5,0,0:0:0:0:
29,364,216799,1,0,0:0:0:0:
220,340,216974,1,0,0:0:0:0:
86,192,217148,1,0,0:0:0:0:
480,132,217498,5,0,0:0:0:0:
29,364,217847,1,0,0:0:0:0:
