osu file format v14

[General]
AudioFilename: audio.mp3
AudioLeadIn: 0
PreviewTime: 49514
Countdown: 0
SampleSet: Soft
StackLeniency: 0.7
Mode: 0
LetterboxInBreaks: 0
WidescreenStoryboard: 0

[Editor]
DistanceSpacing: 1
BeatDivisor: 4
GridSize: 8
TimelineZoom: 1.8

[Metadata]
Title:Happy Thinking!
TitleUnicode:ハッピーシンキング!
Artist:Kusuda Aina
ArtistUnicode:楠田亜衣奈
Creator:Noctiam
Version:Peace!
Source:
Tags:happy thinking solo single
BeatmapID:1819614
BeatmapSetID:870804

[Difficulty]
HPDrainRate:6
CircleSize:4
OverallDifficulty:8.5
ApproachRate:9.5
SliderMultiplier:1.4
SliderTickRate:1

[Events]
//Background and Video events
0,0,"BG.jpg",0,0
//Break Periods
2,11764,12960
2,67764,72960
2,158963,160201
//Storyboard Layer 0 (Background)
//Storyboard Layer 1 (Fail)
//Storyboard Layer 2 (Pass)
//Storyboard Layer 3 (Foreground)
//Storyboard Sound Samples

[TimingPoints]
514,250,4,2,0,70,1,0
514,-133.333333333333,4,2,0,70,0,0
3514,-100,4,2,0,70,0,0
5514,-133.333333333333,4,2,0,70,0,0
6764,-117.647058823529,4,2,0,70,0,0
7514,-133.333333333333,4,2,0,70,0,0
8764,-117.647058823529,4,2,0,70,0,0
9514,-133.333333333333,4,2,0,70,0,0
10764,-117.647058823529,4,2,0,70,0,0
11514,-133.333333333333,4,2,0,70,0,0
13514,-100,4,2,0,70,0,0
21514,-125,4,2,0,70,0,0
27514,-111.111111111111,4,2,0,70,0,0
29514,-125,4,2,0,70,0,0
35514,-111.111111111111,4,2,0,70,0,0
37514,-200,4,2,0,70,0,0
41514,-111.111111111111,4,2,0,70,0,0
49514,-100,4,2,0,90,0,1
67514,-100,4,2,0,70,0,0
73514,-100,4,2,0,70,0,0
75514,-133.333333333333,4,2,0,70,0,0
81514,-117.647058823529,4,2,0,70,0,0
83514,-133.333333333333,4,2,0,70,0,0
89514,-117.647058823529,4,2,0,70,0,0
91514,-200,4,2,0,70,0,0
95514,-111.111111111111,4,2,0,70,0,0
103514,-100,4,2,0,90,0,1
121764,-200,4,2,0,30,0,0
138764,-400,4,2,0,70,0,0
139514,-100,4,2,0,70,0,0
150764,-200,4,2,0,70,0,0
152514,-100,4,2,0,70,0,0
152764,250,4,2,0,70,1,0
160764,-100,4,2,0,90,0,1
188764,-100,4,2,0,80,0,0

[Colours]
Combo1 : 255,128,192
Combo2 : 176,40,255
Combo3 : 255,0,0
Combo4 : 0,128,255

[HitObjects]
53,61,514,6,0,L|124:69,1,52.5000020027161
230,90,764,2,0,L|177:84,1,52.5000020027161
116,146,1014,1,0,0:0:0:0:
191,191,1139,1,0,0:0:0:0:
263,331,1389,6,0,P|211:325|175:286,1,105.000004005432
268,213,1764,2,0,P|258:247|233:267,1,52.5000020027161
324,285,2014,1,0,0:0:0:0:
366,211,2139,1,0,0:0:0:0:
274,73,2389,6,0,P|309:36|361:31,1,105.000004005432
366,149,2764,2,0,P|356:115|331:95,1,52.5000020027161
422,77,3014,1,0,0:0:0:0:
464,151,3139,1,0,0:0:0:0:
482,309,3264,2,0,P|484:272|471:242,1,52.5000020027161,8|0,0:0|0:0,0:0:0:0:
311,269,3514,6,0,L|367:227,1,70,2|0,0:0|0:0,0:0:0:0:
158,303,3764,2,0,L|218:366,1,70,8|0,0:0|0:0,0:0:0:0:
163,162,4014,2,0,L|89:219,1,70
241,247,4264,1,8,0:0:0:0:
321,176,4389,2,0,P|352:199|369:245,1,70
375,353,4639,6,0,P|341:313|336:284,1,70
290,140,4889,1,8,0:0:0:0:
174,236,5014,2,0,P|220:250|247:245,1,70
100,123,5264,2,0,P|67:138|47:176,1,70,8|0,0:0|0:0,0:0:0:0:
22,308,5514,1,2,0:0:0:0:
336,297,5764,6,8,L|298:182,1,105.000004005432
422,159,6264,2,8,L|388:53,1,105.000004005432
73,80,6764,6,8,P|119:72|148:84,1,59.5000011348725
265,99,7014,1,0,0:0:0:0:
213,184,7139,2,0,P|178:188|146:176,1,59.5000011348725,0|8,0:0|0:0,0:0:0:0:
326,59,7389,2,0,P|346:87|332:126,1,59.5000011348725
240,307,7764,6,8,L|142:254,1,105.000004005432
50,128,8264,2,8,L|148:75,1,105.000004005432
341,53,8764,6,0,P|341:86|329:118,1,59.5000011348725,8|0,0:0|0:0,0:0:0:0:
314,217,9014,1,0,0:0:0:0:
386,267,9139,2,0,P|406:232|405:210,1,59.5000011348725,0|8,0:0|0:0,0:0:0:0:
208,278,9389,2,0,P|228:301|263:316,1,59.5000011348725
332,110,9764,6,8,L|234:163,1,105.000004005432
50,256,10264,2,8,L|148:309,1,105.000004005432
118,63,10764,6,0,P|87:83|80:117,1,59.5000011348725,8|0,0:0|0:0,0:0:0:0:
170,197,11014,1,0,0:0:0:0:
199,113,11139,1,0,0:0:0:0:
79,184,11264,1,8,0:0:0:0:
222,256,11389,2,0,P|242:231|244:189,1,59.5000011348725
413,40,13514,6,0,L|315:56,1,70,2|0,0:0|0:0,0:0:0:0:
389,168,13764,2,0,L|479:154,1,70,8|0,0:0|0:0,0:0:0:0:
255,101,14014,2,0,L|166:83,1,70
7,43,14264,1,8,0:0:0:0:
97,45,14389,6,0,L|115:191,1,140,2|0,0:0|0:0,0:0:0:0:
220,233,14764,2,0,L|201:148,1,70,8|0,0:0|0:0,0:0:0:0:
7,192,15014,2,0,L|24:280,1,70
144,336,15264,1,8,0:0:0:0:
295,311,15389,6,0,P|320:240|283:173,1,140,2|0,0:0|0:0,0:0:0:0:
169,101,15764,2,0,L|221:186,1,70,8|0,0:0|0:0,0:0:0:0:
408,208,16014,2,0,L|365:147,1,70
248,247,16264,1,8,0:0:0:0:
438,283,16389,6,0,P|486:204|460:147,1,140,2|0,0:0|0:0,0:0:0:0:
363,61,16764,1,8,0:0:0:0:
280,103,16889,1,8,0:0:0:0:
367,150,17014,1,8,0:0:0:0:
287,25,17139,1,8,0:0:0:0:
158,81,17264,1,8,0:0:0:0:
218,216,17389,6,0,P|168:272|96:270,1,140,2|0,0:0|0:0,0:0:0:0:
49,144,17764,2,0,P|90:154|124:187,1,70,8|0,0:0|0:0,0:0:0:0:
243,330,18014,2,0,P|205:307|185:281,1,70
253,152,18264,1,8,0:0:0:0:
418,316,18389,6,0,L|362:176,1,140,2|0,0:0|0:0,0:0:0:0:
441,121,18764,2,0,L|482:201,1,70,8|0,0:0|0:0,0:0:0:0:
319,311,19014,2,0,L|290:246,1,70
484,285,19264,1,8,0:0:0:0:
311,115,19514,6,0,L|367:157,1,70
163,112,19764,2,0,L|223:49,1,70,8|0,0:0|0:0,0:0:0:0:
140,253,20014,2,0,L|66:196,1,70
240,137,20264,1,8,0:0:0:0:
314,315,20389,2,0,P|345:292|362:246,1,70
405,101,20639,6,0,P|371:141|366:170,1,70
290,244,20889,1,8,0:0:0:0:
173,147,21014,2,0,P|219:133|246:138,1,70
100,261,21264,2,0,P|67:246|47:208,2,70,8|0|0,0:0|0:0|0:0,0:0:0:0:
373,259,21764,5,8,0:0:0:0:
280,109,22014,1,0,0:0:0:0:
110,154,22264,2,0,L|96:36,1,112,8|0,0:0|0:0,0:0:0:0:
199,261,22764,6,0,L|176:374,1,112,8|0,0:0|0:0,0:0:0:0:
310,160,23264,2,0,L|426:195,1,112,8|0,0:0|0:0,0:0:0:0:
163,190,23764,2,0,L|41:163,1,112,8|0,0:0|0:0,0:0:0:0:
324,356,24264,2,0,L|349:227,1,112,8|0,0:0|0:0,0:0:0:0:
386,56,24764,5,8,0:0:0:0:
244,190,25014,1,0,0:0:0:0:
423,290,25264,2,0,P|451:231|424:170,1,112,8|0,0:0|0:0,0:0:0:0:
386,56,25764,6,0,B|287:70|287:70|270:82,1,112,8|0,0:0|0:0,0:0:0:0:
127,340,26264,2,0,B|224:325|224:325|230:313,1,112,8|0,0:0|0:0,0:0:0:0:
306,181,26764,2,0,B|299:192|299:192|202:207,1,112,8|0,0:0|0:0,0:0:0:0:
83,33,27264,1,8,0:0:0:0:
57,181,27514,6,0,L|63:257,1,62.9999980773926
164,230,27764,2,0,L|171:303,1,62.9999980773926,8|0,0:0|0:0,0:0:0:0:
282,265,28014,2,0,L|290:338,1,62.9999980773926
449,318,28264,2,0,P|408:303|384:284,1,62.9999980773926,8|0,0:0|0:0,0:0:0:0:
450,201,28514,5,0,0:0:0:0:
350,216,28639,2,0,L|344:140,1,62.9999980773926
244,54,28889,2,0,L|250:116,1,62.9999980773926,8|0,0:0|0:0,0:0:0:0:
164,230,29139,2,0,L|157:167,1,62.9999980773926,0|8,0:0|0:0,0:0:0:0:
50,40,29389,2,0,P|91:50|121:78,1,62.9999980773926,0|4,0:0|0:0,0:0:0:0:
431,50,29764,5,8,0:0:0:0:
306,180,30014,1,0,0:0:0:0:
408,329,30264,2,0,L|504:259,1,112,8|0,0:0|0:0,0:0:0:0:
253,280,30764,6,0,L|154:345,1,112,8|0,0:0|0:0,0:0:0:0:
338,210,31264,2,0,P|396:222|442:260,1,112,8|0,0:0|0:0,0:0:0:0:
180,211,31764,2,0,P|141:196|91:147,1,112,8|0,0:0|0:0,0:0:0:0:
259,130,32264,2,0,L|352:68,1,112,8|0,0:0|0:0,0:0:0:0:
160,85,32764,5,8,0:0:0:0:
257,206,33014,1,0,0:0:0:0:
151,337,33264,2,0,P|117:287|127:239,1,112,8|0,0:0|0:0,0:0:0:0:
361,47,33764,2,0,P|395:97|385:145,1,112,8|0,0:0|0:0,0:0:0:0:
198,233,34264,5,8,0:0:0:0:
370,322,34514,1,0,0:0:0:0:
136,146,34764,1,8,0:0:0:0:
251,343,35014,1,0,0:0:0:0:
440,188,35264,1,8,0:0:0:0:
465,297,35514,6,0,L|396:329,1,62.9999980773926
211,300,35764,2,0,L|269:275,1,62.9999980773926,8|0,0:0|0:0,0:0:0:0:
357,143,36014,2,0,L|289:172,1,62.9999980773926
171,211,36264,2,0,P|204:239|232:250,1,62.9999980773926,8|0,0:0|0:0,0:0:0:0:
357,225,36514,5,0,0:0:0:0:
255,106,36639,2,0,L|195:131,1,62.9999980773926
28,206,36889,2,0,P|21:145|66:104,1,125.999996154785,8|0,0:0|0:0,0:0:0:0:
201,52,37264,1,8,0:0:0:0:
322,356,37514,6,0,L|278:283,1,70,8|0,0:0|0:0,0:0:0:0:
160,334,38014,2,0,L|118:266,1,70,8|0,0:0|0:0,0:0:0:0:
46,157,38514,6,0,L|69:197,1,35,8|0,0:0|0:0,0:0:0:0:
103,93,38764,2,0,L|85:64,1,35
186,92,39014,2,0,L|211:128,1,35,8|0,0:0|0:0,0:0:0:0:
263,56,39264,2,0,L|245:27,1,35
354,193,39514,6,0,L|297:240,1,70,8|0,0:0|0:0,0:0:0:0:
121,169,40014,2,0,L|172:222,1,70,8|0,0:0|0:0,0:0:0:0:
343,84,40514,6,0,L|368:116,1,35,8|0,0:0|0:0,0:0:0:0:
426,184,40764,2,0,L|456:222,1,35
316,251,41014,2,0,L|289:214,1,35,8|0,0:0|0:0,0:0:0:0:
226,120,41264,2,0,L|204:89,1,35
105,179,41514,6,0,L|47:206,1,62.9999980773926
160,256,41764,2,0,L|221:226,1,62.9999980773926,8|0,0:0|0:0,0:0:0:0:
351,252,42014,2,0,L|293:279,1,62.9999980773926
367,337,42264,1,8,0:0:0:0:
440,195,42389,2,0,P|391:160|325:162,1,125.999996154785
118,172,42889,1,8,0:0:0:0:
173,272,43014,2,0,P|210:239|224:199,1,62.9999980773926
173,81,43264,2,0,P|154:45|157:11,1,62.9999980773926,8|0,0:0|0:0,0:0:0:0:
282,46,43514,6,0,L|260:109,1,62.9999980773926
411,92,43764,2,0,L|433:170,1,62.9999980773926,8|0,0:0|0:0,0:0:0:0:
332,204,44014,2,0,L|310:267,1,62.9999980773926
447,230,44264,1,8,0:0:0:0:
479,354,44389,2,0,P|419:354|348:301,1,125.999996154785
143,198,44889,1,8,0:0:0:0:
76,312,45014,2,0,P|44:280|29:246,1,62.9999980773926
201,146,45264,2,0,P|218:181|217:214,1,62.9999980773926,8|0,0:0|0:0,0:0:0:0:
181,346,45514,6,0,L|163:283,1,62.9999980773926
50,128,45764,2,0,L|72:201,1,62.9999980773926,8|0,0:0|0:0,0:0:0:0:
248,275,46014,2,0,P|285:238|289:200,1,62.9999980773926
341,113,46264,1,8,0:0:0:0:
222,59,46389,2,0,P|190:59|132:146,1,125.999996154785
342,292,46889,1,8,0:0:0:0:
235,177,47014,2,0,P|209:207|208:240,1,62.9999980773926
457,218,47264,2,0,P|451:176|384:196,1,125.999996154785
264,22,47764,5,0,0:0:0:0:
95,56,48014,1,0,0:0:0:0:
198,213,48264,1,0,0:0:0:0:
93,176,48389,1,0,0:0:0:0:
321,210,48639,1,0,0:0:0:0:
361,299,48764,1,0,0:0:0:0:
288,245,48889,1,0,0:0:0:0:
323,323,49014,1,0,0:0:0:0:
147,350,49264,1,0,0:0:0:0:
445,176,49514,6,0,P|413:158|369:155,1,70,2|0,0:0|0:0,0:0:0:0:
233,206,49764,2,0,P|266:229|299:232,1,70,8|0,0:0|0:0,0:0:0:0:
238,103,50014,1,0,0:0:0:0:
104,166,50139,2,0,L|124:248,1,70,0|8,0:0|0:0,0:0:0:0:
264,323,50389,6,0,P|307:318|380:244,1,140,2|0,0:0|0:0,0:0:0:0:
332,83,50764,2,0,L|262:128,1,70,8|0,0:0|0:0,0:0:0:0:
288,244,51014,1,0,0:0:0:0:
455,250,51139,2,0,P|455:211|430:164,1,70,0|8,0:0|0:0,0:0:0:0:
417,58,51389,6,0,L|266:19,1,140,2|0,0:0|0:0,0:0:0:0:
172,189,51764,2,0,P|216:169|233:141,1,70,8|0,0:0|0:0,0:0:0:0:
99,61,52014,1,0,0:0:0:0:
29,190,52139,2,0,P|40:237|55:253,1,70,0|8,0:0|0:0,0:0:0:0:
271,310,52389,6,0,L|231:229,1,70,2|0,0:0|0:0,0:0:0:0:
125,133,52639,2,0,P|103:175|103:204,2,70,0|8|0,0:0|0:0|0:0,0:0:0:0:
336,144,53014,2,0,P|349:210|304:259,1,140,0|8,0:0|0:0,0:0:0:0:
175,189,53389,1,0,0:0:0:0:
277,55,53514,1,0,0:0:0:0:
27,325,53764,6,0,L|101:320,1,70,8|0,0:0|0:0,0:0:0:0:
175,189,54014,2,0,L|89:197,1,70
15,80,54264,2,0,L|105:78,1,70,8|0,0:0|0:0,0:0:0:0:
314,65,54514,2,0,P|295:108|265:133,1,70
389,220,54764,2,0,P|404:256|434:277,1,70,8|0,0:0|0:0,0:0:0:0:
312,347,55014,2,0,P|271:319|246:281,1,70
122,181,55264,2,0,L|189:198,1,70,8|0,0:0|0:0,0:0:0:0:
330,63,55514,6,0,L|306:152,1,70
391,304,55764,2,0,L|411:214,1,70,8|0,0:0|0:0,0:0:0:0:
436,113,56014,1,0,0:0:0:0:
295,259,56139,2,0,P|258:242|228:203,1,70,0|8,0:0|0:0,0:0:0:0:
187,71,56389,2,0,P|139:95|107:189,1,140
209,301,56764,1,8,0:0:0:0:
103,245,56889,1,8,0:0:0:0:
185,157,57014,1,8,0:0:0:0:
0,29,57264,1,8,0:0:0:0:
50,296,57514,6,0,P|82:314|126:317,1,70,2|0,0:0|0:0,0:0:0:0:
246,183,57764,2,0,P|213:160|180:157,1,70,8|0,0:0|0:0,0:0:0:0:
334,276,58014,1,0,0:0:0:0:
370,151,58139,2,0,L|322:70,1,70,0|8,0:0|0:0,0:0:0:0:
212,57,58389,6,0,P|169:62|96:136,1,140,2|0,0:0|0:0,0:0:0:0:
180,301,58764,2,0,L|250:256,1,70,8|0,0:0|0:0,0:0:0:0:
178,139,59014,1,0,0:0:0:0:
26,153,59139,2,0,P|26:192|51:239,1,70,0|8,0:0|0:0,0:0:0:0:
104,314,59389,6,0,L|255:353,1,140,2|0,0:0|0:0,0:0:0:0:
340,195,59764,2,0,P|296:215|279:243,1,70,8|0,0:0|0:0,0:0:0:0:
443,341,60014,1,0,0:0:0:0:
492,165,60139,2,0,P|449:127|430:124,1,70,0|8,0:0|0:0,0:0:0:0:
298,102,60389,6,0,L|239:140,1,70,2|0,0:0|0:0,0:0:0:0:
484,57,60639,2,0,P|441:21|353:52,1,140
249,215,61014,2,0,P|185:195|168:114,1,140,0|8,0:0|0:0,0:0:0:0:
415,102,61389,2,0,P|417:137|395:163,1,70,0|8,0:0|0:0,0:0:0:0:
145,60,61764,6,0,L|67:90,1,70,8|0,0:0|0:0,0:0:0:0:
92,187,62014,2,0,L|35:244,1,70
161,293,62264,2,0,L|157:365,1,70,8|0,0:0|0:0,0:0:0:0:
288,151,62514,2,0,L|202:136,1,70
381,271,62764,2,0,L|469:289,1,70,8|0,0:0|0:0,0:0:0:0:
470,173,63014,2,0,L|383:161,1,70
205,240,63264,2,0,L|288:256,1,70,8|0,0:0|0:0,0:0:0:0:
274,81,63514,6,0,P|239:91|207:117,1,70
329,202,63764,2,0,P|291:173|258:159,1,70,8|0,0:0|0:0,0:0:0:0:
79,257,64014,2,0,P|115:222|147:209,1,70
253,237,64264,1,8,0:0:0:0:
177,118,64389,1,0,0:0:0:0:
49,56,64514,6,0,P|20:91|10:132,1,70
7,247,64764,1,0,0:0:0:0:
103,158,64889,1,8,0:0:0:0:
187,260,65014,2,0,P|233:241|268:144,1,140,0|8,0:0|0:0,0:0:0:0:
480,35,65514,6,0,L|389:38,1,70
267,97,65764,2,0,P|234:112|207:152,1,70,8|0,0:0|0:0,0:0:0:0:
421,251,66014,2,0,P|426:203|421:179,1,70
276,169,66264,1,8,0:0:0:0:
365,351,66389,1,0,0:0:0:0:
498,122,66639,5,0,0:0:0:0:
276,170,66889,1,0,0:0:0:0:
181,221,67014,1,8,0:0:0:0:
409,243,67264,1,8,0:0:0:0:
298,29,67514,1,10,0:0:0:0:
165,81,73514,6,0,P|131:91|103:124,1,70
235,216,73764,2,0,P|264:192|278:154,1,70,8|0,0:0|0:0,0:0:0:0:
102,306,74014,2,0,P|125:342|153:351,1,70
292,273,74264,1,8,0:0:0:0:
181,153,74389,2,0,L|129:216,1,70
403,235,74639,6,0,L|361:167,1,70
385,342,74889,1,8,0:0:0:0:
481,254,75014,2,0,P|480:209|454:164,1,70
244,282,75264,2,0,P|272:315|307:333,1,70,8|0,0:0|0:0,0:0:0:0:
366,175,75514,1,0,0:0:0:0:
121,47,75764,6,0,L|104:160,1,105.000004005432,8|0,0:0|0:0,0:0:0:0:
281,161,76264,2,0,L|266:267,1,105.000004005432,8|0,0:0|0:0,0:0:0:0:
141,335,76764,2,0,P|121:306|123:231,1,105.000004005432,8|0,0:0|0:0,0:0:0:0:
356,178,77264,2,0,P|346:116|310:84,1,105.000004005432,8|0,0:0|0:0,0:0:0:0:
400,341,77764,6,0,B|452:323|452:323|491:272,1,105.000004005432,8|0,0:0|0:0,0:0:0:0:
280,155,78264,2,0,B|296:200|296:200|287:266,1,105.000004005432,8|0,0:0|0:0,0:0:0:0:
138,105,78764,2,0,P|101:147|49:158,1,105.000004005432,8|0,0:0|0:0,0:0:0:0:
222,296,79264,2,0,P|262:327|314:326,1,105.000004005432,8|0,0:0|0:0,0:0:0:0:
344,105,79764,6,0,L|229:145,1,105.000004005432,8|0,0:0|0:0,0:0:0:0:
454,321,80264,1,8,0:0:0:0:
288,256,80514,1,0,0:0:0:0:
437,57,80764,1,8,0:0:0:0:
390,149,80889,1,0,0:0:0:0:
482,203,81014,1,0,0:0:0:0:
260,343,81264,1,8,0:0:0:0:
147,47,81514,6,0,L|216:75,1,59.5000011348725
70,101,81764,1,8,0:0:0:0:
12,187,81889,1,0,0:0:0:0:
79,253,82014,2,0,L|150:285,1,59.5000011348725
265,187,82264,1,8,0:0:0:0:
179,138,82389,2,0,P|148:158|132:188,1,59.5000011348725
319,129,82639,6,0,L|263:108,1,59.5000011348725
166,67,82889,1,8,0:0:0:0:
252,213,83014,1,0,0:0:0:0:
395,140,83139,1,0,0:0:0:0:
321,13,83264,2,0,P|288:36|264:117,1,119.000002269745,8|0,0:0|0:0,0:0:0:0:
452,331,83764,6,0,L|469:218,1,105.000004005432,8|0,0:0|0:0,0:0:0:0:
231,223,84264,2,0,L|246:117,1,105.000004005432,8|0,0:0|0:0,0:0:0:0:
371,49,84764,2,0,P|391:78|389:153,1,105.000004005432,8|0,0:0|0:0,0:0:0:0:
156,206,85264,2,0,P|166:268|202:300,1,105.000004005432,8|0,0:0|0:0,0:0:0:0:
112,43,85764,6,0,B|60:61|60:61|21:112,1,105.000004005432,8|0,0:0|0:0,0:0:0:0:
232,229,86264,2,0,B|216:184|216:184|225:118,1,105.000004005432,8|0,0:0|0:0,0:0:0:0:
374,279,86764,2,0,P|411:237|463:226,1,105.000004005432,8|0,0:0|0:0,0:0:0:0:
290,88,87264,2,0,P|250:57|198:58,1,105.000004005432,8|0,0:0|0:0,0:0:0:0:
168,279,87764,6,0,L|283:239,1,105.000004005432,8|0,0:0|0:0,0:0:0:0:
58,63,88264,1,8,0:0:0:0:
230,154,88514,1,0,0:0:0:0:
140,299,88764,1,8,0:0:0:0:
116,204,88889,1,8,0:0:0:0:
46,261,89014,1,8,0:0:0:0:
202,250,89139,1,8,0:0:0:0:
31,161,89264,1,8,0:0:0:0:
365,337,89514,6,0,L|296:309,1,59.5000011348725
447,272,89764,1,8,0:0:0:0:
500,197,89889,1,0,0:0:0:0:
433,131,90014,2,0,L|362:99,1,59.5000011348725
241,202,90264,1,8,0:0:0:0:
376,251,90389,2,0,P|407:231|423:201,1,59.5000011348725
248,119,90639,6,0,L|192:139,1,59.5000011348725
335,177,90889,1,8,0:0:0:0:
230,42,91014,1,0,0:0:0:0:
119,153,91139,1,0,0:0:0:0:
182,297,91264,2,0,P|215:274|239:193,1,119.000002269745,8|0,0:0|0:0,0:0:0:0:
373,70,91764,5,0,0:0:0:0:
446,225,92014,1,8,0:0:0:0:
311,123,92264,1,0,0:0:0:0:
376,304,92514,1,8,0:0:0:0:
243,346,92639,6,0,L|195:337,1,35
296,277,92889,1,0,0:0:0:0:
214,250,93014,2,0,L|175:226,1,35
135,103,93264,2,0,L|167:132,1,35
262,188,93514,5,8,0:0:0:0:
40,184,93764,1,0,0:0:0:0:
296,277,94014,1,8,0:0:0:0:
200,62,94264,1,0,0:0:0:0:
456,147,94514,5,8,0:0:0:0:
456,147,94639,2,0,L|431:189,1,35
351,176,94889,1,0,0:0:0:0:
415,280,95014,2,0,L|401:249,1,35,8|0,0:0|0:0,0:0:0:0:
313,309,95264,2,0,L|329:341,1,35
215,254,95514,6,0,P|179:270|164:292,1,62.9999980773926
88,350,95764,2,0,P|60:332|42:301,1,62.9999980773926,8|0,0:0|0:0,0:0:0:0:
4,137,96014,2,0,L|56:175,1,62.9999980773926
191,163,96264,1,8,0:0:0:0:
260,44,96389,2,0,P|199:43|154:88,1,125.999996154785
45,304,96889,1,8,0:0:0:0:
208,245,97014,2,0,L|134:232,1,62.9999980773926
264,346,97264,2,0,L|319:309,1,62.9999980773926,8|0,0:0|0:0,0:0:0:0:
420,180,97514,6,0,L|442:243,1,62.9999980773926
291,110,97764,2,0,L|277:181,1,62.9999980773926,8|0,0:0|0:0,0:0:0:0:
387,82,98014,2,0,P|430:72|450:56,1,62.9999980773926
268,30,98264,1,8,0:0:0:0:
199,151,98389,2,0,P|201:204|268:247,1,125.999996154785
445,62,98889,1,8,0:0:0:0:
364,205,99014,2,0,P|401:195|424:175,1,62.9999980773926
306,51,99264,2,0,L|230:80,1,62.9999980773926,8|0,0:0|0:0,0:0:0:0:
108,134,99514,6,0,P|146:152|165:183,1,62.9999980773926
118,333,99764,2,0,P|87:332|45:317,1,62.9999980773926,8|0,0:0|0:0,0:0:0:0:
255,245,100014,2,0,P|246:280|230:301,1,62.9999980773926
102,217,100264,1,8,0:0:0:0:
222,112,100389,1,0,0:0:0:0:
356,203,100514,1,0,0:0:0:0:
356,203,100639,2,0,L|414:172,1,62.9999980773926
333,290,100889,1,8,0:0:0:0:
467,328,101014,2,0,P|479:285|469:257,1,62.9999980773926
269,253,101264,2,0,P|257:296|308:360,1,125.999996154785
264,22,101764,5,0,0:0:0:0:
95,56,102014,1,0,0:0:0:0:
175,214,102264,1,0,0:0:0:0:
79,165,102389,1,0,0:0:0:0:
2,330,102639,1,0,0:0:0:0:
61,271,102764,1,0,0:0:0:0:
76,358,102889,1,0,0:0:0:0:
135,299,103014,1,0,0:0:0:0:
371,343,103264,1,0,0:0:0:0:
340,52,103514,6,0,P|300:64|277:96,1,70,2|0,0:0|0:0,0:0:0:0:
406,227,103764,2,0,P|422:192|414:160,1,70,8|0,0:0|0:0,0:0:0:0:
224,244,104014,2,0,L|271:299,1,70
431,315,104264,1,8,0:0:0:0:
271,182,104389,6,0,P|198:171|151:218,1,140,2|0,0:0|0:0,0:0:0:0:
331,362,104764,2,0,L|362:293,1,70,8|0,0:0|0:0,0:0:0:0:
77,276,105014,2,0,P|100:310|132:322,1,70
269,297,105264,1,8,0:0:0:0:
337,204,105389,6,0,L|191:160,1,140,2|0,0:0|0:0,0:0:0:0:
64,203,105764,2,0,L|133:236,1,70,8|0,0:0|0:0,0:0:0:0:
352,58,106014,2,0,L|282:36,1,70
148,126,106264,1,8,0:0:0:0:
274,228,106389,6,0,P|308:224|337:204,1,70,2|0,0:0|0:0,0:0:0:0:
160,317,106639,2,0,P|128:330|94:326,1,70,0|8,0:0|0:0,0:0:0:0:
27,188,106889,1,0,0:0:0:0:
167,120,107014,2,0,L|121:257,1,140,0|8,0:0|0:0,0:0:0:0:
440,149,107514,1,8,0:0:0:0:
201,316,107764,6,0,L|135:344,1,70,8|0,0:0|0:0,0:0:0:0:
289,189,108014,2,0,L|355:217,1,70
165,113,108264,2,0,L|99:141,1,70,8|0,0:0|0:0,0:0:0:0:
245,266,108514,2,0,P|290:251|314:228,1,70
268,28,108764,2,0,P|239:57|245:93,1,70,8|0,0:0|0:0,0:0:0:0:
390,161,109014,2,0,P|421:125|430:93,1,70
165,113,109264,2,0,P|153:153|165:190,1,70,8|0,0:0|0:0,0:0:0:0:
324,304,109514,6,0,L|300:215,1,70
91,210,109764,2,0,L|111:300,1,70,8|0,0:0|0:0,0:0:0:0:
259,351,110014,1,0,0:0:0:0:
295,125,110139,2,0,P|258:142|228:181,1,70,0|8,0:0|0:0,0:0:0:0:
377,256,110389,2,0,P|418:222|421:138,1,140,0|4,0:0|0:0,0:0:0:0:
318,43,110764,1,8,0:0:0:0:
305,236,110889,1,8,0:0:0:0:
165,113,111014,1,8,0:0:0:0:
438,349,111264,1,0,0:0:0:0:
157,333,111514,6,0,P|117:321|94:289,1,70,2|0,0:0|0:0,0:0:0:0:
223,158,111764,2,0,P|239:193|231:225,1,70,8|0,0:0|0:0,0:0:0:0:
41,141,112014,2,0,L|88:86,1,70
248,70,112264,1,8,0:0:0:0:
283,284,112389,6,0,P|210:295|163:248,1,140,2|0,0:0|0:0,0:0:0:0:
343,104,112764,2,0,L|374:173,1,70,8|0,0:0|0:0,0:0:0:0:
89,190,113014,2,0,P|112:156|144:144,1,70
281,169,113264,1,8,0:0:0:0:
358,320,113389,6,0,L|212:364,1,140,2|0,0:0|0:0,0:0:0:0:
57,288,113764,2,0,L|126:255,1,70,8|0,0:0|0:0,0:0:0:0:
280,169,114014,2,0,P|328:182|360:214,1,70
260,277,114264,1,8,0:0:0:0:
71,136,114389,2,0,B|124:104|167:155|209:115,1,140
288,64,114764,5,8,0:0:0:0:
432,112,114889,1,8,0:0:0:0:
333,200,115014,1,8,0:0:0:0:
386,35,115139,1,8,0:0:0:0:
465,181,115264,1,8,0:0:0:0:
264,168,115389,2,0,P|250:133|248:96,1,70
473,343,115764,6,0,L|425:283,1,70,8|0,0:0|0:0,0:0:0:0:
459,187,116014,2,0,L|388:162,1,70
411,53,116264,2,0,L|331:77,1,70,8|0,0:0|0:0,0:0:0:0:
160,138,116514,2,0,L|215:210,1,70
249,57,116764,2,0,L|174:16,1,70,8|0,0:0|0:0,0:0:0:0:
211,289,117014,2,0,L|297:241,1,70
103,83,117264,2,0,L|62:160,1,70,8|0,0:0|0:0,0:0:0:0:
149,332,117514,6,0,P|177:352|211:362,1,70
334,217,117764,2,0,P|296:246|263:260,1,70,8|0,0:0|0:0,0:0:0:0:
70,144,118014,2,0,P|106:179|138:192,1,70
247,120,118264,1,8,0:0:0:0:
207,278,118389,1,0,0:0:0:0:
373,286,118514,6,0,P|402:251|412:210,1,70
381,49,118764,1,0,0:0:0:0:
509,185,118889,1,8,0:0:0:0:
331,217,119014,2,0,P|285:198|250:101,1,140,0|8,0:0|0:0,0:0:0:0:
486,24,119514,6,0,L|395:21,1,70,2|0,0:0|0:0,0:0:0:0:
331,217,119764,2,0,P|364:202|391:162,1,70,8|0,0:0|0:0,0:0:0:0:
247,51,120014,2,0,P|242:99|247:123,1,70
400,264,120264,1,8,0:0:0:0:
502,97,120389,1,0,0:0:0:0:
179,28,120639,5,0,0:0:0:0:
24,220,120889,1,0,0:0:0:0:
119,294,121014,1,0,0:0:0:0:
332,121,121264,1,8,0:0:0:0:
498,271,121514,1,4,0:0:0:0:
231,328,121764,6,0,L|166:363,1,70
256,192,122264,1,0,0:0:0:0:
135,277,122514,6,0,L|58:312,1,70
256,192,123014,1,0,0:0:0:0:
64,216,123264,6,0,L|-10:257,1,70
256,192,123764,1,0,0:0:0:0:
14,126,124014,6,0,L|78:99,1,70
256,192,124514,1,0,0:0:0:0:
347,290,124764,5,0,0:0:0:0:
221,332,125014,1,0,0:0:0:0:
256,120,125264,1,0,0:0:0:0:
440,224,125514,5,0,0:0:0:0:
351,323,125764,1,0,0:0:0:0:
256,120,126014,1,0,0:0:0:0:
464,128,126264,5,0,0:0:0:0:
437,258,126514,1,0,0:0:0:0:
256,120,126764,1,0,0:0:0:0:
384,40,127014,5,0,0:0:0:0:
488,200,127264,1,0,0:0:0:0:
256,120,127514,6,0,B|205:164|257:207|206:259|192:232,1,140
200,352,128264,2,0,B|257:357|313:272|298:259,1,140
488,184,129014,2,0,B|413:120|392:200|352:152,1,140
199,223,129764,5,0,0:0:0:0:
234,118,130014,1,0,0:0:0:0:
146,60,130264,1,0,0:0:0:0:
87,153,130514,6,0,P|110:194|90:281,1,140
242,332,131264,2,0,P|285:316|304:222,1,140
416,158,132014,2,0,P|375:127|286:115,1,140
112,216,132764,2,0,P|153:247|242:259,1,140
468,138,133514,6,0,P|423:85|359:60,1,140
245,149,134264,2,0,P|208:164|134:245,1,140
343,333,135014,2,0,B|424:320|465:264,1,140
339,137,135764,1,0,0:0:0:0:
206,175,136014,1,0,0:0:0:0:
83,83,136264,1,0,0:0:0:0:
41,209,136514,6,0,B|86:249|38:285|91:343,1,140
328,199,137264,2,0,P|280:199|211:259,1,140
481,199,138014,2,0,B|436:159|484:123|431:65,1,140
276,61,138764,2,0,P|227:61|182:87,1,96.25
180,162,139514,6,0,L|100:150,1,70,8|0,0:0|0:0,0:0:0:0:
36,268,139764,2,0,L|114:279,1,70,0|8,0:0|0:0,0:0:0:0:
234,245,140014,1,0,0:0:0:0:
141,364,140139,1,8,0:0:0:0:
296,345,140264,2,0,P|340:329|398:257,1,140,10|0,0:0|0:0,0:0:0:0:
351,69,140639,5,8,0:0:0:0:
311,258,140764,1,0,0:0:0:0:
358,84,140889,1,0,0:0:0:0:
470,224,141014,2,0,P|485:153|452:88,1,140,10|0,0:0|0:0,0:0:0:0:
249,136,141389,1,8,0:0:0:0:
390,174,141514,5,0,0:0:0:0:
277,39,141639,1,8,0:0:0:0:
169,147,141764,2,0,P|192:186|288:211,1,140,2|0,0:0|0:0,0:0:0:0:
326,40,142139,1,8,0:0:0:0:
154,53,142264,1,0,0:0:0:0:
345,80,142389,1,0,0:0:0:0:
120,82,142514,6,0,P|87:115|109:200,1,140,2|0,0:0|0:0,0:0:0:0:
205,342,142889,1,8,0:0:0:0:
256,208,143014,1,0,0:0:0:0:
86,289,143139,1,8,0:0:0:0:
272,282,143264,2,0,P|317:256|323:170,1,140,2|8,0:0|0:0,0:0:0:0:
288,38,143639,5,8,0:0:0:0:
400,96,143764,2,0,B|425:132|409:162|429:190,1,70
200,148,144014,2,0,B|175:184|191:214|171:242,1,70,8|0,0:0|0:0,0:0:0:0:
238,301,144264,1,0,0:0:0:0:
319,347,144389,1,8,0:0:0:0:
408,322,144514,1,0,0:0:0:0:
466,255,144639,1,8,0:0:0:0:
349,103,144764,5,8,0:0:0:0:
308,272,144889,1,8,0:0:0:0:
486,176,145014,1,8,0:0:0:0:
255,199,145139,1,8,0:0:0:0:
317,40,145264,1,8,0:0:0:0:
478,81,145389,1,8,0:0:0:0:
355,214,145514,6,0,P|298:174|273:105,1,140,2|0,0:0|0:0,0:0:0:0:
194,37,145889,1,8,0:0:0:0:
103,134,146014,1,0,0:0:0:0:
227,191,146139,1,8,0:0:0:0:
101,57,146264,2,0,P|62:76|26:163,1,140,10|0,0:0|0:0,0:0:0:0:
146,319,146639,5,8,0:0:0:0:
186,143,146764,1,0,0:0:0:0:
18,232,146889,1,0,0:0:0:0:
222,294,147014,2,0,P|165:246|88:256,1,140,10|0,0:0|0:0,0:0:0:0:
44,316,147389,1,8,0:0:0:0:
61,171,147514,1,8,0:0:0:0:
191,121,147639,1,8,0:0:0:0:
290,217,147764,6,0,B|354:233|353:283|428:264,1,140
222,294,148139,1,8,0:0:0:0:
131,189,148264,2,0,L|101:151,1,35,0|8,0:0|0:0,0:0:0:0:
191,121,148389,2,0,L|215:158,1,35,8|8,0:0|0:0,0:0:0:0:
289,139,148514,6,0,B|353:123|352:73|427:92,1,140,2|2,0:0|0:0,0:0:0:0:
484,184,148889,1,8,0:0:0:0:
303,239,149014,1,0,0:0:0:0:
455,326,149139,1,8,0:0:0:0:
382,171,149264,2,0,P|350:114|329:95,1,70,10|0,0:0|0:0,0:0:0:0:
149,83,149514,1,8,0:0:0:0:
302,168,149639,1,8,0:0:0:0:
424,83,149764,6,0,P|374:42|303:49,1,140,0|8,0:0|0:0,0:0:0:0:
74,138,150264,1,8,0:0:0:0:
270,332,150514,1,8,0:0:0:0:
448,108,150764,2,0,B|421:94|346:128|380:208|380:208|294:170,1,245,10|0,0:0|0:0,0:0:0:0:
225,109,151764,5,0,0:0:0:0:
171,177,152014,1,0,0:0:0:0:
241,239,152264,2,0,L|280:263,1,35
348,292,152514,1,8,0:0:0:0:
459,153,152764,6,0,L|481:83,1,70
341,100,153014,2,0,L|285:49,1,70,8|0,0:0|0:0,0:0:0:0:
206,135,153264,2,0,L|125:160,1,70
250,251,153514,1,8,0:0:0:0:
68,221,153639,2,0,P|45:256|66:352,1,140
320,312,154139,1,8,0:0:0:0:
208,136,154264,2,0,P|227:103|323:91,1,140,0|8,0:0|0:0,0:0:0:0:
459,231,154764,6,0,L|481:301,1,70
341,284,155014,2,0,L|285:335,1,70,8|0,0:0|0:0,0:0:0:0:
206,249,155264,2,0,L|125:224,1,70
250,133,155514,1,8,0:0:0:0:
448,128,155639,2,0,P|403:76|335:69,1,140
206,249,156139,1,8,0:0:0:0:
80,112,156264,2,0,P|79:73|157:15,1,140,0|8,0:0|0:0,0:0:0:0:
56,264,156764,6,0,L|32:344,1,70
224,272,157014,2,0,L|248:352,1,70,8|0,0:0|0:0,0:0:0:0:
360,184,157264,2,0,L|416:248,1,70
312,56,157514,1,8,0:0:0:0:
240,160,157639,2,0,P|184:152|152:120,1,70
56,64,157889,2,0,P|96:56|128:64,1,70
16,168,158139,1,8,0:0:0:0:
64,280,158264,2,0,L|144:248,1,70
288,216,158514,2,0,P|256:248|320:264,1,140
59,285,160764,6,0,P|91:303|135:306,1,70,2|0,0:0|0:0,0:0:0:0:
279,178,161014,2,0,P|246:155|213:152,1,70,8|0,0:0|0:0,0:0:0:0:
274,281,161264,1,0,0:0:0:0:
396,200,161389,1,0,0:0:0:0:
363,72,161514,1,8,0:0:0:0:
249,25,161639,6,0,P|206:30|133:104,1,140,2|0,0:0|0:0,0:0:0:0:
244,240,162014,2,0,L|314:195,1,70,8|0,0:0|0:0,0:0:0:0:
160,169,162264,1,0,0:0:0:0:
47,259,162389,1,0,0:0:0:0:
145,362,162514,1,8,0:0:0:0:
284,325,162639,6,0,P|319:267|293:191,1,140,2|0,0:0|0:0,0:0:0:0:
160,105,163014,2,0,P|185:137|219:144,1,70,8|0,0:0|0:0,0:0:0:0:
305,69,163264,1,0,0:0:0:0:
82,37,163389,1,0,0:0:0:0:
107,240,163514,1,8,0:0:0:0:
320,280,163639,6,0,P|381:259|429:191,1,140,2|0,0:0|0:0,0:0:0:0:
315,52,164014,1,8,0:0:0:0:
224,243,164139,1,0,0:0:0:0:
490,241,164264,2,0,P|496:181|417:121,1,140,0|8,0:0|0:0,0:0:0:0:
255,177,164639,1,0,0:0:0:0:
362,351,164764,1,0,0:0:0:0:
471,49,165014,6,0,L|397:54,1,70,8|0,0:0|0:0,0:0:0:0:
322,185,165264,2,0,L|408:177,1,70
497,304,165514,2,0,L|407:306,1,70,8|0,0:0|0:0,0:0:0:0:
228,335,165764,2,0,P|194:308|186:268,1,70
359,130,166014,2,0,P|343:169|314:187,1,70,8|0,0:0|0:0,0:0:0:0:
170,71,166264,2,0,P|202:43|231:41,1,70
47,218,166514,2,0,P|13:191|4:158,1,70,8|0,0:0|0:0,0:0:0:0:
198,319,166764,6,0,L|222:230,1,70
97,68,167014,2,0,L|77:158,1,70,8|0,0:0|0:0,0:0:0:0:
138,250,167264,1,0,0:0:0:0:
323,229,167389,1,0,0:0:0:0:
215,141,167514,1,8,0:0:0:0:
325,313,167639,2,0,P|373:289|405:195,1,140
283,59,168014,1,8,0:0:0:0:
323,229,168139,1,8,0:0:0:0:
487,124,168264,1,8,0:0:0:0:
162,328,168514,1,8,0:0:0:0:
487,124,168764,6,0,P|455:106|411:103,1,70,2|0,0:0|0:0,0:0:0:0:
261,202,169014,2,0,P|294:225|327:228,1,70,8|0,0:0|0:0,0:0:0:0:
255,87,169264,1,0,0:0:0:0:
122,163,169389,1,0,0:0:0:0:
135,290,169514,1,8,0:0:0:0:
264,323,169639,6,0,P|307:318|380:244,1,140,2|0,0:0|0:0,0:0:0:0:
332,83,170014,2,0,L|262:128,1,70,8|0,0:0|0:0,0:0:0:0:
288,244,170264,1,0,0:0:0:0:
440,292,170389,1,0,0:0:0:0:
512,156,170514,1,8,0:0:0:0:
417,58,170639,6,0,L|266:19,1,140,2|0,0:0|0:0,0:0:0:0:
172,189,171014,2,0,P|216:169|233:141,1,70,8|0,0:0|0:0,0:0:0:0:
93,55,171264,1,0,0:0:0:0:
166,277,171389,1,0,0:0:0:0:
321,113,171514,1,8,0:0:0:0:
97,129,171639,6,0,P|66:153|78:252,1,140,2|0,0:0|0:0,0:0:0:0:
251,332,172014,1,8,0:0:0:0:
321,113,172139,1,0,0:0:0:0:
466,278,172264,2,0,P|423:296|330:275,1,140,0|8,0:0|0:0,0:0:0:0:
160,194,172639,1,0,0:0:0:0:
388,143,172764,1,0,0:0:0:0:
116,63,173014,6,0,L|20:45,1,70,8|0,0:0|0:0,0:0:0:0:
226,149,173264,2,0,L|322:167,1,70
154,298,173514,2,0,P|121:289|98:264,1,70,8|0,0:0|0:0,0:0:0:0:
356,219,173764,2,0,L|373:137,1,70
152,157,174014,2,0,P|167:195|191:214,1,70,8|0,0:0|0:0,0:0:0:0:
385,82,174264,2,0,P|346:81|314:110,1,70
379,290,174514,2,0,P|421:264|436:231,1,70,8|0,0:0|0:0,0:0:0:0:
236,92,174764,6,0,L|259:171,1,70
172,329,175014,2,0,L|151:253,1,70,8|0,0:0|0:0,0:0:0:0:
84,118,175264,1,0,0:0:0:0:
256,230,175389,1,0,0:0:0:0:
79,312,175514,1,8,0:0:0:0:
296,121,175639,2,0,B|348:61|495:158|414:263|326:186|326:186|305:255|396:339|474:232,1,490
117,31,176764,6,0,L|18:60,1,70,2|0,0:0|0:0,0:0:0:0:
193,206,177014,2,0,P|230:180|245:146,1,70,8|0,0:0|0:0,0:0:0:0:
29,127,177264,1,0,0:0:0:0:
126,260,177389,1,0,0:0:0:0:
200,99,177514,1,8,0:0:0:0:
393,247,177639,6,0,P|353:216|311:118,1,140,2|0,0:0|0:0,0:0:0:0:
486,68,178014,2,0,P|466:103|438:131,1,70,8|0,0:0|0:0,0:0:0:0:
290,257,178264,1,0,0:0:0:0:
489,229,178389,1,0,0:0:0:0:
375,68,178514,1,8,0:0:0:0:
191,163,178639,6,0,P|134:153|95:75,1,140,2|0,0:0|0:0,0:0:0:0:
39,323,179014,2,0,P|71:302|87:262,1,70,8|0,0:0|0:0,0:0:0:0:
174,88,179264,1,0,0:0:0:0:
12,177,179389,1,0,0:0:0:0:
208,273,179514,1,8,0:0:0:0:
275,67,179639,6,0,P|229:96|235:193,1,140,2|0,0:0|0:0,0:0:0:0:
355,343,180014,1,8,0:0:0:0:
351,113,180139,1,8,0:0:0:0:
230,310,180264,1,8,0:0:0:0:
443,219,180389,1,8,0:0:0:0:
210,176,180514,1,8,0:0:0:0:
469,285,180639,2,0,P|496:268|513:232,1,70,0|4,0:0|0:0,0:0:0:0:
131,331,181014,6,0,P|100:346|59:335,1,70,8|0,0:0|0:0,0:0:0:0:
248,223,181264,2,0,P|280:212|301:184,1,70
427,37,181514,2,0,P|424:71|394:101,1,70,8|0,0:0|0:0,0:0:0:0:
179,109,181764,2,0,L|230:156,1,70
460,219,182014,2,0,L|408:171,1,70,8|0,0:0|0:0,0:0:0:0:
83,202,182264,2,0,L|134:249,1,70
364,312,182514,2,0,L|312:264,1,70,8|0,0:0|0:0,0:0:0:0:
344,56,182764,6,0,P|309:66|277:92,1,70
144,128,183014,2,0,P|174:144|201:166,1,70,8|0,0:0|0:0,0:0:0:0:
312,264,183264,2,0,P|281:281|258:307,1,70
384,352,183514,1,8,0:0:0:0:
432,224,183639,1,0,0:0:0:0:
376,80,183764,6,0,P|347:115|337:156,1,70
456,136,184014,1,0,0:0:0:0:
320,24,184139,1,8,0:0:0:0:
190,177,184264,2,0,P|236:158|271:61,1,140,0|8,0:0|0:0,0:0:0:0:
72,368,184764,6,0,P|37:358|5:332,1,70
128,216,185014,2,0,P|161:228|185:254,1,70,8|0,0:0|0:0,0:0:0:0:
336,360,185264,2,0,P|304:336|288:296,1,70
232,176,185514,1,8,0:0:0:0:
96,288,185639,1,0,0:0:0:0:
8,136,185764,6,0,P|21:103|44:78,1,70
176,24,186014,1,0,0:0:0:0:
287,111,186139,1,8,0:0:0:0:
446,42,186264,2,0,P|400:61|365:158,1,140,0|8,0:0|0:0,0:0:0:0:
472,352,186764,6,0,P|437:342|405:316,1,70
160,296,187014,2,0,P|198:325|231:339,1,70,8|0,0:0|0:0,0:0:0:0:
344,160,187264,2,0,P|308:195|276:208,1,70
232,32,187514,1,8,0:0:0:0:
456,64,187639,1,0,0:0:0:0:
57,63,187889,6,0,P|28:98|18:139,1,70
187,219,188139,2,0,P|211:179|219:147,1,70
147,85,188389,1,8,0:0:0:0:
58,215,188514,1,8,0:0:0:0:
225,306,188639,1,8,0:0:0:0:
357,158,188764,6,0,L|259:142,1,70,2|0,0:0|0:0,0:0:0:0:
443,274,189014,2,0,L|533:260,1,70,8|0,0:0|0:0,0:0:0:0:
448,56,189264,2,0,L|359:38,1,70
242,25,189514,1,8,0:0:0:0:
112,16,189639,6,0,L|94:162,1,140,2|0,0:0|0:0,0:0:0:0:
240,304,190014,2,0,L|221:219,1,70,8|0,0:0|0:0,0:0:0:0:
10,193,190264,2,0,L|27:281,1,70
161,289,190514,1,8,0:0:0:0:
288,176,190639,6,0,P|239:118|162:117,1,140,2|0,0:0|0:0,0:0:0:0:
32,264,191014,2,0,L|69:323,1,70,8|0,0:0|0:0,0:0:0:0:
240,248,191264,2,0,L|203:187,1,70
288,368,191514,1,8,0:0:0:0:
408,328,191639,6,0,P|460:284|452:187,1,140,2|0,0:0|0:0,0:0:0:0:
363,61,192014,1,8,0:0:0:0:
248,152,192139,1,8,0:0:0:0:
384,216,192264,1,8,0:0:0:0:
336,40,192389,1,8,0:0:0:0:
216,176,192514,1,8,0:0:0:0:
416,232,192639,6,0,P|472:182|470:110,1,140,2|0,0:0|0:0,0:0:0:0:
240,48,193014,2,0,P|199:58|165:91,1,70,8|0,0:0|0:0,0:0:0:0:
304,216,193264,2,0,P|342:193|362:167,1,70
144,160,193514,1,8,0:0:0:0:
62,325,193639,6,0,B|58:339|58:339|188:288,1,140,2|0,0:0|0:0,0:0:0:0:
256,152,194014,2,0,L|224:89,1,70,8|0,0:0|0:0,0:0:0:0:
64,184,194264,2,0,L|92:248,1,70
295,311,194514,1,8,0:0:0:0:
295,311,194639,6,0,P|320:240|283:173,1,140,2|0,0:0|0:0,0:0:0:0:
136,128,195014,2,0,L|188:213,1,70,8|0,0:0|0:0,0:0:0:0:
368,104,195264,2,0,L|325:43,1,70
136,32,195514,1,8,0:0:0:0:
136,32,195639,6,0,P|80:48|56:136,1,140,2|0,0:0|0:0,0:0:0:0:
168,272,196014,1,8,0:0:0:0:
176,136,196139,1,8,0:0:0:0:
88,248,196264,1,8,0:0:0:0:
184,112,196389,1,8,0:0:0:0:
256,248,196514,1,8,0:0:0:0:
384,136,196639,6,0,L|240:160,1,140,2|0,0:0|0:0,0:0:0:0:
360,264,197014,2,0,P|400:272|416:296,1,70,8|0,0:0|0:0,0:0:0:0:
184,336,197264,2,0,P|144:328|120:296,1,70
296,216,197514,1,8,0:0:0:0:
336,352,197639,6,0,L|224:264,1,140,2|0,0:0|0:0,0:0:0:0:
64,120,198014,2,0,P|32:80|32:48,1,70,8|0,0:0|0:0,0:0:0:0:
224,144,198264,2,0,P|208:184|176:208,1,70
144,24,198514,1,8,0:0:0:0:
336,64,198639,6,0,L|280:224,1,140,2|0,0:0|0:0,0:0:0:0:
277,344,199014,2,0,L|207:301,1,70,8|0,0:0|0:0,0:0:0:0:
161,130,199264,2,0,L|238:175,1,70
353,250,199514,1,8,0:0:0:0:
465,330,199639,6,0,P|513:251|487:194,1,140,2|0,0:0|0:0,0:0:0:0:
368,136,200014,1,8,0:0:0:0:
296,224,200139,1,8,0:0:0:0:
192,168,200264,1,8,0:0:0:0:
384,216,200389,1,8,0:0:0:0:
224,312,200514,1,8,0:0:0:0:
24,264,200639,6,0,L|168:240,1,140,2|0,0:0|0:0,0:0:0:0:
64,152,201014,2,0,P|24:144|8:120,1,70,8|0,0:0|0:0,0:0:0:0:
240,24,201264,2,0,P|280:32|304:64,1,70
160,168,201514,1,8,0:0:0:0:
112,48,201639,6,0,L|256:120,1,140,2|0,0:0|0:0,0:0:0:0:
408,184,202014,2,0,P|376:216|328:224,1,70,8|0,0:0|0:0,0:0:0:0:
160,240,202264,2,0,P|200:232|232:248,1,70
296,336,202514,1,8,0:0:0:0:
128,336,202639,6,0,B|104:296|40:256|88:192,1,140,2|0,0:0|0:0,0:0:0:0:
223,125,203014,2,0,P|183:129|148:109,1,70,8|0,0:0|0:0,0:0:0:0:
333,46,203264,1,8,0:0:0:0:
277,182,203389,1,8,0:0:0:0:
410,138,203514,1,8,0:0:0:0:
402,265,203639,6,0,L|337:304,1,70,2|0,0:0|0:0,0:0:0:0:
218,219,203889,1,0,0:0:0:0:
93,262,204014,1,8,0:0:0:0:
264,305,204139,1,8,0:0:0:0:
223,125,204264,1,8,0:0:0:0:
27,354,204514,1,8,0:0:0:0:
392,222,204764,6,0,P|357:212|325:186,1,70
479,95,205014,2,0,P|441:124|408:138,1,70,8|0,0:0|0:0,0:0:0:0:
229,40,205264,2,0,P|265:75|297:88,1,70
403,60,205514,1,8,0:0:0:0:
327,179,205639,1,0,0:0:0:0:
412,295,205764,6,0,P|441:260|451:219,1,70
477,94,206014,1,0,0:0:0:0:
354,162,206139,1,8,0:0:0:0:
314,38,206264,2,0,P|268:57|233:154,1,140,0|8,0:0|0:0,0:0:0:0:
360,320,206764,6,0,P|332:340|298:350,1,70
175,205,207014,2,0,P|213:234|246:248,1,70,8|0,0:0|0:0,0:0:0:0:
439,132,207264,2,0,P|403:167|371:180,1,70
262,108,207514,1,8,0:0:0:0:
302,266,207639,1,0,0:0:0:0:
136,274,207764,6,0,P|107:239|97:198,1,70
128,37,208014,1,0,0:0:0:0:
0,173,208139,1,8,0:0:0:0:
178,205,208264,2,0,P|224:186|259:89,1,140,0|8,0:0|0:0,0:0:0:0:
312,352,208764,6,0,P|347:342|379:316,1,70
512,280,209014,2,0,P|482:264|455:242,1,70,8|0,0:0|0:0,0:0:0:0:
344,144,209264,2,0,P|375:127|398:101,1,70
272,56,209514,1,8,0:0:0:0:
224,184,209639,1,0,0:0:0:0:
88,288,209764,6,0,P|130:272|159:241,1,70
0,200,210014,1,8,0:0:0:0:
192,336,210139,1,8,0:0:0:0:
352,144,210264,2,0,P|306:163|271:260,1,140,0|4,0:0|0:0,0:0:0:0:
